<?xml version="1.0" standalone="no"?>
<!DOCTYPE svg PUBLIC "-//W3C//DTD SVG 1.1//EN" "http://www.w3.org/Graphics/SVG/1.1/DTD/svg11.dtd" >
<svg xmlns="http://www.w3.org/2000/svg" xmlns:xlink="http://www.w3.org/1999/xlink" version="1.1">
<metadata>
Created by FontForge 20170731 at Mon Sep  3 20:52:40 2018
 By Aleksey,,,
</metadata>
<defs>
<font id="ProductSans-Black" horiz-adv-x="590" >
  <font-face 
    font-family="Product Sans Black"
    font-weight="900"
    font-stretch="normal"
    units-per-em="1000"
    panose-1="2 11 10 3 3 5 2 4 2 3"
    ascent="800"
    descent="-200"
    x-height="490"
    cap-height="716"
    bbox="-176 -306 3284 966"
    underline-thickness="84"
    underline-position="-496"
    unicode-range="U+000D-2215"
  />
<missing-glyph horiz-adv-x="570" 
d="M72 716h426v-716h-426v716zM136 60h298v596h-298v-596z" />
    <glyph glyph-name="f_i" unicode="fi" horiz-adv-x="642" 
d="M260 0h-150v364h-86v126h86v36q0 97 54 147.5t142 50.5q15 0 24.5 -0.5t17.5 -2.5v-143q-5 2 -13 3t-19 1q-27 0 -41.5 -17t-14.5 -46v-29h318v-490h-150v364h-168v-364zM503 544q-20 0 -37 7.5t-29.5 20t-20 29.5t-7.5 37q0 19 7.5 36.5t20 30t29.5 20t37 7.5
q39 0 66.5 -27.5t27.5 -66.5q0 -20 -7.5 -37t-20 -29.5t-30 -20t-36.5 -7.5z" />
    <glyph glyph-name="f_l" unicode="fl" horiz-adv-x="634" 
d="M428 0v582h-105q-30 0 -46.5 -20t-16.5 -54v-18h108v-126h-108v-364h-150v364h-86v126h86v14q0 216 212 216h256v-720h-150z" />
    <glyph glyph-name="f_b" unicode="fb" horiz-adv-x="984" 
d="M568 0h-140v582h-105q-30 0 -46.5 -20t-16.5 -54v-18h109v-126h-109v-364h-150v364h-86v126h86v14q0 216 212 216h256v-214l-10 -70h10q17 29 52.5 49.5t89.5 20.5q47 0 90 -19t75.5 -53.5t51.5 -82.5t19 -106t-19 -106t-51.5 -82.5t-75.5 -53.5t-90 -19
q-54 0 -89.5 20.5t-52.5 49.5h-10v-54zM687 124q24 0 45.5 8.5t38 24t26 38t9.5 50.5t-9.5 50t-26 38t-38 24.5t-45.5 8.5t-45.5 -8.5t-38 -24.5t-26 -38t-9.5 -50t9.5 -50.5t26 -38t38 -24t45.5 -8.5z" />
    <glyph glyph-name="f_f" unicode="ff" horiz-adv-x="730" 
d="M260 0h-150v364h-86v126h86v36q0 97 54 147.5t142 50.5q15 0 24.5 -0.5t17.5 -2.5v-143q-5 2 -13 3t-19 1q-27 0 -41.5 -17t-14.5 -46v-29h168v36q0 97 54 147.5t142 50.5q28 0 54.5 -5.5t47.5 -13.5l-43 -133q-10 5 -22 7.5t-27 2.5q-27 0 -41.5 -17t-14.5 -46v-29h119
v-126h-119v-364h-150v364h-168v-364z" />
    <glyph glyph-name="f_f_b" unicode="ffb" horiz-adv-x="1302" 
d="M260 364v-364h-150v364h-86v126h86v36q0 97 54 147.5t142 50.5q15 0 24.5 -0.5t17.5 -2.5v-143q-5 2 -13 3t-19 1q-27 0 -41.5 -17t-14.5 -46v-29h168v14q0 216 212 216h256v-214l-10 -70h10q17 29 52.5 49.5t89.5 20.5q47 0 90 -19t75.5 -53.5t51.5 -82.5t19 -106
t-19 -106t-51.5 -82.5t-75.5 -53.5t-90 -19q-54 0 -89.5 20.5t-52.5 49.5h-10v-54h-140v582h-105q-30 0 -46.5 -20t-16.5 -54v-18h108v-126h-108v-364h-150v364h-168zM1005 124q24 0 45.5 8.5t38 24t26 38t9.5 50.5t-9.5 50t-26 38t-38 24.5t-45.5 8.5t-45.5 -8.5t-38 -24.5
t-26 -38t-9.5 -50t9.5 -50.5t26 -38t38 -24t45.5 -8.5z" />
    <glyph glyph-name="f_f_h" unicode="ffh" horiz-adv-x="1280" 
d="M260 364v-364h-150v364h-86v126h86v36q0 97 54 147.5t142 50.5q15 0 24.5 -0.5t17.5 -2.5v-143q-5 2 -13 3t-19 1q-27 0 -41.5 -17t-14.5 -46v-29h168v14q0 216 212 216h256v-246l-10 -70h10q18 50 58.5 76t91.5 26q92 0 137 -59t45 -155v-292h-150v275q0 40 -19 65.5
t-59 25.5q-51 0 -77.5 -39t-26.5 -102v-225h-150v582h-105q-30 0 -46.5 -20t-16.5 -54v-18h108v-126h-108v-364h-150v364h-168z" />
    <glyph glyph-name="f_f_i" unicode="ffi" horiz-adv-x="959" 
d="M578 0h-150v364h-168v-364h-150v364h-86v126h86v36q0 97 54 147.5t142 50.5q15 0 24.5 -0.5t17.5 -2.5v-143q-5 2 -13 3t-19 1q-27 0 -41.5 -17t-14.5 -46v-29h168v36q0 97 54 147.5t142 50.5q15 0 24.5 -0.5t17.5 -2.5v-143q-5 2 -13 3t-19 1q-27 0 -41.5 -17t-14.5 -46
v-29h318v-490h-150v364h-168v-364zM821 544q-39 0 -66.5 27.5t-27.5 66.5q0 19 7.5 36.5t20 30t29.5 20t37 7.5q39 0 66.5 -27.5t27.5 -66.5q0 -20 -7.5 -37t-20 -29.5t-30 -20t-36.5 -7.5z" />
    <glyph glyph-name="f_f_j" unicode="ffj" horiz-adv-x="960" 
d="M260 0h-150v364h-86v126h86v36q0 97 54 147.5t142 50.5q15 0 24.5 -0.5t17.5 -2.5v-143q-5 2 -13 3t-19 1q-27 0 -41.5 -17t-14.5 -46v-29h168v14q0 108 54.5 164t149.5 56q17 0 34 -3v-142q-11 3 -25 3q-30 0 -46.5 -20t-16.5 -54v-18h318v-532q0 -51 -14 -86t-37.5 -57
t-53.5 -31.5t-63 -9.5q-30 0 -53 4t-43 12l38 132q17 -10 37 -10q39 0 39 50v402h-168v-364h-150v364h-168v-364zM821 544q-39 0 -66.5 27.5t-27.5 66.5q0 19 7.5 36.5t20 30t29.5 20t37 7.5q39 0 66.5 -27.5t27.5 -66.5q0 -20 -7.5 -37t-20 -29.5t-30 -20t-36.5 -7.5z" />
    <glyph glyph-name="f_f_k" unicode="ffk" horiz-adv-x="1243" 
d="M428 504q0 216 212 216h256v-368h10l140 138h183v-10l-177 -170l195 -300v-10h-176l-125 207l-50 -48v-159h-150v582h-105q-30 0 -46.5 -20t-16.5 -54v-18h108v-126h-108v-364h-150v364h-168v-364h-150v364h-86v126h86v36q0 97 54 147.5t142 50.5q15 0 24.5 -0.5
t17.5 -2.5v-143q-5 2 -13 3t-19 1q-27 0 -41.5 -17t-14.5 -46v-29h168v14z" />
    <glyph glyph-name="f_f_l" unicode="ffl" horiz-adv-x="952" 
d="M746 0v582h-105q-30 0 -46.5 -20t-16.5 -54v-18h108v-126h-108v-364h-150v364h-168v-364h-150v364h-86v126h86v36q0 97 54 147.5t142 50.5q15 0 24.5 -0.5t17.5 -2.5v-143q-5 2 -13 3t-19 1q-27 0 -41.5 -17t-14.5 -46v-29h168v14q0 216 212 216h256v-720h-150z" />
    <glyph glyph-name="f_f_t" unicode="fft" horiz-adv-x="1061" 
d="M578 0h-150v364h-168v-364h-150v364h-86v126h86v36q0 97 54 147.5t142 50.5q15 0 24.5 -0.5t17.5 -2.5v-143q-5 2 -13 3t-19 1q-27 0 -41.5 -17t-14.5 -46v-29h168v36q0 97 54 147.5t142 50.5q15 0 24.5 -0.5t17.5 -2.5v-143q-5 2 -13 3t-19 1q-27 0 -41.5 -17t-14.5 -46
v-29h168v150h150v-150h121v-126h-121v-165q0 -16 4 -29.5t14 -22.5q15 -13 39 -13q16 0 27 4t19 10l42 -130q-26 -12 -56 -19t-64 -7q-79 0 -125 46q-24 24 -37 59.5t-13 78.5v188h-168v-364z" />
    <glyph glyph-name="f_h" unicode="fh" horiz-adv-x="962" 
d="M428 582h-105q-30 0 -46.5 -20t-16.5 -54v-18h108v-126h-108v-364h-150v364h-86v126h86v14q0 216 212 216h256v-246l-10 -70h10q18 50 58.5 76t91.5 26q92 0 137 -59t45 -155v-292h-150v275q0 40 -19 65.5t-59 25.5q-51 0 -77.5 -39t-26.5 -102v-225h-150v582z" />
    <glyph glyph-name="f_j" unicode="fj" horiz-adv-x="642" 
d="M260 0h-150v364h-86v126h86v36q0 97 54 147.5t142 50.5q15 0 24.5 -0.5t17.5 -2.5v-143q-5 2 -13 3t-19 1q-27 0 -41.5 -17t-14.5 -46v-29h318v-532q0 -51 -14 -86t-37.5 -57t-53.5 -31.5t-63 -9.5q-30 0 -53 4t-43 12l38 132q17 -10 37 -10q39 0 39 50v402h-168v-364z
M503 544q-20 0 -37 7.5t-29.5 20t-20 29.5t-7.5 37q0 19 7.5 36.5t20 30t29.5 20t37 7.5q39 0 66.5 -27.5t27.5 -66.5q0 -20 -7.5 -37t-20 -29.5t-30 -20t-36.5 -7.5z" />
    <glyph glyph-name="f_k" unicode="fk" horiz-adv-x="925" 
d="M428 582h-105q-30 0 -46.5 -20t-16.5 -54v-18h108v-126h-108v-364h-150v364h-86v126h86v14q0 216 212 216h256v-368h10l140 138h183v-10l-177 -170l195 -300v-10h-176l-125 207l-50 -48v-159h-150v582z" />
    <glyph glyph-name="f_t" unicode="ft" horiz-adv-x="743" 
d="M260 0h-150v364h-86v126h86v36q0 97 54 147.5t142 50.5q15 0 24.5 -0.5t17.5 -2.5v-143q-5 2 -13 3t-19 1q-27 0 -41.5 -17t-14.5 -46v-29h168v150h150v-150h121v-126h-121v-165q0 -16 4 -29.5t14 -22.5q15 -13 39 -13q16 0 27 4t19 10l42 -130q-26 -12 -56 -19t-64 -7
q-79 0 -125 46q-24 24 -37 59.5t-13 78.5v188h-168v-364z" />
    <glyph glyph-name="r_f" unicode="rf" horiz-adv-x="840" 
d="M734 724q28 0 54.5 -5.5t47.5 -13.5l-43 -133q-10 5 -22 7.5t-27 2.5q-27 0 -41.5 -17t-14.5 -46v-29h119v-126h-119v-364h-150v364h-86v126h86v36q0 97 54 147.5t142 50.5zM56 490h140v-62h10q20 32 57 54t82 22q19 0 30.5 -1t21.5 -6v-145q-12 6 -27.5 10t-37.5 4
q-60 0 -93 -37.5t-33 -103.5v-225h-150v490z" />
    <glyph glyph-name="r_f_f" unicode="rff" horiz-adv-x="1158" 
d="M56 490h140v-62h10q20 32 57 54t82 22q19 0 30.5 -1t21.5 -6v-145q-12 6 -27.5 10t-37.5 4q-60 0 -93 -37.5t-33 -103.5v-225h-150v490zM1052 724q28 0 54.5 -5.5t47.5 -13.5l-43 -133q-10 5 -22 7.5t-27 2.5q-27 0 -41.5 -17t-14.5 -46v-29h119v-126h-119v-364h-150v364
h-168v-364h-150v364h-86v126h86v36q0 97 54 147.5t142 50.5q31 0 58 -6v-146q-10 5 -21.5 7.5t-26.5 2.5q-27 0 -41.5 -17t-14.5 -46v-29h168v36q0 97 54 147.5t142 50.5z" />
    <glyph glyph-name="r_t" unicode="rt" horiz-adv-x="853" 
d="M56 490h140v-62h10q20 32 57 54t82 22q19 0 30.5 -1t21.5 -6v-145q-12 6 -27.5 10t-37.5 4q-60 0 -93 -37.5t-33 -103.5v-225h-150v490zM538 364h-86v126h86v150h150v-150h121v-126h-121v-165q0 -16 4 -29.5t14 -22.5q15 -13 39 -13q16 0 27 4t19 10l42 -130
q-26 -12 -56 -19t-64 -7q-79 0 -125 46q-24 24 -37 59.5t-13 78.5v188z" />
    <glyph glyph-name="t_f" unicode="tf" horiz-adv-x="730" 
d="M260 199q0 -16 4 -29.5t14 -22.5q15 -13 39 -13q13 0 23 3t23 9v-142q-20 -7 -37.5 -9.5t-40.5 -2.5q-79 0 -125 46q-24 24 -37 59.5t-13 78.5v188h-86v126h86v150h150v-150h168v36q0 97 54 147.5t142 50.5q28 0 54.5 -5.5t47.5 -13.5l-43 -133q-10 5 -22 7.5t-27 2.5
q-27 0 -41.5 -17t-14.5 -46v-29h119v-126h-119v-364h-150v364h-168v-165z" />
    <glyph glyph-name="t_t" unicode="tt" horiz-adv-x="743" 
d="M363 4q-20 -7 -37.5 -9.5t-40.5 -2.5q-79 0 -125 46q-24 24 -37 59.5t-13 78.5v188h-86v126h86v150h150v-150h168v150h150v-150h121v-126h-121v-165q0 -16 4 -29.5t14 -22.5q15 -13 39 -13q16 0 27 4t19 10l42 -130q-26 -12 -56 -19t-64 -7q-79 0 -125 46
q-24 24 -37 59.5t-13 78.5v188h-168v-165q0 -16 4 -29.5t14 -22.5q15 -13 39 -13q13 0 23 3t23 9v-142z" />
    <glyph glyph-name=".notdef" horiz-adv-x="570" 
d="M72 716h426v-716h-426v716zM136 60h298v596h-298v-596z" />
    <glyph glyph-name=".null" horiz-adv-x="0" 
 />
    <glyph glyph-name="uni000D" horiz-adv-x="0" 
d="M0 0z" />
    <glyph glyph-name="NULL" horiz-adv-x="0" 
d="M0 0z" />
    <glyph glyph-name="NULL" horiz-adv-x="0" 
d="M0 0z" />
    <glyph glyph-name="nonmarkingreturn" unicode="&#xd;" horiz-adv-x="333" 
 />
    <glyph glyph-name="space" unicode=" " horiz-adv-x="220" 
d="M0 0z" />
    <glyph glyph-name="exclam" unicode="!" horiz-adv-x="288" 
d="M144 -6q-40 0 -68 28t-28 68t28 68t68 28t68 -28t28 -68t-28 -68t-68 -28zM66 520v196h156v-196l-14 -262h-128z" />
    <glyph glyph-name="quotedbl" unicode="&#x22;" horiz-adv-x="408" 
d="M228 490v226h136v-226h-136zM44 490v226h136v-226h-136z" />
    <glyph glyph-name="numbersign" unicode="#" horiz-adv-x="670" 
d="M107 0l28 187h-112l19 114h110l13 91h-112l18 114h111l27 178h126l-27 -178h100l27 178h126l-27 -178h112l-18 -114h-111l-13 -91h113l-18 -114h-112l-28 -187h-126l28 187h-100l-28 -187h-126zM274 299h106l15 95h-106z" />
    <glyph glyph-name="dollar" unicode="$" horiz-adv-x="572" 
d="M245 -12q-79 11 -136.5 59.5t-84.5 137.5l132 55q9 -36 32 -65.5t57 -43.5v166l-11 4q-33 12 -65.5 30.5t-58 44t-41 58t-15.5 73.5q0 37 13.5 70t38 58t60 41.5t79.5 21.5v86h96v-89q40 -6 70 -20.5t51.5 -34t35 -42.5t21.5 -45l-128 -58q-7 19 -19 34.5t-31 25.5v-154
q48 -20 84 -40.5t60 -45t35.5 -54t11.5 -68.5q0 -45 -15.5 -80.5t-41.5 -61t-60.5 -41.5t-73.5 -22v-88h-96v88zM192 506q0 -19 12 -33t41 -30v120q-25 -8 -39 -22.5t-14 -34.5zM386 192q0 21 -9 35t-36 28v-124q20 9 32.5 25t12.5 36z" />
    <glyph glyph-name="percent" unicode="%" horiz-adv-x="854" 
d="M160 41l444 663l90 -61l-444 -663zM211 358q-39 0 -72 13.5t-57 36.5t-37 54t-13 67t13 67t37 54t57 36.5t72 13.5t72 -13.5t57 -36.5t37 -54t13 -67t-13 -67t-37 -54t-57 -36.5t-72 -13.5zM211 472q23 0 39 15t16 42t-16 42t-39 15t-39 -15t-16 -42t16 -42t39 -15z
M643 -16q-39 0 -72 13.5t-57 36.5t-37 54t-13 67t13 67t37 54t57 36.5t72 13.5t72 -13.5t57 -36.5t37 -54t13 -67t-13 -67t-37 -54t-57 -36.5t-72 -13.5zM643 98q23 0 39 15t16 42t-16 42t-39 15t-39 -15t-16 -42t16 -42t39 -15z" />
    <glyph glyph-name="ampersand" unicode="&#x26;" horiz-adv-x="661" 
d="M561 159l79 -92l-108 -83l-54 62q-35 -30 -78.5 -46t-95.5 -16q-57 0 -106 18t-85 51t-56.5 79t-20.5 102q0 59 28 112t79 92q-17 24 -28 51.5t-11 57.5q0 39 13.5 73t39 58.5t60.5 39t79 14.5q75 0 121 -31.5t66 -85.5l-119 -63q-8 24 -25 38t-40 14q-26 0 -40 -16
t-14 -36q0 -15 6.5 -27t20.5 -28l204 -239l56 91l107 -67zM314 119q46 0 78 27l-167 194q-21 -20 -32 -46t-11 -53q0 -29 11 -51.5t29.5 -38t42.5 -24t49 -8.5z" />
    <glyph glyph-name="quotesingle" unicode="'" horiz-adv-x="224" 
d="M44 490v226h136v-226h-136z" />
    <glyph glyph-name="parenleft" unicode="(" horiz-adv-x="373" 
d="M64 322q0 74 16 142.5t41.5 128t56.5 107t61 80.5l114 -78q-66 -83 -102.5 -174.5t-36.5 -205.5t36.5 -205.5t102.5 -174.5l-114 -78q-30 33 -61 80.5t-56.5 107t-41.5 128t-16 142.5z" />
    <glyph glyph-name="parenright" unicode=")" horiz-adv-x="373" 
d="M309 322q0 -74 -16 -142.5t-41.5 -128t-56.5 -107t-61 -80.5l-114 78q66 83 102.5 174.5t36.5 205.5t-36.5 205.5t-102.5 174.5l114 78q30 -33 61 -80.5t56.5 -107t41.5 -128t16 -142.5z" />
    <glyph glyph-name="asterisk" unicode="*" horiz-adv-x="478" 
d="M187 716h104v-111l10 -4l102 36l35 -98l-104 -37l-4 -10l69 -95l-83 -61l-72 99h-10l-72 -99l-83 61l69 95l-4 10l-104 37l35 98l102 -36l10 4v111z" />
    <glyph glyph-name="plus" unicode="+" horiz-adv-x="578" 
d="M357 504v-165h165v-136h-165v-165h-136v165h-165v136h165v165h136z" />
    <glyph glyph-name="comma" unicode="," horiz-adv-x="291" 
d="M44 -92l62 95q-25 11 -40 34.5t-15 52.5q0 40 28 68t68 28t68 -28t28 -68q0 -18 -5 -31t-18 -32l-109 -163z" />
    <glyph glyph-name="hyphen" unicode="-" horiz-adv-x="460" 
d="M56 378h348v-136h-348v136z" />
    <glyph glyph-name="period" unicode="." horiz-adv-x="288" 
d="M144 -6q-40 0 -68 28t-28 68t28 68t68 28t68 -28t28 -68t-28 -68t-68 -28z" />
    <glyph glyph-name="slash" unicode="/" horiz-adv-x="501" 
d="M27 0l297 716h150l-297 -716h-150z" />
    <glyph glyph-name="zero" unicode="0" horiz-adv-x="674" 
d="M337 -16q-68 0 -122 27t-92 75t-58.5 113.5t-20.5 142.5t20.5 142.5t58.5 113.5t92 75t122 27q67 0 121.5 -27t92.5 -75t58.5 -113.5t20.5 -142.5t-20.5 -142.5t-58.5 -113.5t-92.5 -75t-121.5 -27zM337 124q34 0 60.5 16.5t45 45.5t28 69t9.5 87t-9.5 87t-28 69
t-45 45.5t-60.5 16.5t-60.5 -16.5t-45 -45.5t-28 -69t-9.5 -87t9.5 -87t28 -69t45 -45.5t60.5 -16.5z" />
    <glyph glyph-name="one" unicode="1" horiz-adv-x="444" 
d="M210 0v510l-115 -48l-55 128l201 94h119v-684h-150z" />
    <glyph glyph-name="two" unicode="2" horiz-adv-x="557" 
d="M256 128h257v-128h-464v132q60 59 111 109q22 21 44 43q21 22 39.5 40.5l33 33t21.5 22.5q29 32 41 56.5t12 53.5t-21.5 49.5t-59.5 20.5t-60.5 -21.5t-33.5 -56.5l-136 56q9 31 28 60t48 51.5t68.5 36.5t87.5 14q54 0 97 -15.5t72.5 -42.5t45.5 -64t16 -80
q0 -62 -28.5 -114.5t-79.5 -103.5l-144 -142z" />
    <glyph glyph-name="three" unicode="3" horiz-adv-x="575" 
d="M291 -16q-96 0 -162.5 47t-92.5 137l143 57q21 -95 112 -95q36 0 63 21t27 56q0 81 -115 81h-59v136h55q18 0 35 4t30.5 12.5t21.5 22.5t8 35q0 26 -19.5 46t-54.5 20q-38 0 -60.5 -21t-30.5 -50l-137 56q10 27 28.5 54t47 48.5t67 35t87.5 13.5q51 0 92.5 -14t70.5 -38
t45 -57t16 -71q0 -30 -7.5 -55t-19.5 -44.5t-27 -33t-30 -20.5v-10q48 -19 79 -61t31 -107q0 -44 -17 -81.5t-48.5 -65t-76.5 -43t-102 -15.5z" />
    <glyph glyph-name="four" unicode="4" horiz-adv-x="629" 
d="M351 0v117h-311v124l298 443h163v-427h84v-140h-84v-117h-150zM351 459h-10l-135 -202h145v202z" />
    <glyph glyph-name="five" unicode="5" horiz-adv-x="583" 
d="M289 -16q-41 0 -81 11t-73.5 34t-58.5 58t-36 82l137 53q10 -47 38 -73.5t74 -26.5q40 0 68 28t28 70t-27.5 70t-69.5 28q-29 0 -50 -11t-36 -28l-144 66l37 339h399v-128h-274l-26 -142l10 -3q19 15 47.5 28t69.5 13q42 0 80.5 -16.5t68 -46.5t47.5 -73t18 -96
t-18 -96.5t-51 -74.5t-78 -48t-99 -17z" />
    <glyph glyph-name="six" unicode="6" horiz-adv-x="577" 
d="M335 443q39 0 75.5 -16.5t64.5 -45.5t45 -70t17 -90q0 -54 -20.5 -98t-54.5 -75t-78.5 -47.5t-91.5 -16.5q-57 0 -103.5 19t-79.5 52t-51 77.5t-18 95.5q0 73 28 132.5t74 123.5l159 222l115 -79l-126 -181l7 -7q8 2 18 3t20 1zM288 120q19 0 38 7t33 20t23 31.5t9 41.5
q0 24 -9 42.5t-23 31t-33 19.5t-38 7t-37.5 -7t-32.5 -19.5t-23 -31t-9 -42.5q0 -23 9 -41.5t23 -31.5t32.5 -20t37.5 -7z" />
    <glyph glyph-name="seven" unicode="7" horiz-adv-x="557" 
d="M339 544h-299l2 140h475v-146l-318 -554l-124 70l269 480z" />
    <glyph glyph-name="eight" unicode="8" horiz-adv-x="592" 
d="M296 -16q-58 0 -105.5 16t-81 44t-51.5 65.5t-18 81.5q0 30 8.5 55.5t23 46.5t32.5 36.5t37 26.5v10q-31 22 -54.5 57t-23.5 85q0 41 17.5 76.5t49 61t74 40t92.5 14.5t92.5 -14.5t74 -40t49 -61t17.5 -76.5q0 -50 -23.5 -85t-54.5 -57v-10q19 -11 37 -26.5t32.5 -36.5
t23 -46.5t8.5 -55.5q0 -44 -18 -81.5t-51.5 -65.5t-81 -44t-105.5 -16zM296 421q38 0 64 20.5t26 53.5q0 34 -26 53.5t-64 19.5t-64 -19.5t-26 -53.5q0 -33 26 -53.5t64 -20.5zM296 122q48 0 77 23.5t29 61.5q0 37 -29.5 60.5t-76.5 23.5t-76.5 -23.5t-29.5 -60.5
q0 -38 29 -61.5t77 -23.5z" />
    <glyph glyph-name="nine" unicode="9" horiz-adv-x="577" 
d="M242 242q-39 0 -75.5 16.5t-64.5 45.5t-45 70t-17 90q0 54 20.5 98t54.5 75t78.5 47.5t91.5 16.5q57 0 103.5 -19t79.5 -52t51 -77.5t18 -95.5q0 -73 -28 -132.5t-74 -123.5l-159 -222l-115 79l126 181l-7 7q-8 -2 -18 -3t-20 -1zM289 565q-20 0 -38.5 -7t-32.5 -20
t-23 -31.5t-9 -41.5q0 -24 9 -42.5t23 -31t32.5 -19.5t38.5 -7q19 0 37.5 7t32.5 19.5t23 31t9 42.5q0 23 -9 41.5t-23 31.5t-32.5 20t-37.5 7z" />
    <glyph glyph-name="colon" unicode=":" horiz-adv-x="288" 
d="M144 314q-40 0 -68 28t-28 68t28 68t68 28t68 -28t28 -68t-28 -68t-68 -28zM144 -6q-40 0 -68 28t-28 68t28 68t68 28t68 -28t28 -68t-28 -68t-68 -28z" />
    <glyph glyph-name="semicolon" unicode=";" horiz-adv-x="291" 
d="M147 314q-40 0 -68 28t-28 68t28 68t68 28t68 -28t28 -68t-28 -68t-68 -28zM44 -92l62 95q-25 11 -40 34.5t-15 52.5q0 40 28 68t68 28t68 -28t28 -68q0 -18 -5 -31t-18 -32l-109 -163z" />
    <glyph glyph-name="less" unicode="&#x3c;" horiz-adv-x="544" 
d="M56 210v122l428 194v-152l-240 -98v-10l240 -98v-152z" />
    <glyph glyph-name="equal" unicode="=" 
d="M56 284h478v-136h-478v136zM56 490h478v-136h-478v136z" />
    <glyph glyph-name="greater" unicode="&#x3e;" horiz-adv-x="544" 
d="M60 16v152l240 98v10l-240 98v152l428 -194v-122z" />
    <glyph glyph-name="question" unicode="?" horiz-adv-x="524" 
d="M186 258v26q0 25 5 46t16 40.5t29.5 39t44.5 42.5q25 21 37 38.5t12 40.5t-19.5 42t-51.5 19q-38 0 -61.5 -21.5t-32.5 -53.5l-129 54q8 30 26 59t45.5 51.5t64 36.5t82.5 14q49 0 90 -15t70 -40.5t45.5 -60t16.5 -74.5q0 -27 -5 -48.5t-15 -40.5t-25.5 -37.5
t-36.5 -38.5q-18 -17 -29.5 -30.5t-17.5 -26t-8.5 -26.5t-2.5 -32v-4h-150zM259 -6q-40 0 -68 28t-28 68t28 68t68 28t68 -28t28 -68t-28 -68t-68 -28z" />
    <glyph glyph-name="at" unicode="@" horiz-adv-x="882" 
d="M442 690q90 0 163 -30.5t124.5 -82.5t80 -121t28.5 -146q0 -47 -12 -86t-33.5 -67.5t-52.5 -44.5t-68 -16q-38 0 -72.5 18.5t-49.5 53.5q-43 -72 -136 -72q-41 0 -76 15t-61.5 42t-41.5 64.5t-15 82.5t15.5 82.5t41.5 64.5t60.5 42t72.5 15t62.5 -15t35.5 -33h10v34h111
v-238q0 -27 13 -42.5t32 -15.5q26 0 42 29.5t16 88.5q0 53 -20.5 103t-58.5 89t-91.5 62.5t-119.5 23.5q-61 0 -113 -20t-90.5 -57t-60.5 -90t-22 -119t24 -119t64 -90t91.5 -57t106.5 -20q41 0 75 9.5t61 26.5l37 -97q-37 -18 -82 -28.5t-91 -10.5q-89 0 -162.5 30
t-126 82.5t-81 123t-28.5 150.5q0 79 28.5 149.5t81 123t125.5 83t163 30.5zM421 204q36 0 63.5 25t27.5 71t-27.5 71t-63.5 25t-63.5 -25.5t-27.5 -70.5t27.5 -70.5t63.5 -25.5z" />
    <glyph glyph-name="A" unicode="A" horiz-adv-x="740" 
d="M280 716h180l268 -716h-172l-55 160h-262l-55 -160h-172zM451 302l-52 150l-24 88h-10l-24 -88l-52 -150h162z" />
    <glyph glyph-name="B" unicode="B" horiz-adv-x="646" 
d="M72 716h291q48 0 89.5 -15t71.5 -40t47 -58.5t17 -69.5q0 -59 -28.5 -98t-67.5 -58v-10q57 -21 89.5 -64t32.5 -106q0 -46 -18.5 -82.5t-51 -62t-77 -39t-96.5 -13.5h-299v716zM348 432q42 0 65 19t23 54t-23 54t-61 19h-124v-146h120zM361 140q97 0 97 80t-101 80h-129
v-160h133z" />
    <glyph glyph-name="C" unicode="C" horiz-adv-x="737" 
d="M701 116q-110 -132 -287 -132q-80 0 -149 29t-119.5 79.5t-79.5 118.5t-29 147t29 147t79.5 118.5t119.5 79.5t149 29q88 0 152.5 -30t117.5 -87l-109 -106q-28 32 -67 53.5t-93 21.5q-47 0 -87.5 -16t-70.5 -46t-47 -71.5t-17 -92.5t17 -92.5t47 -71.5t70.5 -46
t87.5 -16q57 0 99 23t76 66z" />
    <glyph glyph-name="D" unicode="D" horiz-adv-x="733" 
d="M72 716h253q86 0 155 -26t117 -73t73.5 -113t25.5 -146t-25.5 -146t-73.5 -113t-117 -73t-155 -26h-253v716zM317 148q58 0 100 15.5t69.5 43.5t40.5 66.5t13 84.5t-13 84.5t-40.5 66.5t-69.5 43.5t-100 15.5h-89v-420h89z" />
    <glyph glyph-name="E" unicode="E" horiz-adv-x="596" 
d="M228 568v-136h284v-148h-284v-136h316v-148h-472v716h472v-148h-316z" />
    <glyph glyph-name="F" unicode="F" horiz-adv-x="576" 
d="M72 716h472v-148h-316v-144h284v-148h-284v-276h-156v716z" />
    <glyph glyph-name="G" unicode="G" horiz-adv-x="815" 
d="M414 398h353q3 -12 5.5 -31t2.5 -36q0 -76 -22 -135t-64 -104q-48 -51 -116 -79.5t-155 -28.5q-78 0 -147.5 28t-121.5 77.5t-82 118t-30 150.5t30 150.5t82 118t121.5 77.5t147.5 28q91 0 158.5 -31t118.5 -85l-106 -104q-35 35 -74.5 53.5t-98.5 18.5
q-46 0 -86.5 -16.5t-71 -46t-48 -71t-17.5 -92.5t17.5 -92.5t48.5 -71t72 -46t88 -16.5q92 0 147 49q17 15 31.5 37.5t23.5 49.5h-207v130z" />
    <glyph glyph-name="H" unicode="H" horiz-adv-x="730" 
d="M72 716h156v-276h274v276h156v-716h-156v292h-274v-292h-156v716z" />
    <glyph glyph-name="I" unicode="I" horiz-adv-x="300" 
d="M72 716h156v-716h-156v716z" />
    <glyph glyph-name="J" unicode="J" horiz-adv-x="571" 
d="M268 -16q-44 0 -82.5 12.5t-70.5 36t-55.5 56t-35.5 72.5l142 58q10 -38 35 -62.5t67 -24.5q41 0 64 24.5t23 75.5v484h156v-486q0 -61 -19.5 -107t-53 -77t-77.5 -46.5t-93 -15.5z" />
    <glyph glyph-name="K" unicode="K" horiz-adv-x="692" 
d="M72 716h156v-276h10l236 276h185v-10l-255 -291l286 -405v-10h-190l-204 291l-68 -79v-212h-156v716z" />
    <glyph glyph-name="L" unicode="L" horiz-adv-x="552" 
d="M72 716h156v-568h300v-148h-456v716z" />
    <glyph glyph-name="M" unicode="M" horiz-adv-x="870" 
d="M72 716h154l204 -350h10l204 350h154v-716h-154v317l10 120h-10l-163 -285h-92l-163 285h-10l10 -120v-317h-154v716z" />
    <glyph glyph-name="N" unicode="N" horiz-adv-x="736" 
d="M72 716h180l258 -442h10l-10 138v304h154v-716h-164l-274 468h-10l10 -138v-330h-154v716z" />
    <glyph glyph-name="O" unicode="O" horiz-adv-x="828" 
d="M414 -16q-81 0 -150 29t-119.5 79.5t-79 118.5t-28.5 147t28.5 147t79 118.5t119.5 79.5t150 29t150 -29t119.5 -79.5t79 -118.5t28.5 -147t-28.5 -147t-79 -118.5t-119.5 -79.5t-150 -29zM414 132q46 0 86.5 16t70.5 46t47 71.5t17 92.5t-17 92.5t-47 71.5t-70.5 46
t-86.5 16q-47 0 -87 -16t-70 -46t-47 -71.5t-17 -92.5t17 -92.5t47 -71.5t70 -46t87 -16z" />
    <glyph glyph-name="P" unicode="P" horiz-adv-x="606" 
d="M72 0v716h256q55 0 101.5 -17t80.5 -47.5t53 -73.5t19 -95t-19 -95t-53 -73.5t-80.5 -47.5t-101.5 -17h-100v-250h-156zM333 398q49 0 73 24t24 61t-24 61t-73 24h-105v-170h105z" />
    <glyph glyph-name="Q" unicode="Q" horiz-adv-x="828" 
d="M561 12q-70 -28 -147 -28q-81 0 -150 29t-119.5 79.5t-79 118.5t-28.5 147t28.5 147t79 118.5t119.5 79.5t150 29t150 -29t119.5 -79.5t79 -118.5t28.5 -147q0 -81 -30 -151t-84 -121l57 -86l-114 -76zM400 253l114 77l76 -114q21 28 33 64t12 78q0 51 -17 92.5t-47 71.5
t-70.5 46t-86.5 16q-47 0 -87 -16t-70 -46t-47 -71.5t-17 -92.5t17 -92.5t47 -71.5t70 -46t87 -16q31 0 61 8z" />
    <glyph glyph-name="R" unicode="R" horiz-adv-x="641" 
d="M72 716h270q58 0 104 -17.5t77.5 -48.5t48 -73.5t16.5 -92.5q0 -35 -11.5 -65t-31 -55.5t-45.5 -45t-56 -32.5v-9l187 -267v-10h-178l-181 258h-44v-258h-156v716zM342 402q42 0 66 24.5t24 60.5t-22.5 60.5t-67.5 24.5h-114v-170h114z" />
    <glyph glyph-name="S" unicode="S" horiz-adv-x="586" 
d="M299 -16q-100 0 -172.5 53.5t-102.5 153.5l147 58q13 -51 43 -84t85 -33q18 0 34.5 4t29 12.5t20.5 21.5t8 30t-6.5 31.5t-21.5 27t-40 25t-63 26.5l-44 16q-28 10 -57.5 27.5t-53.5 42.5t-39 57.5t-15 72.5q0 43 17 81t48 65.5t75 43.5t97 16q56 0 96 -14.5t68 -37
t44.5 -50.5t25.5 -54l-135 -57q-11 32 -35 51.5t-62 19.5q-40 0 -63.5 -16.5t-23.5 -42.5q0 -27 24 -48t85 -42l44 -15q91 -31 141 -83t50 -140q0 -56 -22.5 -97t-58 -68t-80 -40.5t-87.5 -13.5z" />
    <glyph glyph-name="T" unicode="T" horiz-adv-x="604" 
d="M224 0v568h-200v148h556v-148h-200v-568h-156z" />
    <glyph glyph-name="U" unicode="U" horiz-adv-x="682" 
d="M341 -16q-65 0 -118 20.5t-90 60.5t-57 97.5t-20 131.5v422h156v-432q0 -66 33 -109t96 -43t96 43t33 109v432h156v-422q0 -68 -20 -125t-57 -98t-90 -64t-118 -23z" />
    <glyph glyph-name="V" unicode="V" horiz-adv-x="704" 
d="M12 716h168l136 -394l27 -100h10l29 100l142 394h168l-262 -716h-164z" />
    <glyph glyph-name="W" unicode="W" horiz-adv-x="970" 
d="M16 716h166l99 -375l17 -86h10l21 86l87 279h146l88 -279l20 -84h10l15 84l93 375h166l-189 -716h-148l-102 314l-21 86h-10l-21 -86l-102 -314h-148z" />
    <glyph glyph-name="X" unicode="X" horiz-adv-x="716" 
d="M248 376l-212 340h196l121 -214h10l121 214h196l-212 -340l232 -376h-198l-139 240h-10l-139 -240h-198z" />
    <glyph glyph-name="Y" unicode="Y" horiz-adv-x="658" 
d="M253 333l-241 383h188l126 -210h10l120 210h190l-237 -383v-333h-156v333z" />
    <glyph glyph-name="Z" unicode="Z" horiz-adv-x="612" 
d="M32 156l354 412h-338v148h520v-156l-348 -412h352v-148h-540v156z" />
    <glyph glyph-name="bracketleft" unicode="[" horiz-adv-x="374" 
d="M72 792h270v-124h-120v-668h120v-124h-270v916z" />
    <glyph glyph-name="backslash" unicode="\" horiz-adv-x="501" 
d="M324 0l-297 716h150l297 -716h-150z" />
    <glyph glyph-name="bracketright" unicode="]" horiz-adv-x="374" 
d="M32 0h120v668h-120v124h270v-916h-270v124z" />
    <glyph glyph-name="asciicircum" unicode="^" horiz-adv-x="538" 
d="M370 410l-96 164h-10l-96 -164h-156l193 306h128l193 -306h-156z" />
    <glyph glyph-name="underscore" unicode="_" horiz-adv-x="508" 
d="M0 -80h508v-136h-508v136z" />
    <glyph glyph-name="grave" unicode="`" horiz-adv-x="464" 
d="M194 588l-98 140h179l37 -140h-118z" />
    <glyph glyph-name="a" unicode="a" horiz-adv-x="548" 
d="M350 44h-10q-24 -26 -54.5 -43t-78.5 -17q-37 0 -69.5 12t-57 34t-38.5 53t-14 69q0 37 15 67.5t41 52.5t61.5 34t77.5 12q45 0 74.5 -6t52.5 -14v13q0 32 -26.5 54.5t-71.5 22.5q-65 0 -112 -53l-102 72q42 50 97.5 74.5t122.5 24.5q120 0 181 -53.5t61 -162.5v-290
h-150v44zM350 193q-23 9 -45.5 14t-46.5 5q-40 0 -60 -16.5t-20 -42.5t19 -41.5t50 -15.5q25 0 44.5 8.5t32.5 22.5t19.5 31.5t6.5 34.5z" />
    <glyph glyph-name="b" unicode="b" horiz-adv-x="612" 
d="M196 0h-140v716h150v-210l-10 -70h10q17 29 52.5 49.5t89.5 20.5q47 0 90 -19t75.5 -53.5t51.5 -82.5t19 -106t-19 -106t-51.5 -82.5t-75.5 -53.5t-90 -19q-54 0 -89.5 20.5t-52.5 49.5h-10v-54zM315 124q24 0 45.5 8.5t38 24t26 38t9.5 50.5t-9.5 50t-26 38t-38 24.5
t-45.5 8.5t-45.5 -8.5t-38 -24.5t-26 -38t-9.5 -50t9.5 -50.5t26 -38t38 -24t45.5 -8.5z" />
    <glyph glyph-name="c" unicode="c" horiz-adv-x="556" 
d="M532 125q-36 -66 -95.5 -103.5t-144.5 -37.5q-57 0 -105.5 19.5t-84 54t-55 82.5t-19.5 105t19.5 105t55 82.5t84 54t105.5 19.5q84 0 144.5 -37t89.5 -102l-138 -58q-16 29 -38.5 43t-57.5 14q-49 0 -81.5 -32.5t-32.5 -88.5t32.5 -88.5t81.5 -32.5q35 0 60 15.5
t42 45.5z" />
    <glyph glyph-name="d" unicode="d" horiz-adv-x="612" 
d="M416 54h-10q-17 -29 -52.5 -49.5t-89.5 -20.5q-47 0 -90 19t-75.5 53.5t-51.5 82.5t-19 106t19 106t51.5 82.5t75.5 53.5t90 19q54 0 89.5 -20.5t52.5 -49.5h10l-10 70v210h150v-716h-140v54zM297 124q24 0 45.5 8.5t38 24t26 38t9.5 50.5t-9.5 50t-26 38t-38 24.5
t-45.5 8.5t-45.5 -8.5t-38 -24.5t-26 -38t-9.5 -50t9.5 -50.5t26 -38t38 -24t45.5 -8.5z" />
    <glyph glyph-name="e" unicode="e" horiz-adv-x="566" 
d="M530 119q-36 -63 -94.5 -99t-141.5 -36q-57 0 -105.5 19.5t-84.5 54.5t-56 82.5t-20 104.5q0 53 20 100.5t55.5 83t83 56.5t103.5 21q61 0 107.5 -20t77.5 -54.5t47 -81t16 -99.5q0 -8 -0.5 -16t-1.5 -14q-1 -7 -1 -13h-361q11 -48 45 -70t76 -22t69.5 18t43.5 46z
M397 310q-2 12 -9.5 26t-21 25.5t-33 19t-43.5 7.5q-35 0 -65 -20t-44 -58h216z" />
    <glyph glyph-name="f" unicode="f" horiz-adv-x="412" 
d="M306 724q28 0 54.5 -5.5t47.5 -13.5l-43 -133q-10 5 -22 7.5t-27 2.5q-27 0 -41.5 -17t-14.5 -46v-29h119v-126h-119v-364h-150v364h-86v126h86v36q0 97 54 147.5t142 50.5z" />
    <glyph glyph-name="g" unicode="g" horiz-adv-x="608" 
d="M287 -232q-53 0 -95 13.5t-73.5 35t-52 48t-30.5 53.5l144 57q14 -38 44 -56.5t63 -18.5q54 0 87.5 35t33.5 100v27h-10q-46 -62 -140 -62q-42 0 -83 17.5t-74 50t-53 79.5t-20 106t20 106t53 79.5t74 50t83 17.5q94 0 140 -62h10v46h144v-448q0 -60 -18.5 -110.5
t-53 -87t-83.5 -56.5t-110 -20zM293 136q21 0 41.5 7.5t37 22t26.5 36.5t10 51t-10 51t-26.5 36.5t-37 22t-41.5 7.5t-41.5 -7.5t-37 -22t-26.5 -36.5t-10 -51t10 -51t26.5 -36.5t37 -22t41.5 -7.5z" />
    <glyph glyph-name="h" unicode="h" 
d="M56 716h150v-188l-10 -100h10q23 36 61 57t86 21q93 0 139 -56t46 -158v-292h-150v275q0 40 -19 65.5t-59 25.5q-51 0 -77.5 -39t-26.5 -102v-225h-150v716z" />
    <glyph glyph-name="i" unicode="i" horiz-adv-x="278" 
d="M139 544q-20 0 -37 7.5t-29.5 20t-20 29.5t-7.5 37q0 19 7.5 36.5t20 30t29.5 20t37 7.5q19 0 36.5 -7.5t30 -20t20 -30t7.5 -36.5q0 -20 -7.5 -37t-20 -29.5t-30 -20t-36.5 -7.5zM64 0v490h150v-490h-150z" />
    <glyph glyph-name="j" unicode="j" horiz-adv-x="278" 
d="M-12 -78q17 -10 37 -10q39 0 39 50v528h150v-532q0 -51 -14 -86t-37.5 -57t-53.5 -31.5t-63 -9.5q-30 0 -53 4t-43 12zM139 544q-20 0 -37 7.5t-29.5 20t-20 29.5t-7.5 37q0 19 7.5 36.5t20 30t29.5 20t37 7.5q19 0 36.5 -7.5t30 -20t20 -30t7.5 -36.5q0 -20 -7.5 -37
t-20 -29.5t-30 -20t-36.5 -7.5z" />
    <glyph glyph-name="k" unicode="k" horiz-adv-x="553" 
d="M56 716h150v-364h10l140 138h183v-10l-177 -170l195 -300v-10h-176l-125 207l-50 -48v-159h-150v716z" />
    <glyph glyph-name="l" unicode="l" horiz-adv-x="262" 
d="M56 0v716h150v-716h-150z" />
    <glyph glyph-name="m" unicode="m" horiz-adv-x="894" 
d="M56 490h140v-62h10q24 37 61.5 57.5t88.5 20.5q56 0 93 -26.5t52 -61.5q22 35 63 61.5t103 26.5q44 0 77 -14.5t54.5 -40.5t32.5 -62t11 -79v-310h-150v281q0 38 -17.5 61.5t-51.5 23.5q-49 0 -74 -39.5t-25 -105.5v-221h-150v281q0 38 -18.5 61.5t-57.5 23.5
q-46 0 -69 -39.5t-23 -105.5v-221h-150v490z" />
    <glyph glyph-name="n" unicode="n" 
d="M196 428h10q50 78 150 78q92 0 137 -59t45 -155v-292h-150v275q0 40 -19 65.5t-59 25.5q-51 0 -77.5 -39t-26.5 -102v-225h-150v490h140v-62z" />
    <glyph glyph-name="o" unicode="o" horiz-adv-x="584" 
d="M292 506q57 0 105.5 -19.5t84 -54t55 -82.5t19.5 -105t-19.5 -105t-55 -82.5t-84 -54t-105.5 -19.5t-105.5 19.5t-84 54t-55 82.5t-19.5 105t19.5 105t55 82.5t84 54t105.5 19.5zM292 124q23 0 43.5 8.5t36.5 24t25 38t9 50.5t-9 50t-25 38t-36.5 24.5t-43.5 8.5
t-43.5 -8.5t-36.5 -24.5t-25 -38t-9 -50t9 -50.5t25 -38t36.5 -24t43.5 -8.5z" />
    <glyph glyph-name="p" unicode="p" horiz-adv-x="608" 
d="M192 436h10q17 29 52.5 49.5t89.5 20.5q47 0 90 -19t75.5 -53.5t51.5 -82.5t19 -106t-19 -106t-51.5 -82.5t-75.5 -53.5t-90 -19q-54 0 -89.5 20.5t-52.5 49.5h-10l10 -70v-200h-150v706h140v-54zM311 366q-24 0 -45.5 -8.5t-38 -24.5t-26 -38t-9.5 -50t9.5 -50.5t26 -38
t38 -24t45.5 -8.5t45.5 8.5t38 24t26 38t9.5 50.5t-9.5 50t-26 38t-38 24.5t-45.5 8.5z" />
    <glyph glyph-name="q" unicode="q" horiz-adv-x="608" 
d="M416 490h140v-706h-150v200l10 70h-10q-17 -29 -52.5 -49.5t-89.5 -20.5q-47 0 -90 19t-75.5 53.5t-51.5 82.5t-19 106t19 106t51.5 82.5t75.5 53.5t90 19q54 0 89.5 -20.5t52.5 -49.5h10v54zM297 366q-24 0 -45.5 -8.5t-38 -24.5t-26 -38t-9.5 -50t9.5 -50.5t26 -38
t38 -24t45.5 -8.5t45.5 8.5t38 24t26 38t9.5 50.5t-9.5 50t-26 38t-38 24.5t-45.5 8.5z" />
    <glyph glyph-name="r" unicode="r" horiz-adv-x="429" 
d="M56 490h140v-62h10q20 32 57 54t82 22q27 0 47 -6.5t33 -14.5l-39 -132q-13 7 -27.5 11t-37.5 4q-56 0 -85.5 -39t-29.5 -102v-225h-150v490z" />
    <glyph glyph-name="s" unicode="s" horiz-adv-x="497" 
d="M258 -16q-51 0 -90 12t-67.5 31.5t-47.5 45t-29 51.5l135 57q14 -34 39 -49.5t60 -15.5q30 0 46.5 9.5t16.5 24.5q0 17 -16 26.5t-51 17.5l-67 14q-24 5 -49 16t-46 29t-34 42.5t-13 56.5q0 35 15.5 63.5t42.5 48.5t64 31t81 11q76 0 131 -26.5t83 -88.5l-129 -53
q-13 26 -36.5 38t-47.5 12q-26 0 -42 -9t-16 -22q0 -14 16.5 -22.5t40.5 -14.5l76 -18q75 -18 112 -58t37 -94q0 -33 -15.5 -63t-44 -53t-68 -36.5t-87.5 -13.5z" />
    <glyph glyph-name="t" unicode="t" horiz-adv-x="425" 
d="M110 364h-86v126h86v150h150v-150h121v-126h-121v-165q0 -16 4 -29.5t14 -22.5q15 -13 39 -13q16 0 27 4t19 10l42 -130q-26 -12 -56 -19t-64 -7q-79 0 -125 46q-24 24 -37 59.5t-13 78.5v188z" />
    <glyph glyph-name="u" unicode="u" 
d="M394 62h-10q-50 -78 -150 -78q-92 0 -137 59t-45 155v292h150v-275q0 -40 19 -65.5t59 -25.5q51 0 77.5 39t26.5 102v225h150v-490h-140v62z" />
    <glyph glyph-name="v" unicode="v" horiz-adv-x="586" 
d="M4 490h174l110 -278h10l112 278h172l-216 -490h-148z" />
    <glyph glyph-name="w" unicode="w" horiz-adv-x="830" 
d="M4 490h172l67 -276h10l87 276h154l86 -276h10l66 276h170l-156 -490h-164l-87 276h-10l-86 -276h-163z" />
    <glyph glyph-name="x" unicode="x" horiz-adv-x="535" 
d="M177 249l-168 241h180l74 -118h10l68 118h186l-172 -241l171 -249h-178l-77 119h-10l-75 -119h-178z" />
    <glyph glyph-name="y" unicode="y" horiz-adv-x="581" 
d="M212 21l-208 469h173l113 -270h10l108 270h169l-307 -706h-164z" />
    <glyph glyph-name="z" unicode="z" horiz-adv-x="488" 
d="M32 120l235 246h-227v124h412v-120l-235 -246h239v-124h-424v120z" />
    <glyph glyph-name="braceleft" unicode="{" horiz-adv-x="347" 
d="M218.5 288q14.5 -30 14.5 -81v-133q0 -34 20 -54t48 -20h14v-124h-41q-91 0 -141 51.5t-50 140.5v145q0 29 -18 43.5t-41 14.5v126q23 0 41 14.5t18 43.5v145q0 89 50 140.5t141 51.5h41v-124h-14q-28 0 -48 -20t-20 -54v-133q0 -51 -14.5 -81t-56.5 -41v-10
q42 -11 56.5 -41z" />
    <glyph glyph-name="bar" unicode="|" horiz-adv-x="282" 
d="M72 -120v912h138v-912h-138z" />
    <glyph glyph-name="braceright" unicode="}" horiz-adv-x="347" 
d="M185 339q-42 11 -56.5 41t-14.5 81v133q0 34 -20 54t-48 20h-14v124h41q91 0 141 -51.5t50 -140.5v-145q0 -29 18 -43.5t41 -14.5v-126q-23 0 -41 -14.5t-18 -43.5v-145q0 -89 -50 -140.5t-141 -51.5h-41v124h14q28 0 48 20t20 54v133q0 51 14.5 81t56.5 41v10z" />
    <glyph glyph-name="asciitilde" unicode="~" horiz-adv-x="566" 
d="M394 218q-33 0 -60.5 8.5t-51.5 19.5q-24 10 -45 19t-40 9q-23 0 -33 -11t-12 -29h-120q0 74 34 119t106 45q34 0 62 -9t52 -19q24 -11 44 -19.5t39 -8.5q23 0 33 11t12 29h120q0 -74 -34 -119t-106 -45z" />
    <glyph glyph-name="uni00A0" unicode="&#xa0;" horiz-adv-x="220" 
d="M0 0z" />
    <glyph glyph-name="exclamdown" unicode="&#xa1;" horiz-adv-x="288" 
d="M144 506q40 0 68 -28t28 -68t-28 -68t-68 -28t-68 28t-28 68t28 68t68 28zM222 -20v-196h-156v196l14 262h128z" />
    <glyph glyph-name="cent" unicode="&#xa2;" horiz-adv-x="547" 
d="M523 226q-32 -57 -78 -94t-113 -47v-85h-96v88q-47 8 -85 30t-65.5 55t-42.5 76t-15 93t15 93t42.5 76t65.5 55t85 30v88h96v-86q67 -8 113 -44t73 -93l-121 -48q-13 25 -29 39t-36 20v-260q49 14 77 64zM162 342q0 -47 20.5 -79t53.5 -46v250q-33 -15 -53.5 -46.5
t-20.5 -78.5z" />
    <glyph glyph-name="sterling" unicode="&#xa3;" horiz-adv-x="547" 
d="M257 240q-2 -37 -15 -61.5t-32 -39.5l6 -9h135q52 0 66 60l114 -50q-17 -66 -59 -103t-118 -37h-322v119q45 17 69 51t24 66v4h-88v112h46q-18 29 -34 63t-16 84q0 40 16 76t44.5 64t68.5 44.5t89 16.5q48 0 84.5 -12.5t62.5 -33t42.5 -48t25.5 -57.5l-131 -53
q-6 28 -25.5 51t-58.5 23q-35 0 -56.5 -22.5t-21.5 -57.5q0 -21 5.5 -39t13.5 -34.5t19 -32.5q10 -16 19 -32h130v-112h-103z" />
    <glyph glyph-name="currency" unicode="&#xa4;" horiz-adv-x="614" 
d="M117 209q-15 25 -23.5 54.5t-8.5 61.5t8.5 61.5t23.5 54.5l-57 57l69 70l58 -57q26 16 56.5 24.5t63.5 8.5t63.5 -8.5t56.5 -24.5l58 57l69 -70l-57 -57q15 -25 23.5 -54.5t8.5 -61.5t-8.5 -61.5t-23.5 -54.5l57 -57l-69 -70l-58 57q-26 -16 -56.5 -24.5t-63.5 -8.5
t-63.5 8.5t-56.5 24.5l-58 -57l-69 70zM205 325q0 -45 29 -75t73 -30t73 30t29 75t-29 75t-73 30t-73 -30t-29 -75z" />
    <glyph glyph-name="yen" unicode="&#xa5;" horiz-adv-x="662" 
d="M92 441h76l-156 243h188l103 -173l25 -70h10l25 70l99 173h188l-153 -243h73v-136h-159v-53h159v-136h-159v-116h-156v116h-163v136h163v53h-163v136z" />
    <glyph glyph-name="brokenbar" unicode="&#xa6;" horiz-adv-x="282" 
d="M72 376v380h138v-380h-138zM210 292v-412h-138v412h138z" />
    <glyph glyph-name="section" unicode="&#xa7;" horiz-adv-x="572" 
d="M59 262q0 48 19 81.5t51 57.5q-31 25 -50 59t-19 79q0 44 18.5 80t49.5 61t72 38.5t86 13.5q51 0 90 -14.5t67 -37t45 -50t23 -54.5l-137 -53q-7 32 -28 52.5t-63 20.5q-30 0 -51.5 -16t-21.5 -39q0 -12 5 -22t17 -19t32.5 -18t50.5 -19l44 -15q91 -31 132 -79.5
t41 -123.5q0 -51 -17 -84.5t-43 -57.5q26 -26 41 -60t15 -72q0 -44 -17.5 -81.5t-48.5 -64.5t-74.5 -42t-94.5 -15q-55 0 -99 17.5t-75.5 45.5t-51.5 63.5t-27 71.5l137 51q12 -51 43 -82t78 -31q36 0 58 18.5t22 50.5q0 16 -7 28t-22 22.5t-39 20.5t-57 21l-37 13
q-74 25 -115.5 74t-41.5 110zM197 281q0 -30 26 -52.5t77 -39.5l60 -20q11 11 18 25t7 30q0 38 -26 65t-96 50l-29 9q-17 -11 -27 -27.5t-10 -39.5z" />
    <glyph glyph-name="dieresis" unicode="&#xa8;" horiz-adv-x="478" 
d="M59 659q0 33 23 56t56 23t56 -23t23 -56t-23 -56t-56 -23t-56 23t-23 56zM261 659q0 33 23 56t56 23t56 -23t23 -56t-23 -56t-56 -23t-56 23t-23 56z" />
    <glyph glyph-name="copyright" unicode="&#xa9;" horiz-adv-x="532" 
d="M266 272q-48 0 -89.5 18t-73 49.5t-49.5 73t-18 89.5q0 47 18 89t49.5 73.5t73 49.5t89.5 18q47 0 89 -18t73.5 -49.5t49.5 -73.5t18 -89q0 -48 -18 -89.5t-49.5 -73t-73.5 -49.5t-89 -18zM266 320q38 0 71 14.5t58 39.5t39 58t14 70q0 38 -14 71t-39 58t-58 39t-71 14
q-37 0 -70 -14t-58 -39t-39.5 -58t-14.5 -71q0 -37 14.5 -70t39.5 -58t58 -39.5t70 -14.5zM270 383q-26 0 -47.5 9.5t-37.5 25.5t-25 38t-9 46q0 25 9 46.5t25 37.5t37.5 25.5t47.5 9.5q31 0 50.5 -11t36.5 -28l-32 -29q-11 11 -22 17.5t-33 6.5q-29 0 -51 -21.5t-22 -53.5
t22 -53.5t51 -21.5q21 0 35 8.5t25 22.5l34 -27q-16 -21 -39 -34.5t-55 -13.5z" />
    <glyph glyph-name="ordfeminine" unicode="&#xaa;" horiz-adv-x="503" 
d="M330 324h-10q-23 -26 -51.5 -39t-66.5 -13q-34 0 -63.5 10.5t-51.5 30t-34.5 47t-12.5 60.5q0 32 14 59t37 46.5t54 30t66 10.5q37 0 65 -6t54 -17v13q0 30 -22.5 52t-67.5 22q-27 0 -52 -13t-37 -36l-104 53q32 52 85 75t110 23q106 0 163.5 -47t57.5 -143v-256h-133v38
zM330 456q-20 8 -43.5 12.5t-44.5 4.5q-35 0 -52.5 -14.5t-17.5 -37.5t16.5 -36.5t44.5 -13.5q22 0 40 7.5t31 20t19.5 27.5t6.5 30z" />
    <glyph glyph-name="guillemotleft" unicode="&#xab;" horiz-adv-x="637" 
d="M342 114l-85 -78l-217 235l217 235l85 -78l-145 -157zM577 114l-85 -78l-217 235l217 235l85 -78l-145 -157z" />
    <glyph glyph-name="logicalnot" unicode="&#xac;" horiz-adv-x="610" 
d="M48 413h482v-308h-136v176h-346v132z" />
    <glyph glyph-name="uni00AD" unicode="&#xad;" horiz-adv-x="460" 
d="M56 378h348v-136h-348v136z" />
    <glyph glyph-name="registered" unicode="&#xae;" horiz-adv-x="532" 
d="M266 272q-48 0 -89.5 18t-73 49.5t-49.5 73t-18 89.5q0 47 18 89t49.5 73.5t73 49.5t89.5 18q47 0 89 -18t73.5 -49.5t49.5 -73.5t18 -89q0 -48 -18 -89.5t-49.5 -73t-73.5 -49.5t-89 -18zM266 320q38 0 71 14.5t58 39.5t39 58t14 70q0 38 -14 71t-39 58t-58 39t-71 14
q-37 0 -70 -14t-58 -39t-39.5 -58t-14.5 -71q0 -37 14.5 -70t39.5 -58t58 -39.5t70 -14.5zM189 389v226h96q29 0 51 -20.5t22 -51.5q0 -23 -14.5 -41.5t-35.5 -24.5l-2 -2l60 -84v-2h-52l-55 84h-24v-84h-46zM281 515q12 0 21.5 7.5t9.5 20.5q0 10 -8 19t-22 9h-47v-56h46z
" />
    <glyph glyph-name="macron" unicode="&#xaf;" horiz-adv-x="424" 
d="M60 602v114h304v-114h-304z" />
    <glyph glyph-name="degree" unicode="&#xb0;" horiz-adv-x="325" 
d="M163 442q-27 0 -51 10t-41.5 27.5t-28 41t-10.5 50.5t10.5 50.5t28 41t41.5 27.5t51 10t50.5 -10t41 -27.5t28 -41t10.5 -50.5t-10.5 -50.5t-28 -41t-41 -27.5t-50.5 -10zM163 526q20 0 32 13.5t12 31.5q0 19 -12 32t-32 13t-32.5 -13t-12.5 -32q0 -18 12.5 -31.5
t32.5 -13.5z" />
    <glyph glyph-name="plusminus" unicode="&#xb1;" horiz-adv-x="578" 
d="M357 583v-133h165v-124h-165v-133h-136v133h-165v124h165v133h136zM56 136h466v-136h-466v136z" />
    <glyph glyph-name="twosuperior" unicode="&#xb2;" horiz-adv-x="324" 
d="M29 350v65l125 125q20 20 30 33.5t10 31.5q0 12 -9.5 22.5t-25.5 10.5q-18 0 -30.5 -11.5t-16.5 -35.5l-88 34q11 45 47.5 72t87.5 27q61 0 98 -30.5t37 -77.5q0 -18 -6.5 -35t-16 -31.5t-20 -26.5t-19.5 -21l-66 -66h130v-86h-267z" />
    <glyph glyph-name="threesuperior" unicode="&#xb3;" horiz-adv-x="341" 
d="M169 342q-50 0 -90.5 24t-54.5 77l92 33q5 -28 20 -39t33 -11q17 0 29.5 10.5t12.5 28.5q0 17 -15 27t-40 10h-37v76h33q23 0 36 8t13 25q0 14 -10 21.5t-24 7.5q-20 0 -32 -10t-16 -24l-86 35q13 36 47 59.5t90 23.5q28 0 51.5 -8.5t40 -22.5t25.5 -32.5t9 -37.5
q0 -24 -9.5 -43.5t-32.5 -36.5q23 -12 39 -34.5t16 -49.5q0 -28 -11.5 -49.5t-31 -36.5t-45 -23t-52.5 -8z" />
    <glyph glyph-name="acute" unicode="&#xb4;" horiz-adv-x="464" 
d="M152 588l37 140h179l-98 -140h-118z" />
    <glyph glyph-name="mu" unicode="&#xb5;" 
d="M192 0l10 -69v-147h-150v706h150v-275q0 -40 21 -65.5t57 -25.5q51 0 77.5 39t26.5 102v225h150v-490h-140v47h-10q-42 -63 -115 -63q-20 0 -37 4.5t-30 11.5h-10z" />
    <glyph glyph-name="paragraph" unicode="&#xb6;" horiz-adv-x="652" 
d="M264 -216v512h-16q-45 0 -85.5 14.5t-71 41.5t-49 66t-18.5 88t18.5 88t49 66t71 41.5t85.5 14.5h324v-932h-122v816h-64v-816h-122z" />
    <glyph glyph-name="periodcentered" unicode="&#xb7;" horiz-adv-x="232" 
d="M116 228q-40 0 -68 28t-28 68t28 68t68 28t68 -28t28 -68t-28 -68t-68 -28z" />
    <glyph glyph-name="cedilla" unicode="&#xb8;" horiz-adv-x="416" 
d="M173 -237q-38 0 -64.5 18.5t-37.5 46.5l70 29q4 -11 12 -18t20 -7q14 0 21.5 8.5t7.5 19.5t-7.5 20.5t-21.5 9.5q-8 0 -14.5 -4t-10.5 -9l-67 31l36 92h74l-21 -47q6 1 10 1h7q40 0 67.5 -25t27.5 -70q0 -42 -29 -69t-80 -27z" />
    <glyph glyph-name="onesuperior" unicode="&#xb9;" horiz-adv-x="287" 
d="M129 350v252l-68 -30l-37 85l129 59h74v-366h-98z" />
    <glyph glyph-name="ordmasculine" unicode="&#xba;" horiz-adv-x="544" 
d="M272 732q51 0 94 -17t74.5 -47.5t49.5 -72.5t18 -93t-18 -93t-49.5 -72.5t-74.5 -47.5t-94 -17t-94 17t-74.5 47.5t-49.5 72.5t-18 93t18 93t49.5 72.5t74.5 47.5t94 17zM272 396q20 0 39 7.5t33.5 21t23 33.5t8.5 44t-8.5 44t-23 33.5t-33.5 21t-39 7.5t-39 -7.5
t-33.5 -21t-23 -33.5t-8.5 -44t8.5 -44t23 -33.5t33.5 -21t39 -7.5z" />
    <glyph glyph-name="guillemotright" unicode="&#xbb;" horiz-adv-x="637" 
d="M60 428l85 78l217 -235l-217 -235l-85 78l145 157zM295 428l85 78l217 -235l-217 -235l-85 78l145 157z" />
    <glyph glyph-name="onequarter" unicode="&#xbc;" horiz-adv-x="788" 
d="M129 41l465 694l90 -61l-465 -694zM153 350v252l-68 -30l-37 85l129 59h74v-366h-98zM418 134l169 232h98v-224h47v-80h-47v-62h-94v62h-173v72zM591 142v96h-10l-68 -96h78z" />
    <glyph glyph-name="onehalf" unicode="&#xbd;" horiz-adv-x="824" 
d="M121 41l465 694l90 -61l-465 -694zM153 350v252l-68 -30l-37 85l129 59h74v-366h-98zM501 0v65l125 125q20 20 30 33.5t10 31.5q0 12 -9.5 22.5t-25.5 10.5q-18 0 -30.5 -11.5t-16.5 -35.5l-88 34q11 45 47.5 72t87.5 27q61 0 98 -30.5t37 -77.5q0 -18 -6.5 -35
t-16 -31.5t-20 -26.5t-19.5 -21l-66 -66h130v-86h-267z" />
    <glyph glyph-name="threequarters" unicode="&#xbe;" horiz-adv-x="850" 
d="M179 41l465 694l90 -61l-465 -694zM193 342q-50 0 -90.5 24t-54.5 77l92 33q5 -28 20 -39t33 -11q17 0 29.5 10.5t12.5 28.5q0 17 -15 27t-40 10h-37v76h33q23 0 36 8t13 25q0 14 -10 21.5t-24 7.5q-20 0 -32 -10t-16 -24l-86 35q13 36 47 59.5t90 23.5q28 0 51.5 -8.5
t40 -22.5t25.5 -32.5t9 -37.5q0 -24 -9.5 -43.5t-32.5 -36.5q23 -12 39 -34.5t16 -49.5q0 -28 -11.5 -49.5t-31 -36.5t-45 -23t-52.5 -8zM478 134l169 232h98v-224h47v-80h-47v-62h-94v62h-173v72zM651 142v96h-10l-68 -96h78z" />
    <glyph glyph-name="questiondown" unicode="&#xbf;" horiz-adv-x="513" 
d="M327 242v-26q0 -25 -5 -46t-16.5 -40.5t-29.5 -39.5t-44 -42q-25 -21 -37 -38.5t-12 -40.5t19.5 -42t51.5 -19q38 0 61.5 21.5t32.5 53.5l129 -54q-8 -30 -26 -59t-45.5 -51.5t-64 -36.5t-82.5 -14q-49 0 -90 15t-70 40.5t-45.5 60t-16.5 74.5q0 27 5 48.5t15 40.5
t25.5 37.5t36.5 38.5q18 17 29.5 30.5t17.5 26t8.5 26.5t2.5 32v4h150zM254 506q40 0 68 -28t28 -68t-28 -68t-68 -28t-68 28t-28 68t28 68t68 28z" />
    <glyph glyph-name="Agrave" unicode="&#xc0;" horiz-adv-x="740" 
d="M280 716h180l268 -716h-172l-55 160h-262l-55 -160h-172zM451 302l-52 150l-24 88h-10l-24 -88l-52 -150h162zM320 772l-98 140h179l37 -140h-118z" />
    <glyph glyph-name="Aacute" unicode="&#xc1;" horiz-adv-x="740" 
d="M280 716h180l268 -716h-172l-55 160h-262l-55 -160h-172zM451 302l-52 150l-24 88h-10l-24 -88l-52 -150h162zM302 772l37 140h179l-98 -140h-118z" />
    <glyph glyph-name="Acircumflex" unicode="&#xc2;" horiz-adv-x="740" 
d="M280 716h180l268 -716h-172l-55 160h-262l-55 -160h-172zM451 302l-52 150l-24 88h-10l-24 -88l-52 -150h162zM185 770l119 130h132l119 -130v-10h-143l-35 58h-14l-35 -58h-143v10z" />
    <glyph glyph-name="Atilde" unicode="&#xc3;" horiz-adv-x="740" 
d="M280 716h180l268 -716h-172l-55 160h-262l-55 -160h-172zM451 302l-52 150l-24 88h-10l-24 -88l-52 -150h162zM433 768q-23 0 -41.5 6.5t-33.5 14.5t-26 15q-12 6 -21 6q-22 0 -23 -26h-100q0 66 34.5 99t84.5 33q22 0 41 -6.5t34 -14.5t27 -14q11 -7 20 -7q22 0 23 26
h100q0 -66 -34.5 -99t-84.5 -33z" />
    <glyph glyph-name="Adieresis" unicode="&#xc4;" horiz-adv-x="740" 
d="M280 716h180l268 -716h-172l-55 160h-262l-55 -160h-172zM451 302l-52 150l-24 88h-10l-24 -88l-52 -150h162zM190 843q0 33 23 56t56 23t56 -23t23 -56t-23 -56t-56 -23t-56 23t-23 56zM392 843q0 33 23 56t56 23t56 -23t23 -56t-23 -56t-56 -23t-56 23t-23 56z" />
    <glyph glyph-name="Aring" unicode="&#xc5;" horiz-adv-x="740" 
d="M261 664q-34 39 -34 92q0 30 11 56t30.5 45.5t45.5 30.5t56 11q29 0 55 -11t45.5 -30.5t31 -45.5t11.5 -56q0 -53 -34 -92l249 -664h-172l-55 160h-262l-55 -160h-172zM451 302l-52 150l-24 88h-10l-24 -88l-52 -150h162zM370 716q17 0 28.5 11.5t11.5 28.5t-11.5 28.5
t-28.5 11.5t-28.5 -11.5t-11.5 -28.5t11.5 -28.5t28.5 -11.5z" />
    <glyph glyph-name="AE" unicode="&#xc6;" horiz-adv-x="1027" 
d="M659 568v-136h284v-148h-284v-136h316v-148h-472v163h-228l-89 -163h-182l411 716h560v-148h-316zM357 311h146v257h-13l-35 -79z" />
    <glyph glyph-name="Ccedilla" unicode="&#xc7;" horiz-adv-x="737" 
d="M414 -237q-38 0 -64.5 18.5t-37.5 46.5l70 29q4 -11 12 -18t20 -7q14 0 21.5 8.5t7.5 19.5t-7.5 20.5t-21.5 9.5q-8 0 -14.5 -4t-10.5 -9l-67 31l31 81q-69 10 -127 42.5t-100 81t-65.5 111.5t-23.5 134q0 79 29 147t79.5 118.5t119.5 79.5t149 29q88 0 152.5 -30
t117.5 -87l-109 -106q-28 32 -67 53.5t-93 21.5q-47 0 -87.5 -16t-70.5 -46t-47 -71.5t-17 -92.5t17 -92.5t47 -71.5t70.5 -46t87.5 -16q57 0 99 23t76 66l111 -105q-107 -127 -276 -132l-14 -31q6 1 10 1h7q40 0 67.5 -25t27.5 -70q0 -42 -29 -69t-80 -27z" />
    <glyph glyph-name="Egrave" unicode="&#xc8;" horiz-adv-x="596" 
d="M228 568v-136h284v-148h-284v-136h316v-148h-472v716h472v-148h-316zM256 772l-98 140h179l37 -140h-118z" />
    <glyph glyph-name="Eacute" unicode="&#xc9;" horiz-adv-x="596" 
d="M228 568v-136h284v-148h-284v-136h316v-148h-472v716h472v-148h-316zM246 772l37 140h179l-98 -140h-118z" />
    <glyph glyph-name="Ecircumflex" unicode="&#xca;" horiz-adv-x="596" 
d="M228 568v-136h284v-148h-284v-136h316v-148h-472v716h472v-148h-316zM123 770l119 130h132l119 -130v-10h-143l-35 58h-14l-35 -58h-143v10z" />
    <glyph glyph-name="Edieresis" unicode="&#xcb;" horiz-adv-x="596" 
d="M228 568v-136h284v-148h-284v-136h316v-148h-472v716h472v-148h-316zM124 843q0 33 23 56t56 23t56 -23t23 -56t-23 -56t-56 -23t-56 23t-23 56zM326 843q0 33 23 56t56 23t56 -23t23 -56t-23 -56t-56 -23t-56 23t-23 56z" />
    <glyph glyph-name="Igrave" unicode="&#xcc;" horiz-adv-x="300" 
d="M72 716h156v-716h-156v716zM103 772l-98 140h179l37 -140h-118z" />
    <glyph glyph-name="Iacute" unicode="&#xcd;" horiz-adv-x="300" 
d="M72 716h156v-716h-156v716zM81 772l37 140h179l-98 -140h-118z" />
    <glyph glyph-name="Icircumflex" unicode="&#xce;" horiz-adv-x="300" 
d="M72 716h156v-716h-156v716zM-34 770l119 130h132l119 -130v-10h-143l-35 58h-14l-35 -58h-143v10z" />
    <glyph glyph-name="Idieresis" unicode="&#xcf;" horiz-adv-x="300" 
d="M-21 843q0 31 22 53t53 22t53 -22t22 -53t-22 -53t-53 -22t-53 22t-22 53zM171 843q0 31 22 53t53 22t53 -22t22 -53t-22 -53t-53 -22t-53 22t-22 53zM72 716h156v-716h-156v716z" />
    <glyph glyph-name="Eth" unicode="&#xd0;" horiz-adv-x="793" 
d="M132 293h-76v128h76v295h253q86 0 155 -26t117 -73t73.5 -113t25.5 -146t-25.5 -146t-73.5 -113t-117 -73t-155 -26h-253v293zM377 148q58 0 100 15.5t69.5 43.5t40.5 66.5t13 84.5t-13 84.5t-40.5 66.5t-69.5 43.5t-100 15.5h-89v-147h176v-128h-176v-145h89z" />
    <glyph glyph-name="Ntilde" unicode="&#xd1;" horiz-adv-x="736" 
d="M72 716h180l258 -442h10l-10 138v304h154v-716h-164l-274 468h-10l10 -138v-330h-154v716zM439 768q-23 0 -41.5 6.5t-33.5 14.5t-26 15q-12 6 -21 6q-22 0 -23 -26h-100q0 66 34.5 99t84.5 33q22 0 41 -6.5t34 -14.5t27 -14q11 -7 20 -7q22 0 23 26h100q0 -66 -34.5 -99
t-84.5 -33z" />
    <glyph glyph-name="Ograve" unicode="&#xd2;" horiz-adv-x="828" 
d="M414 -16q-81 0 -150 29t-119.5 79.5t-79 118.5t-28.5 147t28.5 147t79 118.5t119.5 79.5t150 29t150 -29t119.5 -79.5t79 -118.5t28.5 -147t-28.5 -147t-79 -118.5t-119.5 -79.5t-150 -29zM414 132q46 0 86.5 16t70.5 46t47 71.5t17 92.5t-17 92.5t-47 71.5t-70.5 46
t-86.5 16q-47 0 -87 -16t-70 -46t-47 -71.5t-17 -92.5t17 -92.5t47 -71.5t70 -46t87 -16zM354 772l-98 140h179l37 -140h-118z" />
    <glyph glyph-name="Oacute" unicode="&#xd3;" horiz-adv-x="828" 
d="M414 -16q-81 0 -150 29t-119.5 79.5t-79 118.5t-28.5 147t28.5 147t79 118.5t119.5 79.5t150 29t150 -29t119.5 -79.5t79 -118.5t28.5 -147t-28.5 -147t-79 -118.5t-119.5 -79.5t-150 -29zM414 132q46 0 86.5 16t70.5 46t47 71.5t17 92.5t-17 92.5t-47 71.5t-70.5 46
t-86.5 16q-47 0 -87 -16t-70 -46t-47 -71.5t-17 -92.5t17 -92.5t47 -71.5t70 -46t87 -16zM354 772l37 140h179l-98 -140h-118z" />
    <glyph glyph-name="Ocircumflex" unicode="&#xd4;" horiz-adv-x="828" 
d="M414 -16q-81 0 -150 29t-119.5 79.5t-79 118.5t-28.5 147t28.5 147t79 118.5t119.5 79.5t150 29t150 -29t119.5 -79.5t79 -118.5t28.5 -147t-28.5 -147t-79 -118.5t-119.5 -79.5t-150 -29zM414 132q46 0 86.5 16t70.5 46t47 71.5t17 92.5t-17 92.5t-47 71.5t-70.5 46
t-86.5 16q-47 0 -87 -16t-70 -46t-47 -71.5t-17 -92.5t17 -92.5t47 -71.5t70 -46t87 -16zM229 771l119 130h132l119 -130v-10h-143l-35 58h-14l-35 -58h-143v10z" />
    <glyph glyph-name="Otilde" unicode="&#xd5;" horiz-adv-x="828" 
d="M414 -16q-81 0 -150 29t-119.5 79.5t-79 118.5t-28.5 147t28.5 147t79 118.5t119.5 79.5t150 29t150 -29t119.5 -79.5t79 -118.5t28.5 -147t-28.5 -147t-79 -118.5t-119.5 -79.5t-150 -29zM414 132q46 0 86.5 16t70.5 46t47 71.5t17 92.5t-17 92.5t-47 71.5t-70.5 46
t-86.5 16q-47 0 -87 -16t-70 -46t-47 -71.5t-17 -92.5t17 -92.5t47 -71.5t70 -46t87 -16zM477 768q-23 0 -41.5 6.5t-33.5 14.5t-26 15q-12 6 -21 6q-22 0 -23 -26h-100q0 66 34.5 99t84.5 33q22 0 41 -6.5t34 -14.5t27 -14q11 -7 20 -7q22 0 23 26h100q0 -66 -34.5 -99
t-84.5 -33z" />
    <glyph glyph-name="Odieresis" unicode="&#xd6;" horiz-adv-x="828" 
d="M414 -16q-81 0 -150 29t-119.5 79.5t-79 118.5t-28.5 147t28.5 147t79 118.5t119.5 79.5t150 29t150 -29t119.5 -79.5t79 -118.5t28.5 -147t-28.5 -147t-79 -118.5t-119.5 -79.5t-150 -29zM414 132q46 0 86.5 16t70.5 46t47 71.5t17 92.5t-17 92.5t-47 71.5t-70.5 46
t-86.5 16q-47 0 -87 -16t-70 -46t-47 -71.5t-17 -92.5t17 -92.5t47 -71.5t70 -46t87 -16zM234 843q0 33 23 56t56 23t56 -23t23 -56t-23 -56t-56 -23t-56 23t-23 56zM436 843q0 33 23 56t56 23t56 -23t23 -56t-23 -56t-56 -23t-56 23t-23 56z" />
    <glyph glyph-name="multiply" unicode="&#xd7;" horiz-adv-x="646" 
d="M156 524l167 -159l167 159l96 -96l-165 -157l165 -157l-96 -96l-167 159l-167 -159l-96 96l165 157l-165 157z" />
    <glyph glyph-name="Oslash" unicode="&#xd8;" horiz-adv-x="828" 
d="M127 17l36 58q-59 51 -92.5 124t-33.5 159q0 79 28.5 147t79 118.5t119.5 79.5t150 29q38 0 74.5 -7t68.5 -19l39 62l105 -69l-36 -58q59 -51 92.5 -124t33.5 -159q0 -79 -28.5 -147t-79 -118.5t-119.5 -79.5t-150 -29q-38 0 -74.5 7t-68.5 19l-39 -62zM193 358
q0 -46 13.5 -84.5t38.5 -67.5l231 370q-14 5 -29.5 6.5t-32.5 1.5q-47 0 -87 -16t-70 -46t-47 -71.5t-17 -92.5zM414 132q46 0 86.5 16t70.5 46t47 71.5t17 92.5q0 46 -13.5 84.5t-38.5 67.5l-231 -370q14 -5 29.5 -6.5t32.5 -1.5z" />
    <glyph glyph-name="Ugrave" unicode="&#xd9;" horiz-adv-x="682" 
d="M341 -16q-65 0 -118 20.5t-90 60.5t-57 97.5t-20 131.5v422h156v-432q0 -66 33 -109t96 -43t96 43t33 109v432h156v-422q0 -68 -20 -125t-57 -98t-90 -64t-118 -23zM287 772l-98 140h179l37 -140h-118z" />
    <glyph glyph-name="Uacute" unicode="&#xda;" horiz-adv-x="682" 
d="M341 -16q-65 0 -118 20.5t-90 60.5t-57 97.5t-20 131.5v422h156v-432q0 -66 33 -109t96 -43t96 43t33 109v432h156v-422q0 -68 -20 -125t-57 -98t-90 -64t-118 -23zM278 772l37 140h179l-98 -140h-118z" />
    <glyph glyph-name="Ucircumflex" unicode="&#xdb;" horiz-adv-x="682" 
d="M341 -16q-65 0 -118 20.5t-90 60.5t-57 97.5t-20 131.5v422h156v-432q0 -66 33 -109t96 -43t96 43t33 109v432h156v-422q0 -68 -20 -125t-57 -98t-90 -64t-118 -23zM156 770l119 130h132l119 -130v-10h-143l-35 58h-14l-35 -58h-143v10z" />
    <glyph glyph-name="Udieresis" unicode="&#xdc;" horiz-adv-x="682" 
d="M341 -16q-65 0 -118 20.5t-90 60.5t-57 97.5t-20 131.5v422h156v-432q0 -66 33 -109t96 -43t96 43t33 109v432h156v-422q0 -68 -20 -125t-57 -98t-90 -64t-118 -23zM161 843q0 33 23 56t56 23t56 -23t23 -56t-23 -56t-56 -23t-56 23t-23 56zM363 843q0 33 23 56t56 23
t56 -23t23 -56t-23 -56t-56 -23t-56 23t-23 56z" />
    <glyph glyph-name="Yacute" unicode="&#xdd;" horiz-adv-x="658" 
d="M253 333l-241 383h188l126 -210h10l120 210h190l-237 -383v-333h-156v333zM268 772l37 140h179l-98 -140h-118z" />
    <glyph glyph-name="Thorn" unicode="&#xde;" horiz-adv-x="606" 
d="M72 0v716h156v-102h100q55 0 101.5 -17t80.5 -47.5t53 -73.5t19 -95t-19 -95t-53 -73.5t-80.5 -47.5t-101.5 -17h-100v-148h-156zM333 296q49 0 73 24t24 61t-24 61t-73 24h-105v-170h105z" />
    <glyph glyph-name="germandbls" unicode="&#xdf;" horiz-adv-x="597" 
d="M452 382q113 -49 113 -177q0 -47 -17 -86.5t-47.5 -67.5t-73 -43.5t-94.5 -15.5q-20 0 -33.5 1t-28.5 3v135q11 -2 22 -3.5t28 -1.5q40 0 67 24.5t27 69.5q0 44 -31.5 70t-77.5 26h-23v130h18q38 0 62.5 21.5t24.5 56.5q0 29 -23 49.5t-58 20.5q-39 0 -62 -27t-23 -67
v-500h-150v502q0 50 16.5 92t47.5 73t74 48t97 17q48 0 89 -13.5t71 -38.5t46.5 -60t16.5 -78q0 -48 -23 -87.5t-55 -62.5v-10z" />
    <glyph glyph-name="agrave" unicode="&#xe0;" horiz-adv-x="548" 
d="M350 44h-10q-24 -26 -54.5 -43t-78.5 -17q-37 0 -69.5 12t-57 34t-38.5 53t-14 69q0 37 15 67.5t41 52.5t61.5 34t77.5 12q45 0 74.5 -6t52.5 -14v13q0 32 -26.5 54.5t-71.5 22.5q-65 0 -112 -53l-102 72q42 50 97.5 74.5t122.5 24.5q120 0 181 -53.5t61 -162.5v-290
h-150v44zM350 193q-23 9 -45.5 14t-46.5 5q-40 0 -60 -16.5t-20 -42.5t19 -41.5t50 -15.5q25 0 44.5 8.5t32.5 22.5t19.5 31.5t6.5 34.5zM222 588l-98 140h179l37 -140h-118z" />
    <glyph glyph-name="aacute" unicode="&#xe1;" horiz-adv-x="548" 
d="M350 44h-10q-24 -26 -54.5 -43t-78.5 -17q-37 0 -69.5 12t-57 34t-38.5 53t-14 69q0 37 15 67.5t41 52.5t61.5 34t77.5 12q45 0 74.5 -6t52.5 -14v13q0 32 -26.5 54.5t-71.5 22.5q-65 0 -112 -53l-102 72q42 50 97.5 74.5t122.5 24.5q120 0 181 -53.5t61 -162.5v-290
h-150v44zM350 193q-23 9 -45.5 14t-46.5 5q-40 0 -60 -16.5t-20 -42.5t19 -41.5t50 -15.5q25 0 44.5 8.5t32.5 22.5t19.5 31.5t6.5 34.5zM208 588l37 140h179l-98 -140h-118z" />
    <glyph glyph-name="acircumflex" unicode="&#xe2;" horiz-adv-x="548" 
d="M350 44h-10q-24 -26 -54.5 -43t-78.5 -17q-37 0 -69.5 12t-57 34t-38.5 53t-14 69q0 37 15 67.5t41 52.5t61.5 34t77.5 12q45 0 74.5 -6t52.5 -14v13q0 32 -26.5 54.5t-71.5 22.5q-65 0 -112 -53l-102 72q42 50 97.5 74.5t122.5 24.5q120 0 181 -53.5t61 -162.5v-290
h-150v44zM350 193q-23 9 -45.5 14t-46.5 5q-40 0 -60 -16.5t-20 -42.5t19 -41.5t50 -15.5q25 0 44.5 8.5t32.5 22.5t19.5 31.5t6.5 34.5zM82 586l119 130h132l119 -130v-10h-143l-35 58h-14l-35 -58h-143v10z" />
    <glyph glyph-name="atilde" unicode="&#xe3;" horiz-adv-x="548" 
d="M350 44h-10q-24 -26 -54.5 -43t-78.5 -17q-37 0 -69.5 12t-57 34t-38.5 53t-14 69q0 37 15 67.5t41 52.5t61.5 34t77.5 12q45 0 74.5 -6t52.5 -14v13q0 32 -26.5 54.5t-71.5 22.5q-65 0 -112 -53l-102 72q42 50 97.5 74.5t122.5 24.5q120 0 181 -53.5t61 -162.5v-290
h-150v44zM350 193q-23 9 -45.5 14t-46.5 5q-40 0 -60 -16.5t-20 -42.5t19 -41.5t50 -15.5q25 0 44.5 8.5t32.5 22.5t19.5 31.5t6.5 34.5zM341 585q-23 0 -41.5 6.5t-33.5 14.5t-26 15q-12 6 -21 6q-22 0 -23 -26h-100q0 66 34.5 99t84.5 33q22 0 41 -6.5t34 -14.5t27 -14
q11 -7 20 -7q22 0 23 26h100q0 -66 -34.5 -99t-84.5 -33z" />
    <glyph glyph-name="adieresis" unicode="&#xe4;" horiz-adv-x="548" 
d="M350 44h-10q-24 -26 -54.5 -43t-78.5 -17q-37 0 -69.5 12t-57 34t-38.5 53t-14 69q0 37 15 67.5t41 52.5t61.5 34t77.5 12q45 0 74.5 -6t52.5 -14v13q0 32 -26.5 54.5t-71.5 22.5q-65 0 -112 -53l-102 72q42 50 97.5 74.5t122.5 24.5q120 0 181 -53.5t61 -162.5v-290
h-150v44zM350 193q-23 9 -45.5 14t-46.5 5q-40 0 -60 -16.5t-20 -42.5t19 -41.5t50 -15.5q25 0 44.5 8.5t32.5 22.5t19.5 31.5t6.5 34.5zM95 659q0 33 23 56t56 23t56 -23t23 -56t-23 -56t-56 -23t-56 23t-23 56zM297 659q0 33 23 56t56 23t56 -23t23 -56t-23 -56t-56 -23
t-56 23t-23 56z" />
    <glyph glyph-name="aring" unicode="&#xe5;" horiz-adv-x="548" 
d="M350 44h-10q-24 -26 -54.5 -43t-78.5 -17q-37 0 -69.5 12t-57 34t-38.5 53t-14 69q0 37 15 67.5t41 52.5t61.5 34t77.5 12q45 0 74.5 -6t52.5 -14v13q0 32 -26.5 54.5t-71.5 22.5q-65 0 -112 -53l-102 72q42 50 97.5 74.5t122.5 24.5q120 0 181 -53.5t61 -162.5v-290
h-150v44zM350 193q-23 9 -45.5 14t-46.5 5q-40 0 -60 -16.5t-20 -42.5t19 -41.5t50 -15.5q25 0 44.5 8.5t32.5 22.5t19.5 31.5t6.5 34.5zM276 559q-23 0 -43 8.5t-35 23.5t-23.5 35t-8.5 43t8.5 43t23.5 35t35 23.5t43 8.5t43 -8.5t35 -23.5t23.5 -35t8.5 -43t-8.5 -43
t-23.5 -35t-35 -23.5t-43 -8.5zM276 639q12 0 21 9t9 21t-9 21t-21 9t-21 -9t-9 -21t9 -21t21 -9z" />
    <glyph glyph-name="ae" unicode="&#xe6;" horiz-adv-x="888" 
d="M852 119q-36 -63 -94.5 -99t-141.5 -36q-60 0 -108.5 25t-86.5 67q-44 -49 -92 -70.5t-107 -21.5q-43 0 -78.5 12t-61 34t-40 53t-14.5 69q0 37 15 67.5t41 52.5t61.5 34t77.5 12q44 0 72 -6.5t55 -16.5v6q0 40 -26.5 63.5t-71.5 23.5q-32 0 -55 -12.5t-33 -36.5l-111 47
q31 63 84.5 91.5t120.5 28.5q60 0 105 -19.5t77 -55.5q32 38 76.5 56.5t95.5 18.5q61 0 107.5 -20t77.5 -54.5t47 -81t16 -99.5q0 -8 -0.5 -16t-1.5 -14q-1 -7 -1 -13h-361q11 -48 45 -70t76 -22t69.5 18t43.5 46zM350 193q-23 9 -45.5 14t-46.5 5q-40 0 -60 -16.5
t-20 -42.5t19 -41.5t50 -15.5q25 0 44.5 8.5t32.5 22.5t19.5 31.5t6.5 34.5zM719 310q-2 12 -9.5 26t-21 25.5t-33 19t-43.5 7.5q-35 0 -65.5 -20t-44.5 -58h217z" />
    <glyph glyph-name="ccedilla" unicode="&#xe7;" horiz-adv-x="556" 
d="M300 -237q-38 0 -64.5 18.5t-37.5 46.5l70 29q4 -11 12 -18t20 -7q14 0 21.5 8.5t7.5 19.5t-7.5 20.5t-21.5 9.5q-8 0 -14.5 -4t-10.5 -9l-67 31l31 81q-47 8 -86 30t-66.5 55.5t-43 76.5t-15.5 94q0 57 19.5 105t55 82.5t84 54t105.5 19.5q84 0 144.5 -37t89.5 -102
l-138 -58q-16 29 -38.5 43t-57.5 14q-49 0 -81.5 -32.5t-32.5 -88.5t32.5 -88.5t81.5 -32.5q35 0 60 15.5t42 45.5l138 -60q-35 -62 -89 -99t-132 -41l-14 -32q6 1 10 1h7q40 0 67.5 -25t27.5 -70q0 -42 -29 -69t-80 -27z" />
    <glyph glyph-name="egrave" unicode="&#xe8;" horiz-adv-x="566" 
d="M530 119q-36 -63 -94.5 -99t-141.5 -36q-57 0 -105.5 19.5t-84.5 54.5t-56 82.5t-20 104.5q0 53 20 100.5t55.5 83t83 56.5t103.5 21q61 0 107.5 -20t77.5 -54.5t47 -81t16 -99.5q0 -8 -0.5 -16t-1.5 -14q-1 -7 -1 -13h-361q11 -48 45 -70t76 -22t69.5 18t43.5 46z
M397 310q-2 12 -9.5 26t-21 25.5t-33 19t-43.5 7.5q-35 0 -65 -20t-44 -58h216zM227 588l-98 140h179l37 -140h-118z" />
    <glyph glyph-name="eacute" unicode="&#xe9;" horiz-adv-x="566" 
d="M530 119q-36 -63 -94.5 -99t-141.5 -36q-57 0 -105.5 19.5t-84.5 54.5t-56 82.5t-20 104.5q0 53 20 100.5t55.5 83t83 56.5t103.5 21q61 0 107.5 -20t77.5 -54.5t47 -81t16 -99.5q0 -8 -0.5 -16t-1.5 -14q-1 -7 -1 -13h-361q11 -48 45 -70t76 -22t69.5 18t43.5 46z
M397 310q-2 12 -9.5 26t-21 25.5t-33 19t-43.5 7.5q-35 0 -65 -20t-44 -58h216zM220 588l37 140h179l-98 -140h-118z" />
    <glyph glyph-name="ecircumflex" unicode="&#xea;" horiz-adv-x="566" 
d="M530 119q-36 -63 -94.5 -99t-141.5 -36q-57 0 -105.5 19.5t-84.5 54.5t-56 82.5t-20 104.5q0 53 20 100.5t55.5 83t83 56.5t103.5 21q61 0 107.5 -20t77.5 -54.5t47 -81t16 -99.5q0 -8 -0.5 -16t-1.5 -14q-1 -7 -1 -13h-361q11 -48 45 -70t76 -22t69.5 18t43.5 46z
M397 310q-2 12 -9.5 26t-21 25.5t-33 19t-43.5 7.5q-35 0 -65 -20t-44 -58h216zM101 577l119 130h132l119 -130v-10h-143l-35 58h-14l-35 -58h-143v10z" />
    <glyph glyph-name="edieresis" unicode="&#xeb;" horiz-adv-x="566" 
d="M530 119q-36 -63 -94.5 -99t-141.5 -36q-57 0 -105.5 19.5t-84.5 54.5t-56 82.5t-20 104.5q0 53 20 100.5t55.5 83t83 56.5t103.5 21q61 0 107.5 -20t77.5 -54.5t47 -81t16 -99.5q0 -8 -0.5 -16t-1.5 -14q-1 -7 -1 -13h-361q11 -48 45 -70t76 -22t69.5 18t43.5 46z
M397 310q-2 12 -9.5 26t-21 25.5t-33 19t-43.5 7.5q-35 0 -65 -20t-44 -58h216zM101 659q0 33 23 56t56 23t56 -23t23 -56t-23 -56t-56 -23t-56 23t-23 56zM303 659q0 33 23 56t56 23t56 -23t23 -56t-23 -56t-56 -23t-56 23t-23 56z" />
    <glyph glyph-name="igrave" unicode="&#xec;" horiz-adv-x="278" 
d="M64 0v490h150v-490h-150zM82 588l-98 140h179l37 -140h-118z" />
    <glyph glyph-name="iacute" unicode="&#xed;" horiz-adv-x="278" 
d="M64 0v490h150v-490h-150zM80 588l37 140h179l-98 -140h-118z" />
    <glyph glyph-name="icircumflex" unicode="&#xee;" horiz-adv-x="278" 
d="M64 0v490h150v-490h-150zM-45 586l119 130h132l119 -130v-10h-143l-35 58h-14l-35 -58h-143v10z" />
    <glyph glyph-name="idieresis" unicode="&#xef;" horiz-adv-x="278" 
d="M-28 659q0 31 22 53t53 22t53 -22t22 -53t-22 -53t-53 -22t-53 22t-22 53zM156 659q0 31 22 53t53 22t53 -22t22 -53t-22 -53t-53 -22t-53 22t-22 53zM64 0v490h150v-490h-150z" />
    <glyph glyph-name="eth" unicode="&#xf0;" horiz-adv-x="581" 
d="M372 453q-11 26 -30.5 47.5t-45.5 38.5l-122 -54l-37 86l49 22q-20 7 -40.5 12t-39.5 9l46 110q106 -23 179 -67l102 45l37 -85l-56 -25q65 -64 96 -149t31 -187q0 -64 -19.5 -114.5t-53.5 -85.5t-81 -53.5t-102 -18.5q-51 0 -95.5 18t-78 50.5t-52.5 77.5t-19 99
t19.5 99t51 77.5t72.5 50.5t84 18q32 0 56 -7.5t41 -20.5zM288 116q43 0 74.5 30.5t31.5 82.5t-31.5 82.5t-74.5 30.5t-74.5 -30.5t-31.5 -82.5t31.5 -82.5t74.5 -30.5z" />
    <glyph glyph-name="ntilde" unicode="&#xf1;" 
d="M196 428h10q50 78 150 78q92 0 137 -59t45 -155v-292h-150v275q0 40 -19 65.5t-59 25.5q-51 0 -77.5 -39t-26.5 -102v-225h-150v490h140v-62zM364 585q-23 0 -41.5 6.5t-33.5 14.5t-26 15q-12 6 -21 6q-22 0 -23 -26h-100q0 66 34.5 99t84.5 33q22 0 41 -6.5t34 -14.5
t27 -14q11 -7 20 -7q22 0 23 26h100q0 -66 -34.5 -99t-84.5 -33z" />
    <glyph glyph-name="ograve" unicode="&#xf2;" horiz-adv-x="584" 
d="M292 506q57 0 105.5 -19.5t84 -54t55 -82.5t19.5 -105t-19.5 -105t-55 -82.5t-84 -54t-105.5 -19.5t-105.5 19.5t-84 54t-55 82.5t-19.5 105t19.5 105t55 82.5t84 54t105.5 19.5zM292 124q23 0 43.5 8.5t36.5 24t25 38t9 50.5t-9 50t-25 38t-36.5 24.5t-43.5 8.5
t-43.5 -8.5t-36.5 -24.5t-25 -38t-9 -50t9 -50.5t25 -38t36.5 -24t43.5 -8.5zM227 588l-98 140h179l37 -140h-118z" />
    <glyph glyph-name="oacute" unicode="&#xf3;" horiz-adv-x="584" 
d="M292 506q57 0 105.5 -19.5t84 -54t55 -82.5t19.5 -105t-19.5 -105t-55 -82.5t-84 -54t-105.5 -19.5t-105.5 19.5t-84 54t-55 82.5t-19.5 105t19.5 105t55 82.5t84 54t105.5 19.5zM292 124q23 0 43.5 8.5t36.5 24t25 38t9 50.5t-9 50t-25 38t-36.5 24.5t-43.5 8.5
t-43.5 -8.5t-36.5 -24.5t-25 -38t-9 -50t9 -50.5t25 -38t36.5 -24t43.5 -8.5zM231 588l37 140h179l-98 -140h-118z" />
    <glyph glyph-name="ocircumflex" unicode="&#xf4;" horiz-adv-x="584" 
d="M292 506q57 0 105.5 -19.5t84 -54t55 -82.5t19.5 -105t-19.5 -105t-55 -82.5t-84 -54t-105.5 -19.5t-105.5 19.5t-84 54t-55 82.5t-19.5 105t19.5 105t55 82.5t84 54t105.5 19.5zM292 124q23 0 43.5 8.5t36.5 24t25 38t9 50.5t-9 50t-25 38t-36.5 24.5t-43.5 8.5
t-43.5 -8.5t-36.5 -24.5t-25 -38t-9 -50t9 -50.5t25 -38t36.5 -24t43.5 -8.5zM107 586l119 130h132l119 -130v-10h-143l-35 58h-14l-35 -58h-143v10z" />
    <glyph glyph-name="otilde" unicode="&#xf5;" horiz-adv-x="584" 
d="M292 506q57 0 105.5 -19.5t84 -54t55 -82.5t19.5 -105t-19.5 -105t-55 -82.5t-84 -54t-105.5 -19.5t-105.5 19.5t-84 54t-55 82.5t-19.5 105t19.5 105t55 82.5t84 54t105.5 19.5zM292 124q23 0 43.5 8.5t36.5 24t25 38t9 50.5t-9 50t-25 38t-36.5 24.5t-43.5 8.5
t-43.5 -8.5t-36.5 -24.5t-25 -38t-9 -50t9 -50.5t25 -38t36.5 -24t43.5 -8.5zM355 585q-23 0 -41.5 6.5t-33.5 14.5t-26 15q-12 6 -21 6q-22 0 -23 -26h-100q0 66 34.5 99t84.5 33q22 0 41 -6.5t34 -14.5t27 -14q11 -7 20 -7q22 0 23 26h100q0 -66 -34.5 -99t-84.5 -33z" />
    <glyph glyph-name="odieresis" unicode="&#xf6;" horiz-adv-x="584" 
d="M292 506q57 0 105.5 -19.5t84 -54t55 -82.5t19.5 -105t-19.5 -105t-55 -82.5t-84 -54t-105.5 -19.5t-105.5 19.5t-84 54t-55 82.5t-19.5 105t19.5 105t55 82.5t84 54t105.5 19.5zM292 124q23 0 43.5 8.5t36.5 24t25 38t9 50.5t-9 50t-25 38t-36.5 24.5t-43.5 8.5
t-43.5 -8.5t-36.5 -24.5t-25 -38t-9 -50t9 -50.5t25 -38t36.5 -24t43.5 -8.5zM112 659q0 33 23 56t56 23t56 -23t23 -56t-23 -56t-56 -23t-56 23t-23 56zM314 659q0 33 23 56t56 23t56 -23t23 -56t-23 -56t-56 -23t-56 23t-23 56z" />
    <glyph glyph-name="divide" unicode="&#xf7;" horiz-adv-x="578" 
d="M289 -22q-37 0 -63 26t-26 63t26 63t63 26t63 -26t26 -63t-26 -63t-63 -26zM56 333h466v-124h-466v124zM289 386q-37 0 -63 26t-26 63t26 63t63 26t63 -26t26 -63t-26 -63t-63 -26z" />
    <glyph glyph-name="oslash" unicode="&#xf8;" horiz-adv-x="584" 
d="M292 506q44 0 85 -12l27 43l106 -59l-28 -45q35 -35 54.5 -83t19.5 -105t-19.5 -105t-55 -82.5t-84 -54t-105.5 -19.5q-44 0 -83 12l-26 -42l-106 59l27 43q-36 35 -56 83t-20 106q0 57 19.5 105t55 82.5t84 54t105.5 19.5zM163 245q0 -37 16 -69l128 205q-6 1 -8 1h-7
q-26 0 -49.5 -9.5t-41 -27.5t-28 -43.5t-10.5 -56.5zM292 108q26 0 49.5 9.5t41 27.5t28 43t10.5 57q0 19 -4 36t-11 31l-127 -204h13z" />
    <glyph glyph-name="ugrave" unicode="&#xf9;" 
d="M394 62h-10q-50 -78 -150 -78q-92 0 -137 59t-45 155v292h150v-275q0 -40 19 -65.5t59 -25.5q51 0 77.5 39t26.5 102v225h150v-490h-140v62zM242 588l-98 140h179l37 -140h-118z" />
    <glyph glyph-name="uacute" unicode="&#xfa;" 
d="M394 62h-10q-50 -78 -150 -78q-92 0 -137 59t-45 155v292h150v-275q0 -40 19 -65.5t59 -25.5q51 0 77.5 39t26.5 102v225h150v-490h-140v62zM230 588l37 140h179l-98 -140h-118z" />
    <glyph glyph-name="ucircumflex" unicode="&#xfb;" 
d="M394 62h-10q-50 -78 -150 -78q-92 0 -137 59t-45 155v292h150v-275q0 -40 19 -65.5t59 -25.5q51 0 77.5 39t26.5 102v225h150v-490h-140v62zM110 571l119 130h132l119 -130v-10h-143l-35 58h-14l-35 -58h-143v10z" />
    <glyph glyph-name="udieresis" unicode="&#xfc;" 
d="M394 62h-10q-50 -78 -150 -78q-92 0 -137 59t-45 155v292h150v-275q0 -40 19 -65.5t59 -25.5q51 0 77.5 39t26.5 102v225h150v-490h-140v62zM117 659q0 33 23 56t56 23t56 -23t23 -56t-23 -56t-56 -23t-56 23t-23 56zM319 659q0 33 23 56t56 23t56 -23t23 -56t-23 -56
t-56 -23t-56 23t-23 56z" />
    <glyph glyph-name="yacute" unicode="&#xfd;" horiz-adv-x="581" 
d="M235 588l37 140h179l-98 -140h-118zM212 21l-208 469h173l113 -270h10l108 270h169l-307 -706h-164z" />
    <glyph glyph-name="thorn" unicode="&#xfe;" horiz-adv-x="612" 
d="M196 436h10q17 29 52.5 49.5t89.5 20.5q47 0 90 -19t75.5 -53.5t51.5 -82.5t19 -106t-19 -106t-51.5 -82.5t-75.5 -53.5t-90 -19q-54 0 -89.5 20.5t-52.5 49.5h-10l10 -70v-200h-150v932h150v-210zM315 366q-24 0 -45.5 -8.5t-38 -24.5t-26 -38t-9.5 -50t9.5 -50.5
t26 -38t38 -24t45.5 -8.5t45.5 8.5t38 24t26 38t9.5 50.5t-9.5 50t-26 38t-38 24.5t-45.5 8.5z" />
    <glyph glyph-name="ydieresis" unicode="&#xff;" horiz-adv-x="581" 
d="M212 21l-208 469h173l113 -270h10l108 270h169l-307 -706h-164zM112 659q0 33 23 56t56 23t56 -23t23 -56t-23 -56t-56 -23t-56 23t-23 56zM314 659q0 33 23 56t56 23t56 -23t23 -56t-23 -56t-56 -23t-56 23t-23 56z" />
    <glyph glyph-name="Amacron" unicode="&#x100;" horiz-adv-x="740" 
d="M280 716h180l268 -716h-172l-55 160h-262l-55 -160h-172zM451 302l-52 150l-24 88h-10l-24 -88l-52 -150h162zM218 786v114h304v-114h-304z" />
    <glyph glyph-name="amacron" unicode="&#x101;" horiz-adv-x="548" 
d="M350 44h-10q-24 -26 -54.5 -43t-78.5 -17q-37 0 -69.5 12t-57 34t-38.5 53t-14 69q0 37 15 67.5t41 52.5t61.5 34t77.5 12q45 0 74.5 -6t52.5 -14v13q0 32 -26.5 54.5t-71.5 22.5q-65 0 -112 -53l-102 72q42 50 97.5 74.5t122.5 24.5q120 0 181 -53.5t61 -162.5v-290
h-150v44zM350 193q-23 9 -45.5 14t-46.5 5q-40 0 -60 -16.5t-20 -42.5t19 -41.5t50 -15.5q25 0 44.5 8.5t32.5 22.5t19.5 31.5t6.5 34.5zM128 602v114h304v-114h-304z" />
    <glyph glyph-name="Abreve" unicode="&#x102;" horiz-adv-x="740" 
d="M280 716h180l268 -716h-172l-55 160h-262l-55 -160h-172zM451 302l-52 150l-24 88h-10l-24 -88l-52 -150h162zM371 760q-28 0 -53.5 10.5t-45 29t-31 44t-11.5 56.5h102q0 -16 10 -28t29 -12q17 0 27.5 12t10.5 28h101q0 -31 -11 -56.5t-30 -44t-44.5 -29t-53.5 -10.5z
" />
    <glyph glyph-name="abreve" unicode="&#x103;" horiz-adv-x="548" 
d="M350 44h-10q-24 -26 -54.5 -43t-78.5 -17q-37 0 -69.5 12t-57 34t-38.5 53t-14 69q0 37 15 67.5t41 52.5t61.5 34t77.5 12q45 0 74.5 -6t52.5 -14v13q0 32 -26.5 54.5t-71.5 22.5q-65 0 -112 -53l-102 72q42 50 97.5 74.5t122.5 24.5q120 0 181 -53.5t61 -162.5v-290
h-150v44zM350 193q-23 9 -45.5 14t-46.5 5q-40 0 -60 -16.5t-20 -42.5t19 -41.5t50 -15.5q25 0 44.5 8.5t32.5 22.5t19.5 31.5t6.5 34.5zM277 576q-28 0 -53.5 10.5t-45 29t-31 44t-11.5 56.5h102q0 -16 10 -28t29 -12q17 0 27.5 12t10.5 28h101q0 -31 -11 -56.5t-30 -44
t-44.5 -29t-53.5 -10.5z" />
    <glyph glyph-name="Aogonek" unicode="&#x104;" horiz-adv-x="740" 
d="M669 -224q-63 0 -98.5 31t-35.5 85q0 35 18 60.5t36 40.5l-3 7h-30l-55 160h-262l-55 -160h-172l268 716h180l268 -716q-29 -18 -48 -38.5t-19 -44.5q0 -17 10.5 -26.5t25.5 -9.5q11 0 23 5l36 -91q-16 -8 -40 -13.5t-47 -5.5zM451 302l-52 150l-24 88h-10l-24 -88
l-52 -150h162z" />
    <glyph glyph-name="aogonek" unicode="&#x105;" horiz-adv-x="548" 
d="M350 44h-10q-24 -26 -54.5 -43t-78.5 -17q-37 0 -69.5 12t-57 34t-38.5 53t-14 69q0 37 15 67.5t41 52.5t61.5 34t77.5 12q45 0 74.5 -6t52.5 -14v13q0 32 -26.5 54.5t-71.5 22.5q-65 0 -112 -53l-102 72q42 50 97.5 74.5t122.5 24.5q120 0 181 -53.5t61 -162.5v-290
q-29 -18 -48 -38.5t-19 -44.5q0 -17 10.5 -26.5t25.5 -9.5q11 0 23 5l36 -91q-16 -8 -40 -13.5t-47 -5.5q-63 0 -98.5 31t-35.5 85q0 35 15.5 57.5t35.5 41.5l-8 9v44zM350 193q-23 9 -45.5 14t-46.5 5q-40 0 -60 -16.5t-20 -42.5t19 -41.5t50 -15.5q25 0 44.5 8.5
t32.5 22.5t19.5 31.5t6.5 34.5z" />
    <glyph glyph-name="Cacute" unicode="&#x106;" horiz-adv-x="737" 
d="M701 116q-110 -132 -287 -132q-80 0 -149 29t-119.5 79.5t-79.5 118.5t-29 147t29 147t79.5 118.5t119.5 79.5t149 29q88 0 152.5 -30t117.5 -87l-109 -106q-28 32 -67 53.5t-93 21.5q-47 0 -87.5 -16t-70.5 -46t-47 -71.5t-17 -92.5t17 -92.5t47 -71.5t70.5 -46
t87.5 -16q57 0 99 23t76 66zM348 772l37 140h179l-98 -140h-118z" />
    <glyph glyph-name="cacute" unicode="&#x107;" horiz-adv-x="556" 
d="M532 125q-36 -66 -95.5 -103.5t-144.5 -37.5q-57 0 -105.5 19.5t-84 54t-55 82.5t-19.5 105t19.5 105t55 82.5t84 54t105.5 19.5q84 0 144.5 -37t89.5 -102l-138 -58q-16 29 -38.5 43t-57.5 14q-49 0 -81.5 -32.5t-32.5 -88.5t32.5 -88.5t81.5 -32.5q35 0 60 15.5
t42 45.5zM219 588l37 140h179l-98 -140h-118z" />
    <glyph glyph-name="Ccircumflex" unicode="&#x108;" horiz-adv-x="737" 
d="M701 116q-110 -132 -287 -132q-80 0 -149 29t-119.5 79.5t-79.5 118.5t-29 147t29 147t79.5 118.5t119.5 79.5t149 29q88 0 152.5 -30t117.5 -87l-109 -106q-28 32 -67 53.5t-93 21.5q-47 0 -87.5 -16t-70.5 -46t-47 -71.5t-17 -92.5t17 -92.5t47 -71.5t70.5 -46
t87.5 -16q57 0 99 23t76 66zM227 771l119 130h132l119 -130v-10h-143l-35 58h-14l-35 -58h-143v10z" />
    <glyph glyph-name="ccircumflex" unicode="&#x109;" horiz-adv-x="556" 
d="M532 125q-36 -66 -95.5 -103.5t-144.5 -37.5q-57 0 -105.5 19.5t-84 54t-55 82.5t-19.5 105t19.5 105t55 82.5t84 54t105.5 19.5q84 0 144.5 -37t89.5 -102l-138 -58q-16 29 -38.5 43t-57.5 14q-49 0 -81.5 -32.5t-32.5 -88.5t32.5 -88.5t81.5 -32.5q35 0 60 15.5
t42 45.5zM105 586l119 130h132l119 -130v-10h-143l-35 58h-14l-35 -58h-143v10z" />
    <glyph glyph-name="Cdotaccent" unicode="&#x10a;" horiz-adv-x="737" 
d="M701 116q-110 -132 -287 -132q-80 0 -149 29t-119.5 79.5t-79.5 118.5t-29 147t29 147t79.5 118.5t119.5 79.5t149 29q88 0 152.5 -30t117.5 -87l-109 -106q-28 32 -67 53.5t-93 21.5q-47 0 -87.5 -16t-70.5 -46t-47 -71.5t-17 -92.5t17 -92.5t47 -71.5t70.5 -46
t87.5 -16q57 0 99 23t76 66zM398 776q-33 0 -56.5 23.5t-23.5 56.5t23.5 56.5t56.5 23.5t56.5 -23.5t23.5 -56.5t-23.5 -56.5t-56.5 -23.5z" />
    <glyph glyph-name="cdotaccent" unicode="&#x10b;" horiz-adv-x="556" 
d="M532 125q-36 -66 -95.5 -103.5t-144.5 -37.5q-57 0 -105.5 19.5t-84 54t-55 82.5t-19.5 105t19.5 105t55 82.5t84 54t105.5 19.5q84 0 144.5 -37t89.5 -102l-138 -58q-16 29 -38.5 43t-57.5 14q-49 0 -81.5 -32.5t-32.5 -88.5t32.5 -88.5t81.5 -32.5q35 0 60 15.5
t42 45.5zM290 562q-35 0 -60 25t-25 60t25 60t60 25t60 -25t25 -60t-25 -60t-60 -25z" />
    <glyph glyph-name="Ccaron" unicode="&#x10c;" horiz-adv-x="737" 
d="M701 116q-110 -132 -287 -132q-80 0 -149 29t-119.5 79.5t-79.5 118.5t-29 147t29 147t79.5 118.5t119.5 79.5t149 29q88 0 152.5 -30t117.5 -87l-109 -106q-28 32 -67 53.5t-93 21.5q-47 0 -87.5 -16t-70.5 -46t-47 -71.5t-17 -92.5t17 -92.5t47 -71.5t70.5 -46
t87.5 -16q57 0 99 23t76 66zM215 908v10h143l35 -58h14l35 58h143v-10l-119 -130h-132z" />
    <glyph glyph-name="ccaron" unicode="&#x10d;" horiz-adv-x="556" 
d="M532 125q-36 -66 -95.5 -103.5t-144.5 -37.5q-57 0 -105.5 19.5t-84 54t-55 82.5t-19.5 105t19.5 105t55 82.5t84 54t105.5 19.5q84 0 144.5 -37t89.5 -102l-138 -58q-16 29 -38.5 43t-57.5 14q-49 0 -81.5 -32.5t-32.5 -88.5t32.5 -88.5t81.5 -32.5q35 0 60 15.5
t42 45.5zM110 706v10h143l35 -58h14l35 58h143v-10l-119 -130h-132z" />
    <glyph glyph-name="Dcaron" unicode="&#x10e;" horiz-adv-x="733" 
d="M72 716h253q86 0 155 -26t117 -73t73.5 -113t25.5 -146t-25.5 -146t-73.5 -113t-117 -73t-155 -26h-253v716zM317 148q58 0 100 15.5t69.5 43.5t40.5 66.5t13 84.5t-13 84.5t-40.5 66.5t-69.5 43.5t-100 15.5h-89v-420h89zM149 890v10h143l35 -58h14l35 58h143v-10
l-119 -130h-132z" />
    <glyph glyph-name="dcaron" unicode="&#x10f;" horiz-adv-x="739" 
d="M416 54h-10q-17 -29 -52.5 -49.5t-89.5 -20.5q-47 0 -90 19t-75.5 53.5t-51.5 82.5t-19 106t19 106t51.5 82.5t75.5 53.5t90 19q54 0 89.5 -20.5t52.5 -49.5h10l-10 70v210h150v-716h-140v54zM297 124q24 0 45.5 8.5t38 24t26 38t9.5 50.5t-9.5 50t-26 38t-38 24.5
t-45.5 8.5t-45.5 -8.5t-38 -24.5t-26 -38t-9.5 -50t9.5 -50.5t26 -38t38 -24t45.5 -8.5zM606 490v226h157l-49 -226h-108z" />
    <glyph glyph-name="Dcroat" unicode="&#x110;" horiz-adv-x="723" 
d="M62 308h-70v128h70v280h253q86 0 155 -26t117 -73t73.5 -113t25.5 -146t-25.5 -146t-73.5 -113t-117 -73t-155 -26h-253v308zM307 148q58 0 100 15.5t69.5 43.5t40.5 66.5t13 84.5t-13 84.5t-40.5 66.5t-69.5 43.5t-100 15.5h-89v-132h186v-128h-186v-160h89z" />
    <glyph glyph-name="dcroat" unicode="&#x111;" horiz-adv-x="605" 
d="M416 54h-10q-17 -29 -52.5 -49.5t-89.5 -20.5q-47 0 -90 19t-75.5 53.5t-51.5 82.5t-19 106t19 106t51.5 82.5t75.5 53.5t90 19q54 0 89.5 -20.5t52.5 -49.5h10l-10 70v52h-128v100h128v58h150v-58h57v-100h-57v-558h-140v54zM297 124q24 0 45.5 8.5t38 24t26 38
t9.5 50.5t-9.5 50t-26 38t-38 24.5t-45.5 8.5t-45.5 -8.5t-38 -24.5t-26 -38t-9.5 -50t9.5 -50.5t26 -38t38 -24t45.5 -8.5z" />
    <glyph glyph-name="Emacron" unicode="&#x112;" horiz-adv-x="596" 
d="M228 568v-136h284v-148h-284v-136h316v-148h-472v716h472v-148h-316zM150 786v114h304v-114h-304z" />
    <glyph glyph-name="emacron" unicode="&#x113;" horiz-adv-x="566" 
d="M530 119q-36 -63 -94.5 -99t-141.5 -36q-57 0 -105.5 19.5t-84.5 54.5t-56 82.5t-20 104.5q0 53 20 100.5t55.5 83t83 56.5t103.5 21q61 0 107.5 -20t77.5 -54.5t47 -81t16 -99.5q0 -8 -0.5 -16t-1.5 -14q-1 -7 -1 -13h-361q11 -48 45 -70t76 -22t69.5 18t43.5 46z
M397 310q-2 12 -9.5 26t-21 25.5t-33 19t-43.5 7.5q-35 0 -65 -20t-44 -58h216zM135 602v114h304v-114h-304z" />
    <glyph glyph-name="Ebreve" unicode="&#x114;" horiz-adv-x="596" 
d="M228 568v-136h284v-148h-284v-136h316v-148h-472v716h472v-148h-316zM310 760q-28 0 -53.5 10.5t-45 29t-31 44t-11.5 56.5h102q0 -16 10 -28t29 -12q17 0 27.5 12t10.5 28h101q0 -31 -11 -56.5t-30 -44t-44.5 -29t-53.5 -10.5z" />
    <glyph glyph-name="ebreve" unicode="&#x115;" horiz-adv-x="566" 
d="M530 119q-36 -63 -94.5 -99t-141.5 -36q-57 0 -105.5 19.5t-84.5 54.5t-56 82.5t-20 104.5q0 53 20 100.5t55.5 83t83 56.5t103.5 21q61 0 107.5 -20t77.5 -54.5t47 -81t16 -99.5q0 -8 -0.5 -16t-1.5 -14q-1 -7 -1 -13h-361q11 -48 45 -70t76 -22t69.5 18t43.5 46z
M397 310q-2 12 -9.5 26t-21 25.5t-33 19t-43.5 7.5q-35 0 -65 -20t-44 -58h216zM287 576q-28 0 -53.5 10.5t-45 29t-31 44t-11.5 56.5h102q0 -16 10 -28t29 -12q17 0 27.5 12t10.5 28h101q0 -31 -11 -56.5t-30 -44t-44.5 -29t-53.5 -10.5z" />
    <glyph glyph-name="Edotaccent" unicode="&#x116;" horiz-adv-x="596" 
d="M228 568v-136h284v-148h-284v-136h316v-148h-472v716h472v-148h-316zM310 776q-33 0 -56.5 23.5t-23.5 56.5t23.5 56.5t56.5 23.5t56.5 -23.5t23.5 -56.5t-23.5 -56.5t-56.5 -23.5z" />
    <glyph glyph-name="edotaccent" unicode="&#x117;" horiz-adv-x="566" 
d="M530 119q-36 -63 -94.5 -99t-141.5 -36q-57 0 -105.5 19.5t-84.5 54.5t-56 82.5t-20 104.5q0 53 20 100.5t55.5 83t83 56.5t103.5 21q61 0 107.5 -20t77.5 -54.5t47 -81t16 -99.5q0 -8 -0.5 -16t-1.5 -14q-1 -7 -1 -13h-361q11 -48 45 -70t76 -22t69.5 18t43.5 46z
M397 310q-2 12 -9.5 26t-21 25.5t-33 19t-43.5 7.5q-35 0 -65 -20t-44 -58h216zM287 562q-35 0 -60 25t-25 60t25 60t60 25t60 -25t25 -60t-25 -60t-60 -25z" />
    <glyph glyph-name="Eogonek" unicode="&#x118;" horiz-adv-x="596" 
d="M485 -224q-63 0 -98.5 31t-35.5 85q0 20 6.5 37t16 30.5t20.5 23.5t20 17h-342v716h472v-148h-316v-136h284v-148h-284v-136h316v-148q-29 -18 -48 -38.5t-19 -44.5q0 -17 10.5 -26.5t25.5 -9.5q11 0 23 5l36 -91q-16 -8 -40 -13.5t-47 -5.5z" />
    <glyph glyph-name="eogonek" unicode="&#x119;" horiz-adv-x="566" 
d="M530 119q-29 -51 -76 -87q-50 -39 -76 -65.5t-26 -51.5q0 -17 10.5 -25.5t25.5 -8.5q11 0 23 5l36 -91q-16 -8 -40 -13.5t-47 -5.5q-63 0 -98.5 29.5t-35.5 74.5q0 29 16.5 56.5t40.5 47.5q-55 2 -102 22t-81 54.5t-53 81.5t-19 103q0 53 20 100.5t55.5 83t83 56.5
t103.5 21q61 0 107.5 -20t77.5 -54.5t47 -81t16 -99.5q0 -8 -0.5 -16t-1.5 -14q-1 -7 -1 -13h-361q11 -48 45 -70t76 -22t69.5 18t43.5 46zM397 310q-2 12 -9.5 26t-21 25.5t-33 19t-43.5 7.5q-35 0 -65 -20t-44 -58h216z" />
    <glyph glyph-name="Ecaron" unicode="&#x11a;" horiz-adv-x="596" 
d="M228 568v-136h284v-148h-284v-136h316v-148h-472v716h472v-148h-316zM123 890v10h143l35 -58h14l35 58h143v-10l-119 -130h-132z" />
    <glyph glyph-name="ecaron" unicode="&#x11b;" horiz-adv-x="566" 
d="M530 119q-36 -63 -94.5 -99t-141.5 -36q-57 0 -105.5 19.5t-84.5 54.5t-56 82.5t-20 104.5q0 53 20 100.5t55.5 83t83 56.5t103.5 21q61 0 107.5 -20t77.5 -54.5t47 -81t16 -99.5q0 -8 -0.5 -16t-1.5 -14q-1 -7 -1 -13h-361q11 -48 45 -70t76 -22t69.5 18t43.5 46z
M397 310q-2 12 -9.5 26t-21 25.5t-33 19t-43.5 7.5q-35 0 -65 -20t-44 -58h216zM98 706v10h143l35 -58h14l35 58h143v-10l-119 -130h-132z" />
    <glyph glyph-name="Gcircumflex" unicode="&#x11c;" horiz-adv-x="815" 
d="M414 398h353q3 -12 5.5 -31t2.5 -36q0 -76 -22 -135t-64 -104q-48 -51 -116 -79.5t-155 -28.5q-78 0 -147.5 28t-121.5 77.5t-82 118t-30 150.5t30 150.5t82 118t121.5 77.5t147.5 28q91 0 158.5 -31t118.5 -85l-106 -104q-35 35 -74.5 53.5t-98.5 18.5
q-46 0 -86.5 -16.5t-71 -46t-48 -71t-17.5 -92.5t17.5 -92.5t48.5 -71t72 -46t88 -16.5q92 0 147 49q17 15 31.5 37.5t23.5 49.5h-207v130zM231 771l119 130h132l119 -130v-10h-143l-35 58h-14l-35 -58h-143v10z" />
    <glyph glyph-name="gcircumflex" unicode="&#x11d;" horiz-adv-x="608" 
d="M287 -232q-53 0 -95 13.5t-73.5 35t-52 48t-30.5 53.5l144 57q14 -38 44 -56.5t63 -18.5q54 0 87.5 35t33.5 100v27h-10q-46 -62 -140 -62q-42 0 -83 17.5t-74 50t-53 79.5t-20 106t20 106t53 79.5t74 50t83 17.5q94 0 140 -62h10v46h144v-448q0 -60 -18.5 -110.5
t-53 -87t-83.5 -56.5t-110 -20zM293 136q21 0 41.5 7.5t37 22t26.5 36.5t10 51t-10 51t-26.5 36.5t-37 22t-41.5 7.5t-41.5 -7.5t-37 -22t-26.5 -36.5t-10 -51t10 -51t26.5 -36.5t37 -22t41.5 -7.5zM107 586l119 130h132l119 -130v-10h-143l-35 58h-14l-35 -58h-143v10z" />
    <glyph glyph-name="Gbreve" unicode="&#x11e;" horiz-adv-x="815" 
d="M414 398h353q3 -12 5.5 -31t2.5 -36q0 -76 -22 -135t-64 -104q-48 -51 -116 -79.5t-155 -28.5q-78 0 -147.5 28t-121.5 77.5t-82 118t-30 150.5t30 150.5t82 118t121.5 77.5t147.5 28q91 0 158.5 -31t118.5 -85l-106 -104q-35 35 -74.5 53.5t-98.5 18.5
q-46 0 -86.5 -16.5t-71 -46t-48 -71t-17.5 -92.5t17.5 -92.5t48.5 -71t72 -46t88 -16.5q92 0 147 49q17 15 31.5 37.5t23.5 49.5h-207v130zM415 760q-28 0 -53.5 10.5t-45 29t-31 44t-11.5 56.5h102q0 -16 10 -28t29 -12q17 0 27.5 12t10.5 28h101q0 -31 -11 -56.5t-30 -44
t-44.5 -29t-53.5 -10.5z" />
    <glyph glyph-name="gbreve" unicode="&#x11f;" horiz-adv-x="608" 
d="M287 -232q-53 0 -95 13.5t-73.5 35t-52 48t-30.5 53.5l144 57q14 -38 44 -56.5t63 -18.5q54 0 87.5 35t33.5 100v27h-10q-46 -62 -140 -62q-42 0 -83 17.5t-74 50t-53 79.5t-20 106t20 106t53 79.5t74 50t83 17.5q94 0 140 -62h10v46h144v-448q0 -60 -18.5 -110.5
t-53 -87t-83.5 -56.5t-110 -20zM293 136q21 0 41.5 7.5t37 22t26.5 36.5t10 51t-10 51t-26.5 36.5t-37 22t-41.5 7.5t-41.5 -7.5t-37 -22t-26.5 -36.5t-10 -51t10 -51t26.5 -36.5t37 -22t41.5 -7.5zM307 576q-28 0 -53.5 10.5t-45 29t-31 44t-11.5 56.5h102q0 -16 10 -28
t29 -12q17 0 27.5 12t10.5 28h101q0 -31 -11 -56.5t-30 -44t-44.5 -29t-53.5 -10.5z" />
    <glyph glyph-name="Gdotaccent" unicode="&#x120;" horiz-adv-x="815" 
d="M414 398h353q3 -12 5.5 -31t2.5 -36q0 -76 -22 -135t-64 -104q-48 -51 -116 -79.5t-155 -28.5q-78 0 -147.5 28t-121.5 77.5t-82 118t-30 150.5t30 150.5t82 118t121.5 77.5t147.5 28q91 0 158.5 -31t118.5 -85l-106 -104q-35 35 -74.5 53.5t-98.5 18.5
q-46 0 -86.5 -16.5t-71 -46t-48 -71t-17.5 -92.5t17.5 -92.5t48.5 -71t72 -46t88 -16.5q92 0 147 49q17 15 31.5 37.5t23.5 49.5h-207v130zM403 776q-33 0 -56.5 23.5t-23.5 56.5t23.5 56.5t56.5 23.5t56.5 -23.5t23.5 -56.5t-23.5 -56.5t-56.5 -23.5z" />
    <glyph glyph-name="gdotaccent" unicode="&#x121;" horiz-adv-x="608" 
d="M287 -232q-53 0 -95 13.5t-73.5 35t-52 48t-30.5 53.5l144 57q14 -38 44 -56.5t63 -18.5q54 0 87.5 35t33.5 100v27h-10q-46 -62 -140 -62q-42 0 -83 17.5t-74 50t-53 79.5t-20 106t20 106t53 79.5t74 50t83 17.5q94 0 140 -62h10v46h144v-448q0 -60 -18.5 -110.5
t-53 -87t-83.5 -56.5t-110 -20zM293 136q21 0 41.5 7.5t37 22t26.5 36.5t10 51t-10 51t-26.5 36.5t-37 22t-41.5 7.5t-41.5 -7.5t-37 -22t-26.5 -36.5t-10 -51t10 -51t26.5 -36.5t37 -22t41.5 -7.5zM300 562q-35 0 -60 25t-25 60t25 60t60 25t60 -25t25 -60t-25 -60t-60 -25
z" />
    <glyph glyph-name="uni0122" unicode="&#x122;" horiz-adv-x="815" 
d="M414 398h353q3 -12 5.5 -31t2.5 -36q0 -76 -22 -135t-64 -104q-48 -51 -116 -79.5t-155 -28.5q-78 0 -147.5 28t-121.5 77.5t-82 118t-30 150.5t30 150.5t82 118t121.5 77.5t147.5 28q91 0 158.5 -31t118.5 -85l-106 -104q-35 35 -74.5 53.5t-98.5 18.5
q-46 0 -86.5 -16.5t-71 -46t-48 -71t-17.5 -92.5t17.5 -92.5t48.5 -71t72 -46t88 -16.5q92 0 147 49q17 15 31.5 37.5t23.5 49.5h-207v130zM345 -271l49 77q-20 9 -31.5 27.5t-11.5 41.5q0 32 22.5 54.5t54.5 22.5t54 -22.5t22 -54.5q0 -22 -13 -43l-92 -138z" />
    <glyph glyph-name="uni0123" unicode="&#x123;" horiz-adv-x="608" 
d="M287 -232q-53 0 -95 13.5t-73.5 35t-52 48t-30.5 53.5l144 57q14 -38 44 -56.5t63 -18.5q54 0 87.5 35t33.5 100v27h-10q-46 -62 -140 -62q-42 0 -83 17.5t-74 50t-53 79.5t-20 106t20 106t53 79.5t74 50t83 17.5q94 0 140 -62h10v46h144v-448q0 -60 -18.5 -110.5
t-53 -87t-83.5 -56.5t-110 -20zM293 136q21 0 41.5 7.5t37 22t26.5 36.5t10 51t-10 51t-26.5 36.5t-37 22t-41.5 7.5t-41.5 -7.5t-37 -22t-26.5 -36.5t-10 -51t10 -51t26.5 -36.5t37 -22t41.5 -7.5zM378.017 794.967l-48.9941 -76.9902q19.998 -8.99902 31.4961 -27.4971
q11.499 -18.4971 11.499 -41.4951q0 -31.9961 -22.4971 -54.4932q-22.498 -22.4971 -54.4941 -22.4971t-53.9932 22.4971t-21.9971 54.4932q0 21.998 12.998 42.9951l91.9893 137.983z" />
    <glyph glyph-name="Hcircumflex" unicode="&#x124;" horiz-adv-x="730" 
d="M72 716h156v-276h274v276h156v-716h-156v292h-274v-292h-156v716zM180 770l119 130h132l119 -130v-10h-143l-35 58h-14l-35 -58h-143v10z" />
    <glyph glyph-name="hcircumflex" unicode="&#x125;" 
d="M56 716h150v-188l-10 -100h10q23 36 61 57t86 21q93 0 139 -56t46 -158v-292h-150v275q0 40 -19 65.5t-59 25.5q-51 0 -77.5 -39t-26.5 -102v-225h-150v716zM121 770l119 130h132l119 -130v-10h-143l-35 58h-14l-35 -58h-143v10z" />
    <glyph glyph-name="Hbar" unicode="&#x126;" horiz-adv-x="730" 
d="M72 486h-62v112h62v118h156v-118h274v118h156v-118h62v-112h-62v-486h-156v292h-274v-292h-156v486zM502 440v46h-274v-46h274z" />
    <glyph glyph-name="hbar" unicode="&#x127;" 
d="M56 558h-55v100h55v58h150v-58h130v-100h-130v-30l-10 -100h10q23 36 61 57t86 21q93 0 139 -56t46 -158v-292h-150v275q0 40 -19 65.5t-59 25.5q-51 0 -77.5 -39t-26.5 -102v-225h-150v558z" />
    <glyph glyph-name="Itilde" unicode="&#x128;" horiz-adv-x="300" 
d="M72 716h156v-716h-156v716zM214 768q-23 0 -41.5 6.5t-33.5 14.5t-26 15q-12 6 -21 6q-22 0 -23 -26h-100q0 66 34.5 99t84.5 33q22 0 41 -6.5t34 -14.5t27 -14q11 -7 20 -7q22 0 23 26h100q0 -66 -34.5 -99t-84.5 -33z" />
    <glyph glyph-name="itilde" unicode="&#x129;" horiz-adv-x="278" 
d="M64 0v490h150v-490h-150zM203 584q-23 0 -41.5 6.5t-33.5 14.5t-26 15q-12 6 -21 6q-22 0 -23 -26h-100q0 66 34.5 99t84.5 33q22 0 41 -6.5t34 -14.5t27 -14q11 -7 20 -7q22 0 23 26h100q0 -66 -34.5 -99t-84.5 -33z" />
    <glyph glyph-name="Imacron" unicode="&#x12a;" horiz-adv-x="300" 
d="M6 786v114h288v-114h-288zM72 716h156v-716h-156v716z" />
    <glyph glyph-name="imacron" unicode="&#x12b;" horiz-adv-x="278" 
d="M64 0v490h150v-490h-150zM-12 602v114h304v-114h-304z" />
    <glyph glyph-name="Ibreve" unicode="&#x12c;" horiz-adv-x="300" 
d="M72 716h156v-716h-156v716zM152 760q-28 0 -53.5 10.5t-45 29t-31 44t-11.5 56.5h102q0 -16 10 -28t29 -12q17 0 27.5 12t10.5 28h101q0 -31 -11 -56.5t-30 -44t-44.5 -29t-53.5 -10.5z" />
    <glyph glyph-name="ibreve" unicode="&#x12d;" horiz-adv-x="278" 
d="M64 0v490h150v-490h-150zM141 576q-28 0 -53.5 10.5t-45 29t-31 44t-11.5 56.5h102q0 -16 10 -28t29 -12q17 0 27.5 12t10.5 28h101q0 -31 -11 -56.5t-30 -44t-44.5 -29t-53.5 -10.5z" />
    <glyph glyph-name="Iogonek" unicode="&#x12e;" horiz-adv-x="300" 
d="M169 -224q-63 0 -98.5 31t-35.5 85q0 35 18 60.5t36 40.5l-3 7h-14v716h156v-716q-29 -18 -48 -38.5t-19 -44.5q0 -17 10.5 -26.5t25.5 -9.5q11 0 23 5l36 -91q-16 -8 -40 -13.5t-47 -5.5z" />
    <glyph glyph-name="iogonek" unicode="&#x12f;" horiz-adv-x="278" 
d="M155 -224q-63 0 -98.5 31t-35.5 85q0 33 16.5 58t33.5 40l-7 10v490h150v-490q-29 -18 -48 -38.5t-19 -44.5q0 -17 10.5 -26.5t25.5 -9.5q11 0 23 5l36 -91q-16 -8 -40 -13.5t-47 -5.5zM139 544q-20 0 -37 7.5t-29.5 20t-20 29.5t-7.5 37q0 19 7.5 36.5t20 30t29.5 20
t37 7.5q19 0 36.5 -7.5t30 -20t20 -30t7.5 -36.5q0 -20 -7.5 -37t-20 -29.5t-30 -20t-36.5 -7.5z" />
    <glyph glyph-name="Idotaccent" unicode="&#x130;" horiz-adv-x="300" 
d="M72 716h156v-716h-156v716zM150 776q-33 0 -56.5 23.5t-23.5 56.5t23.5 56.5t56.5 23.5t56.5 -23.5t23.5 -56.5t-23.5 -56.5t-56.5 -23.5z" />
    <glyph glyph-name="dotlessi" unicode="&#x131;" horiz-adv-x="278" 
d="M64 0v490h150v-490h-150z" />
    <glyph glyph-name="Jcircumflex" unicode="&#x134;" horiz-adv-x="571" 
d="M268 -16q-44 0 -82.5 12.5t-70.5 36t-55.5 56t-35.5 72.5l142 58q10 -38 35 -62.5t67 -24.5q41 0 64 24.5t23 75.5v484h156v-486q0 -61 -19.5 -107t-53 -77t-77.5 -46.5t-93 -15.5zM256 770l119 130h132l119 -130v-10h-143l-35 58h-14l-35 -58h-143v10z" />
    <glyph glyph-name="jcircumflex" unicode="&#x135;" horiz-adv-x="278" 
d="M-12 -78q17 -10 37 -10q39 0 39 50v528h150v-532q0 -51 -14 -86t-37.5 -57t-53.5 -31.5t-63 -9.5q-30 0 -53 4t-43 12zM-45 586l119 130h132l119 -130v-10h-143l-35 58h-14l-35 -58h-143v10z" />
    <glyph glyph-name="uni0136" unicode="&#x136;" horiz-adv-x="692" 
d="M72 716h156v-276h10l236 276h185v-10l-255 -291l286 -405v-10h-190l-204 291l-68 -79v-212h-156v716zM271 -271l49 77q-20 9 -31.5 27.5t-11.5 41.5q0 32 22.5 54.5t54.5 22.5t54 -22.5t22 -54.5q0 -22 -13 -43l-92 -138z" />
    <glyph glyph-name="uni0137" unicode="&#x137;" horiz-adv-x="553" 
d="M56 716h150v-364h10l140 138h183v-10l-177 -170l195 -300v-10h-176l-125 207l-50 -48v-159h-150v716zM199 -271l49 77q-20 9 -31.5 27.5t-11.5 41.5q0 32 22.5 54.5t54.5 22.5t54 -22.5t22 -54.5q0 -22 -13 -43l-92 -138z" />
    <glyph glyph-name="kgreenlandic" unicode="&#x138;" horiz-adv-x="534" 
d="M206 490v-204h10l137 204h174v-10l-155 -221l166 -249v-10h-174l-148 228h-10v-228h-150v490h150z" />
    <glyph glyph-name="Lacute" unicode="&#x139;" horiz-adv-x="552" 
d="M72 716h156v-568h300v-148h-456v716zM81 772l37 140h179l-98 -140h-118z" />
    <glyph glyph-name="lacute" unicode="&#x13a;" horiz-adv-x="262" 
d="M56 0v716h150v-716h-150zM63 772l37 140h179l-98 -140h-118z" />
    <glyph glyph-name="uni013B" unicode="&#x13b;" horiz-adv-x="552" 
d="M72 716h156v-568h300v-148h-456v716zM217 -271l49 77q-20 9 -31.5 27.5t-11.5 41.5q0 32 22.5 54.5t54.5 22.5t54 -22.5t22 -54.5q0 -22 -13 -43l-92 -138z" />
    <glyph glyph-name="uni013C" unicode="&#x13c;" horiz-adv-x="262" 
d="M56 0v716h150v-716h-150zM49 -271l49 77q-20 9 -31.5 27.5t-11.5 41.5q0 32 22.5 54.5t54.5 22.5t54 -22.5t22 -54.5q0 -22 -13 -43l-92 -138z" />
    <glyph glyph-name="Lcaron" unicode="&#x13d;" horiz-adv-x="552" 
d="M72 716h156v-568h300v-148h-456v716zM359 490v226h157l-49 -226h-108z" />
    <glyph glyph-name="lcaron" unicode="&#x13e;" horiz-adv-x="421" 
d="M76 0v716h150v-716h-150zM288 490v226h157l-49 -226h-108z" />
    <glyph glyph-name="Ldot" unicode="&#x13f;" horiz-adv-x="552" 
d="M72 716h156v-568h300v-148h-456v716zM406 248q-40 0 -68 28t-28 68t28 68t68 28t68 -28t28 -68t-28 -68t-68 -28z" />
    <glyph glyph-name="Lslash" unicode="&#x141;" horiz-adv-x="638" 
d="M158 232l-49 -30l-67 107l116 73v334h156v-236l104 65l64 -104l-168 -105v-188h300v-148h-456v232z" />
    <glyph glyph-name="lslash" unicode="&#x142;" horiz-adv-x="447" 
d="M146 0v240l-42 -30l-74 97l116 84v325h150v-219l56 41l74 -98l-130 -95v-345h-150z" />
    <glyph glyph-name="Nacute" unicode="&#x143;" horiz-adv-x="736" 
d="M72 716h180l258 -442h10l-10 138v304h154v-716h-164l-274 468h-10l10 -138v-330h-154v716zM322 772l37 140h179l-98 -140h-118z" />
    <glyph glyph-name="nacute" unicode="&#x144;" 
d="M196 428h10q50 78 150 78q92 0 137 -59t45 -155v-292h-150v275q0 40 -19 65.5t-59 25.5q-51 0 -77.5 -39t-26.5 -102v-225h-150v490h140v-62zM245 588l37 140h179l-98 -140h-118z" />
    <glyph glyph-name="uni0145" unicode="&#x145;" horiz-adv-x="736" 
d="M72 716h180l258 -442h10l-10 138v304h154v-716h-164l-274 468h-10l10 -138v-330h-154v716zM285 -271l49 77q-20 9 -31.5 27.5t-11.5 41.5q0 32 22.5 54.5t54.5 22.5t54 -22.5t22 -54.5q0 -22 -13 -43l-92 -138z" />
    <glyph glyph-name="uni0146" unicode="&#x146;" 
d="M196 428h10q50 78 150 78q92 0 137 -59t45 -155v-292h-150v275q0 40 -19 65.5t-59 25.5q-51 0 -77.5 -39t-26.5 -102v-225h-150v490h140v-62zM214 -271l49 77q-20 9 -31.5 27.5t-11.5 41.5q0 32 22.5 54.5t54.5 22.5t54 -22.5t22 -54.5q0 -22 -13 -43l-92 -138z" />
    <glyph glyph-name="Ncaron" unicode="&#x147;" horiz-adv-x="736" 
d="M72 716h180l258 -442h10l-10 138v304h154v-716h-164l-274 468h-10l10 -138v-330h-154v716zM188 890v10h143l35 -58h14l35 58h143v-10l-119 -130h-132z" />
    <glyph glyph-name="ncaron" unicode="&#x148;" 
d="M196 428h10q50 78 150 78q92 0 137 -59t45 -155v-292h-150v275q0 40 -19 65.5t-59 25.5q-51 0 -77.5 -39t-26.5 -102v-225h-150v490h140v-62zM114 706v10h143l35 -58h14l35 58h143v-10l-119 -130h-132z" />
    <glyph glyph-name="Eng" unicode="&#x14a;" horiz-adv-x="736" 
d="M72 716h180l258 -427h10l-10 138v289h154v-742q0 -57 -15 -95.5t-40 -61.5t-57.5 -33t-67.5 -10q-28 0 -46.5 4t-38.5 12l35 132q17 -10 37 -10q39 0 39 50v38l-284 468h-10l10 -138v-330h-154v716z" />
    <glyph glyph-name="eng" unicode="&#x14b;" 
d="M196 428h10q50 78 150 78q92 0 137 -59t45 -155v-334q0 -51 -14 -86t-37.5 -57t-53.5 -31.5t-63 -9.5q-30 0 -53 4t-43 12l38 132q17 -10 37 -10q39 0 39 50v313q0 40 -19 65.5t-59 25.5q-51 0 -77.5 -39t-26.5 -102v-225h-150v490h140v-62z" />
    <glyph glyph-name="Omacron" unicode="&#x14c;" horiz-adv-x="828" 
d="M414 -16q-81 0 -150 29t-119.5 79.5t-79 118.5t-28.5 147t28.5 147t79 118.5t119.5 79.5t150 29t150 -29t119.5 -79.5t79 -118.5t28.5 -147t-28.5 -147t-79 -118.5t-119.5 -79.5t-150 -29zM414 132q46 0 86.5 16t70.5 46t47 71.5t17 92.5t-17 92.5t-47 71.5t-70.5 46
t-86.5 16q-47 0 -87 -16t-70 -46t-47 -71.5t-17 -92.5t17 -92.5t47 -71.5t70 -46t87 -16zM262 786v114h304v-114h-304z" />
    <glyph glyph-name="omacron" unicode="&#x14d;" horiz-adv-x="584" 
d="M292 506q57 0 105.5 -19.5t84 -54t55 -82.5t19.5 -105t-19.5 -105t-55 -82.5t-84 -54t-105.5 -19.5t-105.5 19.5t-84 54t-55 82.5t-19.5 105t19.5 105t55 82.5t84 54t105.5 19.5zM292 124q23 0 43.5 8.5t36.5 24t25 38t9 50.5t-9 50t-25 38t-36.5 24.5t-43.5 8.5
t-43.5 -8.5t-36.5 -24.5t-25 -38t-9 -50t9 -50.5t25 -38t36.5 -24t43.5 -8.5zM140 602v114h304v-114h-304z" />
    <glyph glyph-name="Obreve" unicode="&#x14e;" horiz-adv-x="828" 
d="M414 -16q-81 0 -150 29t-119.5 79.5t-79 118.5t-28.5 147t28.5 147t79 118.5t119.5 79.5t150 29t150 -29t119.5 -79.5t79 -118.5t28.5 -147t-28.5 -147t-79 -118.5t-119.5 -79.5t-150 -29zM414 132q46 0 86.5 16t70.5 46t47 71.5t17 92.5t-17 92.5t-47 71.5t-70.5 46
t-86.5 16q-47 0 -87 -16t-70 -46t-47 -71.5t-17 -92.5t17 -92.5t47 -71.5t70 -46t87 -16zM415 760q-28 0 -53.5 10.5t-45 29t-31 44t-11.5 56.5h102q0 -16 10 -28t29 -12q17 0 27.5 12t10.5 28h101q0 -31 -11 -56.5t-30 -44t-44.5 -29t-53.5 -10.5z" />
    <glyph glyph-name="obreve" unicode="&#x14f;" horiz-adv-x="584" 
d="M292 506q57 0 105.5 -19.5t84 -54t55 -82.5t19.5 -105t-19.5 -105t-55 -82.5t-84 -54t-105.5 -19.5t-105.5 19.5t-84 54t-55 82.5t-19.5 105t19.5 105t55 82.5t84 54t105.5 19.5zM292 124q23 0 43.5 8.5t36.5 24t25 38t9 50.5t-9 50t-25 38t-36.5 24.5t-43.5 8.5
t-43.5 -8.5t-36.5 -24.5t-25 -38t-9 -50t9 -50.5t25 -38t36.5 -24t43.5 -8.5zM293 576q-28 0 -53.5 10.5t-45 29t-31 44t-11.5 56.5h102q0 -16 10 -28t29 -12q17 0 27.5 12t10.5 28h101q0 -31 -11 -56.5t-30 -44t-44.5 -29t-53.5 -10.5z" />
    <glyph glyph-name="Ohungarumlaut" unicode="&#x150;" horiz-adv-x="828" 
d="M414 -16q-81 0 -150 29t-119.5 79.5t-79 118.5t-28.5 147t28.5 147t79 118.5t119.5 79.5t150 29t150 -29t119.5 -79.5t79 -118.5t28.5 -147t-28.5 -147t-79 -118.5t-119.5 -79.5t-150 -29zM414 132q46 0 86.5 16t70.5 46t47 71.5t17 92.5t-17 92.5t-47 71.5t-70.5 46
t-86.5 16q-47 0 -87 -16t-70 -46t-47 -71.5t-17 -92.5t17 -92.5t47 -71.5t70 -46t87 -16zM462 772l37 140h179l-98 -140h-118zM247 772l37 140h179l-98 -140h-118z" />
    <glyph glyph-name="ohungarumlaut" unicode="&#x151;" horiz-adv-x="584" 
d="M292 506q57 0 105.5 -19.5t84 -54t55 -82.5t19.5 -105t-19.5 -105t-55 -82.5t-84 -54t-105.5 -19.5t-105.5 19.5t-84 54t-55 82.5t-19.5 105t19.5 105t55 82.5t84 54t105.5 19.5zM292 124q23 0 43.5 8.5t36.5 24t25 38t9 50.5t-9 50t-25 38t-36.5 24.5t-43.5 8.5
t-43.5 -8.5t-36.5 -24.5t-25 -38t-9 -50t9 -50.5t25 -38t36.5 -24t43.5 -8.5zM127 588l37 140h179l-98 -140h-118zM341 588l37 140h179l-98 -140h-118z" />
    <glyph glyph-name="OE" unicode="&#x152;" horiz-adv-x="1144" 
d="M610 58q-29 -34 -83 -54t-131 -20q-74 0 -139.5 29t-114 79.5t-77 118.5t-28.5 147t28.5 147t77 118.5t114 79.5t139.5 29q77 0 131 -20t83 -54h10v58h472v-148h-316v-136h284v-148h-284v-136h316v-148h-472v58h-10zM414 132q46 0 86.5 16t70.5 46t47 71.5t17 92.5
t-17 92.5t-47 71.5t-70.5 46t-86.5 16q-47 0 -87 -16t-70 -46t-47 -71.5t-17 -92.5t17 -92.5t47 -71.5t70 -46t87 -16z" />
    <glyph glyph-name="oe" unicode="&#x153;" horiz-adv-x="946" 
d="M910 119q-36 -63 -94.5 -99t-141.5 -36q-63 0 -112 26.5t-79 63.5q-38 -43 -84.5 -66.5t-106.5 -23.5q-57 0 -105.5 19.5t-84 54t-55 82.5t-19.5 105t19.5 105t55 82.5t84 54t105.5 19.5q59 0 106 -23t86 -68q33 41 81.5 66t104.5 25q61 0 107.5 -20t77.5 -54.5t47 -81
t16 -99.5q0 -8 -0.5 -16t-1.5 -14q-1 -7 -1 -13h-361q11 -48 45 -70t76 -22t69.5 18t43.5 46zM292 124q23 0 43.5 8.5t36.5 24t25 38t9 50.5t-9 50t-25 38t-36.5 24.5t-43.5 8.5t-43.5 -8.5t-36.5 -24.5t-25 -38t-9 -50t9 -50.5t25 -38t36.5 -24t43.5 -8.5zM777 310
q-2 12 -9.5 26t-21 25.5t-33 19t-43.5 7.5q-35 0 -65 -20t-44 -58h216z" />
    <glyph glyph-name="Racute" unicode="&#x154;" horiz-adv-x="641" 
d="M72 716h270q58 0 104 -17.5t77.5 -48.5t48 -73.5t16.5 -92.5q0 -35 -11.5 -65t-31 -55.5t-45.5 -45t-56 -32.5v-9l187 -267v-10h-178l-181 258h-44v-258h-156v716zM342 402q42 0 66 24.5t24 60.5t-22.5 60.5t-67.5 24.5h-114v-170h114zM250 772l37 140h179l-98 -140h-118
z" />
    <glyph glyph-name="racute" unicode="&#x155;" horiz-adv-x="429" 
d="M56 490h140v-62h10q20 32 57 54t82 22q27 0 47 -6.5t33 -14.5l-39 -132q-13 7 -27.5 11t-37.5 4q-56 0 -85.5 -39t-29.5 -102v-225h-150v490zM175 588l37 140h179l-98 -140h-118z" />
    <glyph glyph-name="uni0156" unicode="&#x156;" horiz-adv-x="641" 
d="M72 716h270q58 0 104 -17.5t77.5 -48.5t48 -73.5t16.5 -92.5q0 -35 -11.5 -65t-31 -55.5t-45.5 -45t-56 -32.5v-9l187 -267v-10h-178l-181 258h-44v-258h-156v716zM342 402q42 0 66 24.5t24 60.5t-22.5 60.5t-67.5 24.5h-114v-170h114zM255 -271l49 77q-20 9 -31.5 27.5
t-11.5 41.5q0 32 22.5 54.5t54.5 22.5t54 -22.5t22 -54.5q0 -22 -13 -43l-92 -138z" />
    <glyph glyph-name="uni0157" unicode="&#x157;" horiz-adv-x="429" 
d="M56 490h140v-62h10q20 32 57 54t82 22q27 0 47 -6.5t33 -14.5l-39 -132q-13 7 -27.5 11t-37.5 4q-56 0 -85.5 -39t-29.5 -102v-225h-150v490zM52 -271l49 77q-20 9 -31.5 27.5t-11.5 41.5q0 32 22.5 54.5t54.5 22.5t54 -22.5t22 -54.5q0 -22 -13 -43l-92 -138z" />
    <glyph glyph-name="Rcaron" unicode="&#x158;" horiz-adv-x="641" 
d="M72 716h270q58 0 104 -17.5t77.5 -48.5t48 -73.5t16.5 -92.5q0 -35 -11.5 -65t-31 -55.5t-45.5 -45t-56 -32.5v-9l187 -267v-10h-178l-181 258h-44v-258h-156v716zM342 402q42 0 66 24.5t24 60.5t-22.5 60.5t-67.5 24.5h-114v-170h114zM126 890v10h143l35 -58h14l35 58
h143v-10l-119 -130h-132z" />
    <glyph glyph-name="rcaron" unicode="&#x159;" horiz-adv-x="429" 
d="M56 490h140v-62h10q20 32 57 54t82 22q27 0 47 -6.5t33 -14.5l-39 -132q-13 7 -27.5 11t-37.5 4q-56 0 -85.5 -39t-29.5 -102v-225h-150v490zM42 706v10h143l35 -58h14l35 58h143v-10l-119 -130h-132z" />
    <glyph glyph-name="Sacute" unicode="&#x15a;" horiz-adv-x="586" 
d="M299 -16q-100 0 -172.5 53.5t-102.5 153.5l147 58q13 -51 43 -84t85 -33q18 0 34.5 4t29 12.5t20.5 21.5t8 30t-6.5 31.5t-21.5 27t-40 25t-63 26.5l-44 16q-28 10 -57.5 27.5t-53.5 42.5t-39 57.5t-15 72.5q0 43 17 81t48 65.5t75 43.5t97 16q56 0 96 -14.5t68 -37
t44.5 -50.5t25.5 -54l-135 -57q-11 32 -35 51.5t-62 19.5q-40 0 -63.5 -16.5t-23.5 -42.5q0 -27 24 -48t85 -42l44 -15q91 -31 141 -83t50 -140q0 -56 -22.5 -97t-58 -68t-80 -40.5t-87.5 -13.5zM231 772l37 140h179l-98 -140h-118z" />
    <glyph glyph-name="sacute" unicode="&#x15b;" horiz-adv-x="497" 
d="M258 -16q-51 0 -90 12t-67.5 31.5t-47.5 45t-29 51.5l135 57q14 -34 39 -49.5t60 -15.5q30 0 46.5 9.5t16.5 24.5q0 17 -16 26.5t-51 17.5l-67 14q-24 5 -49 16t-46 29t-34 42.5t-13 56.5q0 35 15.5 63.5t42.5 48.5t64 31t81 11q76 0 131 -26.5t83 -88.5l-129 -53
q-13 26 -36.5 38t-47.5 12q-26 0 -42 -9t-16 -22q0 -14 16.5 -22.5t40.5 -14.5l76 -18q75 -18 112 -58t37 -94q0 -33 -15.5 -63t-44 -53t-68 -36.5t-87.5 -13.5zM187 588l37 140h179l-98 -140h-118z" />
    <glyph glyph-name="Scircumflex" unicode="&#x15c;" horiz-adv-x="586" 
d="M299 -16q-100 0 -172.5 53.5t-102.5 153.5l147 58q13 -51 43 -84t85 -33q18 0 34.5 4t29 12.5t20.5 21.5t8 30t-6.5 31.5t-21.5 27t-40 25t-63 26.5l-44 16q-28 10 -57.5 27.5t-53.5 42.5t-39 57.5t-15 72.5q0 43 17 81t48 65.5t75 43.5t97 16q56 0 96 -14.5t68 -37
t44.5 -50.5t25.5 -54l-135 -57q-11 32 -35 51.5t-62 19.5q-40 0 -63.5 -16.5t-23.5 -42.5q0 -27 24 -48t85 -42l44 -15q91 -31 141 -83t50 -140q0 -56 -22.5 -97t-58 -68t-80 -40.5t-87.5 -13.5zM99 771l119 130h132l119 -130v-10h-143l-35 58h-14l-35 -58h-143v10z" />
    <glyph glyph-name="scircumflex" unicode="&#x15d;" horiz-adv-x="497" 
d="M258 -16q-51 0 -90 12t-67.5 31.5t-47.5 45t-29 51.5l135 57q14 -34 39 -49.5t60 -15.5q30 0 46.5 9.5t16.5 24.5q0 17 -16 26.5t-51 17.5l-67 14q-24 5 -49 16t-46 29t-34 42.5t-13 56.5q0 35 15.5 63.5t42.5 48.5t64 31t81 11q76 0 131 -26.5t83 -88.5l-129 -53
q-13 26 -36.5 38t-47.5 12q-26 0 -42 -9t-16 -22q0 -14 16.5 -22.5t40.5 -14.5l76 -18q75 -18 112 -58t37 -94q0 -33 -15.5 -63t-44 -53t-68 -36.5t-87.5 -13.5zM67 586l119 130h132l119 -130v-10h-143l-35 58h-14l-35 -58h-143v10z" />
    <glyph glyph-name="uni015E" unicode="&#x15e;" horiz-adv-x="586" 
d="M303 -237q-38 0 -64.5 18.5t-37.5 46.5l70 29q4 -11 12 -18t20 -7q14 0 21.5 8.5t7.5 19.5t-7.5 20.5t-21.5 9.5q-8 0 -14.5 -4t-10.5 -9l-67 31l31 81q-78 14 -135 65t-83 137l147 58q13 -51 43 -84t85 -33q18 0 34.5 4t29 12.5t20.5 21.5t8 30t-6.5 31.5t-21.5 27
t-40 25t-63 26.5l-44 16q-28 10 -57.5 27.5t-53.5 42.5t-39 57.5t-15 72.5q0 43 17 81t48 65.5t75 43.5t97 16q56 0 96 -14.5t68 -37t44.5 -50.5t25.5 -54l-135 -57q-11 32 -35 51.5t-62 19.5q-40 0 -63.5 -16.5t-23.5 -42.5q0 -27 24 -48t85 -42l44 -15q91 -31 141 -83
t50 -140q0 -53 -20.5 -93t-54 -67t-75 -41.5t-83.5 -16.5l-14 -32q6 1 10 1h7q40 0 67.5 -25t27.5 -70q0 -42 -29 -69t-80 -27z" />
    <glyph glyph-name="uni015F" unicode="&#x15f;" horiz-adv-x="497" 
d="M271 -237q-38 0 -64.5 18.5t-37.5 46.5l70 29q4 -11 12 -18t20 -7q14 0 21.5 8.5t7.5 19.5t-7.5 20.5t-21.5 9.5q-8 0 -14.5 -4t-10.5 -9l-67 31l31 79q-79 11 -123.5 50.5t-62.5 86.5l135 57q14 -34 39 -49.5t60 -15.5q30 0 46.5 9.5t16.5 24.5q0 17 -16 26.5t-51 17.5
l-67 14q-24 5 -49 16t-46 29t-34 42.5t-13 56.5q0 35 15.5 63.5t42.5 48.5t64 31t81 11q76 0 131 -26.5t83 -88.5l-129 -53q-13 26 -36.5 38t-47.5 12q-26 0 -42 -9t-16 -22q0 -14 16.5 -22.5t40.5 -14.5l76 -18q75 -18 112 -58t37 -94q0 -31 -13.5 -59t-38.5 -50.5
t-60.5 -37t-78.5 -18.5l-14 -32q6 1 10 1h7q40 0 67.5 -25t27.5 -70q0 -42 -29 -69t-80 -27z" />
    <glyph glyph-name="Scaron" unicode="&#x160;" horiz-adv-x="586" 
d="M299 -16q-100 0 -172.5 53.5t-102.5 153.5l147 58q13 -51 43 -84t85 -33q18 0 34.5 4t29 12.5t20.5 21.5t8 30t-6.5 31.5t-21.5 27t-40 25t-63 26.5l-44 16q-28 10 -57.5 27.5t-53.5 42.5t-39 57.5t-15 72.5q0 43 17 81t48 65.5t75 43.5t97 16q56 0 96 -14.5t68 -37
t44.5 -50.5t25.5 -54l-135 -57q-11 32 -35 51.5t-62 19.5q-40 0 -63.5 -16.5t-23.5 -42.5q0 -27 24 -48t85 -42l44 -15q91 -31 141 -83t50 -140q0 -56 -22.5 -97t-58 -68t-80 -40.5t-87.5 -13.5zM106 890v10h143l35 -58h14l35 58h143v-10l-119 -130h-132z" />
    <glyph glyph-name="scaron" unicode="&#x161;" horiz-adv-x="497" 
d="M258 -16q-51 0 -90 12t-67.5 31.5t-47.5 45t-29 51.5l135 57q14 -34 39 -49.5t60 -15.5q30 0 46.5 9.5t16.5 24.5q0 17 -16 26.5t-51 17.5l-67 14q-24 5 -49 16t-46 29t-34 42.5t-13 56.5q0 35 15.5 63.5t42.5 48.5t64 31t81 11q76 0 131 -26.5t83 -88.5l-129 -53
q-13 26 -36.5 38t-47.5 12q-26 0 -42 -9t-16 -22q0 -14 16.5 -22.5t40.5 -14.5l76 -18q75 -18 112 -58t37 -94q0 -33 -15.5 -63t-44 -53t-68 -36.5t-87.5 -13.5zM63 706v10h143l35 -58h14l35 58h143v-10l-119 -130h-132z" />
    <glyph glyph-name="uni0162" unicode="&#x162;" horiz-adv-x="604" 
d="M317 -237q-38 0 -64.5 18.5t-37.5 46.5l70 29q4 -11 12 -18t20 -7q14 0 21.5 8.5t7.5 19.5t-7.5 20.5t-21.5 9.5q-8 0 -14.5 -4t-10.5 -9l-67 31l36 92h-37v568h-200v148h556v-148h-200v-568h-45l-21 -47q6 1 10 1h7q40 0 67.5 -25t27.5 -70q0 -42 -29 -69t-80 -27z" />
    <glyph glyph-name="uni0163" unicode="&#x163;" horiz-adv-x="425" 
d="M110 364h-86v126h86v150h150v-150h121v-126h-121v-165q0 -16 4 -29.5t14 -22.5q15 -13 39 -13q16 0 27 4t19 10l42 -130q-26 -12 -56 -19t-64 -7h-10l-17 -39q6 1 10 1h7q40 0 67.5 -25t27.5 -70q0 -42 -29 -69t-80 -27q-38 0 -64.5 18.5t-37.5 46.5l70 29q4 -11 12 -18
t20 -7q14 0 21.5 8.5t7.5 19.5t-7.5 20.5t-21.5 9.5q-8 0 -14.5 -4t-10.5 -9l-67 31l38 98q-27 11 -47 32q-24 24 -37 59.5t-13 78.5v188z" />
    <glyph glyph-name="Tcaron" unicode="&#x164;" horiz-adv-x="604" 
d="M224 0v568h-200v148h556v-148h-200v-568h-156zM117 908v10h143l35 -58h14l35 58h143v-10l-119 -130h-132z" />
    <glyph glyph-name="tcaron" unicode="&#x165;" horiz-adv-x="425" 
d="M310 540v176h131l-32 -176h-99zM110 364h-86v126h86v150h150v-150h121v-126h-121v-165q0 -16 4 -29.5t14 -22.5q15 -13 39 -13q16 0 27 4t19 10l42 -130q-26 -12 -56 -19t-64 -7q-79 0 -125 46q-24 24 -37 59.5t-13 78.5v188z" />
    <glyph glyph-name="Tbar" unicode="&#x166;" horiz-adv-x="604" 
d="M224 0v312h-126v124h126v132h-200v148h556v-148h-200v-132h126v-124h-126v-312h-156z" />
    <glyph glyph-name="tbar" unicode="&#x167;" horiz-adv-x="425" 
d="M110 210h-86v108h86v46h-86v126h86v150h150v-150h121v-126h-121v-46h100v-108h-100v-11q0 -16 4 -29.5t14 -22.5q15 -13 39 -13q16 0 27 4t19 10l42 -130q-26 -12 -56 -19t-64 -7q-79 0 -125 46q-24 24 -37 59.5t-13 78.5v34z" />
    <glyph glyph-name="Utilde" unicode="&#x168;" horiz-adv-x="682" 
d="M341 -16q-65 0 -118 20.5t-90 60.5t-57 97.5t-20 131.5v422h156v-432q0 -66 33 -109t96 -43t96 43t33 109v432h156v-422q0 -68 -20 -125t-57 -98t-90 -64t-118 -23zM404 768q-23 0 -41.5 6.5t-33.5 14.5t-26 15q-12 6 -21 6q-22 0 -23 -26h-100q0 66 34.5 99t84.5 33
q22 0 41 -6.5t34 -14.5t27 -14q11 -7 20 -7q22 0 23 26h100q0 -66 -34.5 -99t-84.5 -33z" />
    <glyph glyph-name="utilde" unicode="&#x169;" 
d="M394 62h-10q-50 -78 -150 -78q-92 0 -137 59t-45 155v292h150v-275q0 -40 19 -65.5t59 -25.5q51 0 77.5 39t26.5 102v225h150v-490h-140v62zM360 584q-23 0 -41.5 6.5t-33.5 14.5t-26 15q-12 6 -21 6q-22 0 -23 -26h-100q0 66 34.5 99t84.5 33q22 0 41 -6.5t34 -14.5
t27 -14q11 -7 20 -7q22 0 23 26h100q0 -66 -34.5 -99t-84.5 -33z" />
    <glyph glyph-name="Umacron" unicode="&#x16a;" horiz-adv-x="682" 
d="M341 -16q-65 0 -118 20.5t-90 60.5t-57 97.5t-20 131.5v422h156v-432q0 -66 33 -109t96 -43t96 43t33 109v432h156v-422q0 -68 -20 -125t-57 -98t-90 -64t-118 -23zM189 786v114h304v-114h-304z" />
    <glyph glyph-name="umacron" unicode="&#x16b;" 
d="M394 62h-10q-50 -78 -150 -78q-92 0 -137 59t-45 155v292h150v-275q0 -40 19 -65.5t59 -25.5q51 0 77.5 39t26.5 102v225h150v-490h-140v62zM143 602v114h304v-114h-304z" />
    <glyph glyph-name="Ubreve" unicode="&#x16c;" horiz-adv-x="682" 
d="M341 -16q-65 0 -118 20.5t-90 60.5t-57 97.5t-20 131.5v422h156v-432q0 -66 33 -109t96 -43t96 43t33 109v432h156v-422q0 -68 -20 -125t-57 -98t-90 -64t-118 -23zM342 760q-28 0 -53.5 10.5t-45 29t-31 44t-11.5 56.5h102q0 -16 10 -28t29 -12q17 0 27.5 12t10.5 28
h101q0 -31 -11 -56.5t-30 -44t-44.5 -29t-53.5 -10.5z" />
    <glyph glyph-name="ubreve" unicode="&#x16d;" 
d="M394 62h-10q-50 -78 -150 -78q-92 0 -137 59t-45 155v292h150v-275q0 -40 19 -65.5t59 -25.5q51 0 77.5 39t26.5 102v225h150v-490h-140v62zM297 561q-28 0 -53.5 10.5t-45 29t-31 44t-11.5 56.5h102q0 -16 10 -28t29 -12q17 0 27.5 12t10.5 28h101q0 -31 -11 -56.5
t-30 -44t-44.5 -29t-53.5 -10.5z" />
    <glyph glyph-name="Uring" unicode="&#x16e;" horiz-adv-x="682" 
d="M341 -16q-65 0 -118 20.5t-90 60.5t-57 97.5t-20 131.5v422h156v-432q0 -66 33 -109t96 -43t96 43t33 109v432h156v-422q0 -68 -20 -125t-57 -98t-90 -64t-118 -23zM341 746q-23 0 -43 8.5t-35 23.5t-23.5 35t-8.5 43t8.5 43t23.5 35t35 23.5t43 8.5t43 -8.5t35 -23.5
t23.5 -35t8.5 -43t-8.5 -43t-23.5 -35t-35 -23.5t-43 -8.5zM341 826q12 0 21 9t9 21t-9 21t-21 9t-21 -9t-9 -21t9 -21t21 -9z" />
    <glyph glyph-name="uring" unicode="&#x16f;" 
d="M394 62h-10q-50 -78 -150 -78q-92 0 -137 59t-45 155v292h150v-275q0 -40 19 -65.5t59 -25.5q51 0 77.5 39t26.5 102v225h150v-490h-140v62zM295 562q-23 0 -43 8.5t-35 23.5t-23.5 35t-8.5 43t8.5 43t23.5 35t35 23.5t43 8.5t43 -8.5t35 -23.5t23.5 -35t8.5 -43
t-8.5 -43t-23.5 -35t-35 -23.5t-43 -8.5zM295 642q12 0 21 9t9 21t-9 21t-21 9t-21 -9t-9 -21t9 -21t21 -9z" />
    <glyph glyph-name="Uhungarumlaut" unicode="&#x170;" horiz-adv-x="682" 
d="M341 -16q-65 0 -118 20.5t-90 60.5t-57 97.5t-20 131.5v422h156v-432q0 -66 33 -109t96 -43t96 43t33 109v432h156v-422q0 -68 -20 -125t-57 -98t-90 -64t-118 -23zM382 772l37 140h179l-98 -140h-118zM167 772l37 140h179l-98 -140h-118z" />
    <glyph glyph-name="uhungarumlaut" unicode="&#x171;" 
d="M394 62h-10q-50 -78 -150 -78q-92 0 -137 59t-45 155v292h150v-275q0 -40 19 -65.5t59 -25.5q51 0 77.5 39t26.5 102v225h150v-490h-140v62zM125 588l37 140h179l-98 -140h-118zM339 588l37 140h179l-98 -140h-118z" />
    <glyph glyph-name="Uogonek" unicode="&#x172;" horiz-adv-x="682" 
d="M396 -224q-63 0 -98.5 31t-35.5 85q0 32 14 55t31 39q-118 11 -184.5 90.5t-66.5 217.5v422h156v-432q0 -66 33 -109t96 -43t96 43t33 109v432h156v-422q0 -91 -34 -159t-99 -110q-16 -10 -34 -21q-19 -12 -34.5 -25.5t-26 -28.5t-10.5 -33q0 -17 10.5 -26.5t25.5 -9.5
q11 0 23 5l36 -91q-16 -8 -40 -13.5t-47 -5.5z" />
    <glyph glyph-name="uogonek" unicode="&#x173;" 
d="M475 -224q-63 0 -98.5 31t-35.5 85q0 36 18.5 60.5t38.5 38.5l-4 9v62h-10q-50 -78 -150 -78q-92 0 -137 59t-45 155v292h150v-275q0 -40 19 -65.5t59 -25.5q51 0 77.5 39t26.5 102v225h150v-490q-29 -18 -48 -38.5t-19 -44.5q0 -17 10.5 -26.5t25.5 -9.5q11 0 23 5
l36 -91q-16 -8 -40 -13.5t-47 -5.5z" />
    <glyph glyph-name="Wcircumflex" unicode="&#x174;" horiz-adv-x="970" 
d="M16 716h166l99 -375l17 -86h10l21 86l87 279h146l88 -279l20 -84h10l15 84l93 375h166l-189 -716h-148l-102 314l-21 86h-10l-21 -86l-102 -314h-148zM304 770l119 130h132l119 -130v-10h-143l-35 58h-14l-35 -58h-143v10z" />
    <glyph glyph-name="wcircumflex" unicode="&#x175;" horiz-adv-x="830" 
d="M4 490h172l67 -276h10l87 276h154l86 -276h10l66 276h170l-156 -490h-164l-87 276h-10l-86 -276h-163zM229 586l119 130h132l119 -130v-10h-143l-35 58h-14l-35 -58h-143v10z" />
    <glyph glyph-name="Ycircumflex" unicode="&#x176;" horiz-adv-x="658" 
d="M253 333l-241 383h188l126 -210h10l120 210h190l-237 -383v-333h-156v333zM146 770l119 130h132l119 -130v-10h-143l-35 58h-14l-35 -58h-143v10z" />
    <glyph glyph-name="ycircumflex" unicode="&#x177;" horiz-adv-x="581" 
d="M212 21l-208 469h173l113 -270h10l108 270h169l-307 -706h-164zM107 586l119 130h132l119 -130v-10h-143l-35 58h-14l-35 -58h-143v10z" />
    <glyph glyph-name="Ydieresis" unicode="&#x178;" horiz-adv-x="658" 
d="M253 333l-241 383h188l126 -210h10l120 210h190l-237 -383v-333h-156v333zM151 843q0 33 23 56t56 23t56 -23t23 -56t-23 -56t-56 -23t-56 23t-23 56zM353 843q0 33 23 56t56 23t56 -23t23 -56t-23 -56t-56 -23t-56 23t-23 56z" />
    <glyph glyph-name="Zacute" unicode="&#x179;" horiz-adv-x="612" 
d="M32 156l354 412h-338v148h520v-156l-348 -412h352v-148h-540v156zM244 772l37 140h179l-98 -140h-118z" />
    <glyph glyph-name="zacute" unicode="&#x17a;" horiz-adv-x="488" 
d="M32 120l235 246h-227v124h412v-120l-235 -246h239v-124h-424v120zM194 588l37 140h179l-98 -140h-118z" />
    <glyph glyph-name="Zdotaccent" unicode="&#x17b;" horiz-adv-x="612" 
d="M32 156l354 412h-338v148h520v-156l-348 -412h352v-148h-540v156zM310 776q-33 0 -56.5 23.5t-23.5 56.5t23.5 56.5t56.5 23.5t56.5 -23.5t23.5 -56.5t-23.5 -56.5t-56.5 -23.5z" />
    <glyph glyph-name="zdotaccent" unicode="&#x17c;" horiz-adv-x="488" 
d="M32 120l235 246h-227v124h412v-120l-235 -246h239v-124h-424v120zM250 562q-35 0 -60 25t-25 60t25 60t60 25t60 -25t25 -60t-25 -60t-60 -25z" />
    <glyph glyph-name="Zcaron" unicode="&#x17d;" horiz-adv-x="612" 
d="M32 156l354 412h-338v148h520v-156l-348 -412h352v-148h-540v156zM127 890v10h143l35 -58h14l35 58h143v-10l-119 -130h-132z" />
    <glyph glyph-name="zcaron" unicode="&#x17e;" horiz-adv-x="488" 
d="M32 120l235 246h-227v124h412v-120l-235 -246h239v-124h-424v120zM67 706v10h143l35 -58h14l35 58h143v-10l-119 -130h-132z" />
    <glyph glyph-name="uni0192" unicode="&#x192;" horiz-adv-x="640" 
d="M173 427h112l15 73q21 108 78 164t154 56q25 0 50.5 -5t45.5 -13l-50 -136q-17 12 -45 12q-30 0 -53 -20.5t-31 -59.5l-14 -71h106v-126h-130l-68 -344q-8 -38 -22.5 -70t-38.5 -56t-57.5 -37.5t-78.5 -13.5q-25 0 -56 5t-51 13l42 136q17 -12 45 -12q29 0 48.5 18
t27.5 62l59 299h-88v126z" />
    <glyph glyph-name="Aringacute" unicode="&#x1fa;" horiz-adv-x="740" 
d="M261 664q-34 39 -34 92q0 25 8.5 48t23 41.5t35 31.5t44.5 18l28 69h129l-52 -85q31 -19 50.5 -51.5t19.5 -71.5q0 -53 -34 -92l249 -664h-172l-55 160h-262l-55 -160h-172zM451 302l-52 150l-24 88h-10l-24 -88l-52 -150h162zM370 716q17 0 28.5 11.5t11.5 28.5
t-11.5 28.5t-28.5 11.5t-28.5 -11.5t-11.5 -28.5t11.5 -28.5t28.5 -11.5z" />
    <glyph glyph-name="aringacute" unicode="&#x1fb;" horiz-adv-x="548" 
d="M413 932l-75 -119h-108l27 119h156zM350 44h-10q-24 -26 -54.5 -43t-78.5 -17q-37 0 -69.5 12t-57 34t-38.5 53t-14 69q0 37 15 67.5t41 52.5t61.5 34t77.5 12q45 0 74.5 -6t52.5 -14v13q0 32 -26.5 54.5t-71.5 22.5q-65 0 -112 -53l-102 72q42 50 97.5 74.5t122.5 24.5
q120 0 181 -53.5t61 -162.5v-290h-150v44zM350 193q-23 9 -45.5 14t-46.5 5q-40 0 -60 -16.5t-20 -42.5t19 -41.5t50 -15.5q25 0 44.5 8.5t32.5 22.5t19.5 31.5t6.5 34.5zM276 562q-23 0 -43 8.5t-35 23.5t-23.5 35t-8.5 43t8.5 43t23.5 35t35 23.5t43 8.5t43 -8.5t35 -23.5
t23.5 -35t8.5 -43t-8.5 -43t-23.5 -35t-35 -23.5t-43 -8.5zM276 642q12 0 21 9t9 21t-9 21t-21 9t-21 -9t-9 -21t9 -21t21 -9z" />
    <glyph glyph-name="AEacute" unicode="&#x1fc;" horiz-adv-x="1027" 
d="M659 568v-136h284v-148h-284v-136h316v-148h-472v163h-228l-89 -163h-182l411 716h560v-148h-316zM357 311h146v257h-13l-35 -79zM644 772l37 140h179l-98 -140h-118z" />
    <glyph glyph-name="aeacute" unicode="&#x1fd;" horiz-adv-x="888" 
d="M377 588l37 140h179l-98 -140h-118zM852 119q-36 -63 -94.5 -99t-141.5 -36q-60 0 -108.5 25t-86.5 67q-44 -49 -92 -70.5t-107 -21.5q-43 0 -78.5 12t-61 34t-40 53t-14.5 69q0 37 15 67.5t41 52.5t61.5 34t77.5 12q44 0 72 -6.5t55 -16.5v6q0 40 -26.5 63.5t-71.5 23.5
q-32 0 -55 -12.5t-33 -36.5l-111 47q31 63 84.5 91.5t120.5 28.5q60 0 105 -19.5t77 -55.5q32 38 76.5 56.5t95.5 18.5q61 0 107.5 -20t77.5 -54.5t47 -81t16 -99.5q0 -8 -0.5 -16t-1.5 -14q-1 -7 -1 -13h-361q11 -48 45 -70t76 -22t69.5 18t43.5 46zM350 193
q-23 9 -45.5 14t-46.5 5q-40 0 -60 -16.5t-20 -42.5t19 -41.5t50 -15.5q25 0 44.5 8.5t32.5 22.5t19.5 31.5t6.5 34.5zM719 310q-2 12 -9.5 26t-21 25.5t-33 19t-43.5 7.5q-35 0 -65.5 -20t-44.5 -58h217z" />
    <glyph glyph-name="Oslashacute" unicode="&#x1fe;" horiz-adv-x="828" 
d="M127 17l36 58q-59 51 -92.5 124t-33.5 159q0 79 28.5 147t79 118.5t119.5 79.5t150 29q76 0 143 -26l39 62l105 -69l-36 -58q59 -51 92.5 -124t33.5 -159q0 -79 -28.5 -147t-79 -118.5t-119.5 -79.5t-150 -29q-38 0 -74.5 7t-68.5 19l-39 -62zM414 132q46 0 86.5 16
t70.5 46t47 71.5t17 92.5q0 46 -14 84.5t-38 67.5l-231 -370q14 -5 29.5 -6.5t32.5 -1.5zM193 358q0 -46 13.5 -84t38.5 -67l231 369q-32 8 -62 8q-47 0 -87 -16t-70 -46t-47 -71.5t-17 -92.5zM356 772l37 140h179l-98 -140h-118z" />
    <glyph glyph-name="oslashacute" unicode="&#x1ff;" horiz-adv-x="584" 
d="M232 588l37 140h179l-98 -140h-118zM292 506q44 0 85 -12l27 43l106 -59l-28 -45q35 -35 54.5 -83t19.5 -105t-19.5 -105t-55 -82.5t-84 -54t-105.5 -19.5q-44 0 -83 12l-26 -42l-106 59l27 43q-36 35 -56 83t-20 106q0 57 19.5 105t55 82.5t84 54t105.5 19.5zM163 245
q0 -37 16 -69l128 205q-6 1 -8 1h-7q-26 0 -49.5 -9.5t-41 -27.5t-28 -43.5t-10.5 -56.5zM292 108q26 0 49.5 9.5t41 27.5t28 43t10.5 57q0 19 -4 36t-11 31l-127 -204h13z" />
    <glyph glyph-name="uni0218" unicode="&#x218;" horiz-adv-x="586" 
d="M299 -16q-100 0 -172.5 53.5t-102.5 153.5l147 58q13 -51 43 -84t85 -33q18 0 34.5 4t29 12.5t20.5 21.5t8 30t-6.5 31.5t-21.5 27t-40 25t-63 26.5l-44 16q-28 10 -57.5 27.5t-53.5 42.5t-39 57.5t-15 72.5q0 43 17 81t48 65.5t75 43.5t97 16q56 0 96 -14.5t68 -37
t44.5 -50.5t25.5 -54l-135 -57q-11 32 -35 51.5t-62 19.5q-40 0 -63.5 -16.5t-23.5 -42.5q0 -27 24 -48t85 -42l44 -15q91 -31 141 -83t50 -140q0 -56 -22.5 -97t-58 -68t-80 -40.5t-87.5 -13.5zM223 -271l49 77q-20 9 -31.5 27.5t-11.5 41.5q0 32 22.5 54.5t54.5 22.5
t54 -22.5t22 -54.5q0 -22 -13 -43l-92 -138z" />
    <glyph glyph-name="uni0219" unicode="&#x219;" horiz-adv-x="497" 
d="M258 -16q-51 0 -90 12t-67.5 31.5t-47.5 45t-29 51.5l135 57q14 -34 39 -49.5t60 -15.5q30 0 46.5 9.5t16.5 24.5q0 17 -16 26.5t-51 17.5l-67 14q-24 5 -49 16t-46 29t-34 42.5t-13 56.5q0 35 15.5 63.5t42.5 48.5t64 31t81 11q76 0 131 -26.5t83 -88.5l-129 -53
q-13 26 -36.5 38t-47.5 12q-26 0 -42 -9t-16 -22q0 -14 16.5 -22.5t40.5 -14.5l76 -18q75 -18 112 -58t37 -94q0 -33 -15.5 -63t-44 -53t-68 -36.5t-87.5 -13.5zM177 -271l49 77q-20 9 -31.5 27.5t-11.5 41.5q0 32 22.5 54.5t54.5 22.5t54 -22.5t22 -54.5q0 -22 -13 -43
l-92 -138z" />
    <glyph glyph-name="uni021A" unicode="&#x21a;" horiz-adv-x="604" 
d="M224 0v568h-200v148h556v-148h-200v-568h-156zM219 -271l49 77q-20 9 -31.5 27.5t-11.5 41.5q0 32 22.5 54.5t54.5 22.5t54 -22.5t22 -54.5q0 -22 -13 -43l-92 -138z" />
    <glyph glyph-name="uni021B" unicode="&#x21b;" horiz-adv-x="425" 
d="M110 364h-86v126h86v150h150v-150h121v-126h-121v-165q0 -16 4 -29.5t14 -22.5q15 -13 39 -13q16 0 27 4t19 10l42 -130q-26 -12 -56 -19t-64 -7q-79 0 -125 46q-24 24 -37 59.5t-13 78.5v188zM174 -271l49 77q-20 9 -31.5 27.5t-11.5 41.5q0 32 22.5 54.5t54.5 22.5
t54 -22.5t22 -54.5q0 -22 -13 -43l-92 -138z" />
    <glyph glyph-name="uni0237" unicode="&#x237;" horiz-adv-x="278" 
d="M-12 -78q17 -10 37 -10q39 0 39 50v528h150v-532q0 -51 -14 -86t-37.5 -57t-53.5 -31.5t-63 -9.5q-30 0 -53 4t-43 12z" />
    <glyph glyph-name="circumflex" unicode="&#x2c6;" horiz-adv-x="484" 
d="M57 586l119 130h132l119 -130v-10h-143l-35 58h-14l-35 -58h-143v10z" />
    <glyph glyph-name="caron" unicode="&#x2c7;" horiz-adv-x="484" 
d="M57 706v10h143l35 -58h14l35 58h143v-10l-119 -130h-132z" />
    <glyph glyph-name="breve" unicode="&#x2d8;" horiz-adv-x="424" 
d="M213 576q-28 0 -53.5 10.5t-45 29t-31 44t-11.5 56.5h102q0 -16 10 -28t29 -12q17 0 27.5 12t10.5 28h101q0 -31 -11 -56.5t-30 -44t-44.5 -29t-53.5 -10.5z" />
    <glyph glyph-name="dotaccent" unicode="&#x2d9;" horiz-adv-x="288" 
d="M144 562q-35 0 -60 25t-25 60t25 60t60 25t60 -25t25 -60t-25 -60t-60 -25z" />
    <glyph glyph-name="ring" unicode="&#x2da;" horiz-adv-x="412" 
d="M206 562q-23 0 -43 8.5t-35 23.5t-23.5 35t-8.5 43t8.5 43t23.5 35t35 23.5t43 8.5t43 -8.5t35 -23.5t23.5 -35t8.5 -43t-8.5 -43t-23.5 -35t-35 -23.5t-43 -8.5zM206 642q12 0 21 9t9 21t-9 21t-21 9t-21 -9t-9 -21t9 -21t21 -9z" />
    <glyph glyph-name="tilde" unicode="&#x2dc;" horiz-adv-x="428" 
d="M277 584q-23 0 -41.5 6.5t-33.5 14.5t-26 15q-12 6 -21 6q-22 0 -23 -26h-100q0 66 34.5 99t84.5 33q22 0 41 -6.5t34 -14.5t27 -14q11 -7 20 -7q22 0 23 26h100q0 -66 -34.5 -99t-84.5 -33z" />
    <glyph glyph-name="uni0374" unicode="&#x374;" horiz-adv-x="333" 
d="M116 716h177l-133 -226h-120z" />
    <glyph glyph-name="uni0375" unicode="&#x375;" horiz-adv-x="333" 
d="M217 -104h-177l133 226h120z" />
    <glyph glyph-name="uni037E" unicode="&#x37e;" horiz-adv-x="291" 
d="M146 314q-40 0 -68 28t-28 68t28 68t68 28t68 -28t28 -68t-28 -68t-68 -28zM44 -92l62 95q-25 11 -40 34.5t-15 52.5q0 40 28 68t68 28t68 -28t28 -68q0 -18 -5 -31t-18 -32l-109 -163z" />
    <glyph glyph-name="tonos" unicode="&#x384;" horiz-adv-x="463" 
d="M129 576l35 140h179l-96 -140h-118z" />
    <glyph glyph-name="dieresistonos" unicode="&#x385;" horiz-adv-x="496" 
d="M32 659q0 30 21.5 51.5t51.5 21.5t51.5 -21.5t21.5 -51.5t-21.5 -51.5t-51.5 -21.5t-51.5 21.5t-21.5 51.5zM208 732h80v-144h-80v144zM318 659q0 30 21.5 51.5t51.5 21.5t51.5 -21.5t21.5 -51.5t-21.5 -51.5t-51.5 -21.5t-51.5 21.5t-21.5 51.5z" />
    <glyph glyph-name="Alphatonos" unicode="&#x386;" horiz-adv-x="740" 
d="M280 716h180l268 -716h-172l-55 160h-262l-55 -160h-172zM451 302l-52 150l-24 88h-10l-24 -88l-52 -150h162zM19 588l37 140h179l-98 -140h-118z" />
    <glyph glyph-name="anoteleia" unicode="&#x387;" horiz-adv-x="232" 
d="M116 228q-40 0 -68 28t-28 68t28 68t68 28t68 -28t28 -68t-28 -68t-68 -28z" />
    <glyph glyph-name="Epsilontonos" unicode="&#x388;" horiz-adv-x="695" 
d="M327 568v-136h284v-148h-284v-136h316v-148h-472v716h472v-148h-316zM-79 588l37 140h179l-98 -140h-118z" />
    <glyph glyph-name="Etatonos" unicode="&#x389;" horiz-adv-x="829" 
d="M171 716h156v-276h274v276h156v-716h-156v292h-274v-292h-156v716zM-79 588l37 140h179l-98 -140h-118z" />
    <glyph glyph-name="Iotatonos" unicode="&#x38a;" horiz-adv-x="399" 
d="M171 716h156v-716h-156v716zM-79 588l37 140h179l-98 -140h-118z" />
    <glyph glyph-name="Omicrontonos" unicode="&#x38c;" horiz-adv-x="813" 
d="M400 -16q-81 0 -150 29t-119.5 79.5t-79 118.5t-28.5 147t28.5 147t79 118.5t119.5 79.5t150 29t150 -29t119.5 -79.5t79 -118.5t28.5 -147t-28.5 -147t-79 -118.5t-119.5 -79.5t-150 -29zM400 132q46 0 86.5 16t70.5 46t47 71.5t17 92.5t-17 92.5t-47 71.5t-70.5 46
t-86.5 16q-47 0 -87 -16t-70 -46t-47 -71.5t-17 -92.5t17 -92.5t47 -71.5t70 -46t87 -16zM-79 588l37 140h179l-98 -140h-118z" />
    <glyph glyph-name="Upsilontonos" unicode="&#x38e;" horiz-adv-x="818" 
d="M397 333l-241 383h188l126 -210h10l120 210h190l-237 -383v-333h-156v333zM-79 588l37 140h179l-98 -140h-118z" />
    <glyph glyph-name="Omegatonos" unicode="&#x38f;" horiz-adv-x="804" 
d="M-79 588l37 140h179l-98 -140h-118zM402 732q78 0 144 -25.5t114 -70t75 -104t27 -126.5q0 -51 -11.5 -93t-30.5 -74.5t-43.5 -56.5t-49.5 -40v-10h125v-132h-310v182q33 11 62.5 29t52 44.5t36 60.5t13.5 77q0 42 -16.5 77t-44 60.5t-64.5 39.5t-79 14t-79 -14
t-64.5 -39.5t-44 -60.5t-16.5 -77q0 -43 13.5 -77t36 -60.5t52 -44.5t62.5 -29v-182h-310v132h125v10q-26 16 -50 40t-43 56.5t-30.5 74.5t-11.5 93q0 67 27 126.5t75 104t114 70t144 25.5z" />
    <glyph glyph-name="iotadieresistonos" unicode="&#x390;" horiz-adv-x="278" 
d="M64 0v490h150v-490h-150zM-76 659q0 30 21.5 51.5t51.5 21.5t51.5 -21.5t21.5 -51.5t-21.5 -51.5t-51.5 -21.5t-51.5 21.5t-21.5 51.5zM100 732h80v-144h-80v144zM210 659q0 30 21.5 51.5t51.5 21.5t51.5 -21.5t21.5 -51.5t-21.5 -51.5t-51.5 -21.5t-51.5 21.5
t-21.5 51.5z" />
    <glyph glyph-name="Alpha" unicode="&#x391;" horiz-adv-x="740" 
d="M280 716h180l268 -716h-172l-55 160h-262l-55 -160h-172zM451 302l-52 150l-24 88h-10l-24 -88l-52 -150h162z" />
    <glyph glyph-name="Beta" unicode="&#x392;" horiz-adv-x="646" 
d="M72 716h291q48 0 89.5 -15t71.5 -40t47 -58.5t17 -69.5q0 -59 -28.5 -98t-67.5 -58v-10q57 -21 89.5 -64t32.5 -106q0 -46 -18.5 -82.5t-51 -62t-77 -39t-96.5 -13.5h-299v716zM348 432q42 0 65 19t23 54t-23 54t-61 19h-124v-146h120zM361 140q97 0 97 80t-101 80h-129
v-160h133z" />
    <glyph glyph-name="Gamma" unicode="&#x393;" horiz-adv-x="552" 
d="M72 716h456v-148h-300v-568h-156v716z" />
    <glyph glyph-name="uni0394" unicode="&#x394;" horiz-adv-x="732" 
d="M12 0l264 716h180l264 -716h-708zM232 142h268l-129 380h-10z" />
    <glyph glyph-name="Epsilon" unicode="&#x395;" horiz-adv-x="596" 
d="M228 568v-136h284v-148h-284v-136h316v-148h-472v716h472v-148h-316z" />
    <glyph glyph-name="Zeta" unicode="&#x396;" horiz-adv-x="612" 
d="M32 156l354 412h-338v148h520v-156l-348 -412h352v-148h-540v156z" />
    <glyph glyph-name="Eta" unicode="&#x397;" horiz-adv-x="730" 
d="M72 716h156v-276h274v276h156v-716h-156v292h-274v-292h-156v716z" />
    <glyph glyph-name="Theta" unicode="&#x398;" horiz-adv-x="842" 
d="M263 291v134h302v-134h-302zM414 -16q-81 0 -150 29t-119.5 79.5t-79 118.5t-28.5 147t28.5 147t79 118.5t119.5 79.5t150 29t150 -29t119.5 -79.5t79 -118.5t28.5 -147t-28.5 -147t-79 -118.5t-119.5 -79.5t-150 -29zM414 132q46 0 86.5 16t70.5 46t47 71.5t17 92.5
t-17 92.5t-47 71.5t-70.5 46t-86.5 16q-47 0 -87 -16t-70 -46t-47 -71.5t-17 -92.5t17 -92.5t47 -71.5t70 -46t87 -16z" />
    <glyph glyph-name="Iota" unicode="&#x399;" horiz-adv-x="300" 
d="M72 716h156v-716h-156v716z" />
    <glyph glyph-name="Kappa" unicode="&#x39a;" horiz-adv-x="678" 
d="M72 716h156v-326h10l232 326h189v-10l-257 -348l276 -348v-10h-192l-248 310h-10v-310h-156v716z" />
    <glyph glyph-name="Lambda" unicode="&#x39b;" horiz-adv-x="724" 
d="M389 452l-22 88h-10l-22 -88l-149 -452h-174l260 716h180l260 -716h-174z" />
    <glyph glyph-name="Mu" unicode="&#x39c;" horiz-adv-x="870" 
d="M72 716h154l204 -350h10l204 350h154v-716h-154v317l10 120h-10l-163 -285h-92l-163 285h-10l10 -120v-317h-154v716z" />
    <glyph glyph-name="Nu" unicode="&#x39d;" horiz-adv-x="736" 
d="M72 716h180l258 -442h10l-10 138v304h154v-716h-164l-274 468h-10l10 -138v-330h-154v716z" />
    <glyph glyph-name="Xi" unicode="&#x39e;" horiz-adv-x="570" 
d="M542 148v-148h-514v148h514zM60 285v146h450v-146h-450zM28 568v148h514v-148h-514z" />
    <glyph glyph-name="Omicron" unicode="&#x39f;" horiz-adv-x="828" 
d="M414 -16q-81 0 -150 29t-119.5 79.5t-79 118.5t-28.5 147t28.5 147t79 118.5t119.5 79.5t150 29t150 -29t119.5 -79.5t79 -118.5t28.5 -147t-28.5 -147t-79 -118.5t-119.5 -79.5t-150 -29zM414 132q46 0 86.5 16t70.5 46t47 71.5t17 92.5t-17 92.5t-47 71.5t-70.5 46
t-86.5 16q-47 0 -87 -16t-70 -46t-47 -71.5t-17 -92.5t17 -92.5t47 -71.5t70 -46t87 -16z" />
    <glyph glyph-name="Pi" unicode="&#x3a0;" horiz-adv-x="710" 
d="M72 0v716h566v-716h-156v568h-254v-568h-156z" />
    <glyph glyph-name="Rho" unicode="&#x3a1;" horiz-adv-x="606" 
d="M72 0v716h256q55 0 101.5 -17t80.5 -47.5t53 -73.5t19 -95t-19 -95t-53 -73.5t-80.5 -47.5t-101.5 -17h-100v-250h-156zM333 398q49 0 73 24t24 61t-24 61t-73 24h-105v-170h105z" />
    <glyph glyph-name="Sigma" unicode="&#x3a3;" horiz-adv-x="538" 
d="M232 572l170 -206l-170 -222h278v-144h-470v152l178 214l-178 198v152h470v-144h-278z" />
    <glyph glyph-name="Tau" unicode="&#x3a4;" horiz-adv-x="604" 
d="M224 0v568h-200v148h556v-148h-200v-568h-156z" />
    <glyph glyph-name="Upsilon" unicode="&#x3a5;" horiz-adv-x="658" 
d="M253 333l-241 383h188l126 -210h10l120 210h190l-237 -383v-333h-156v333z" />
    <glyph glyph-name="Phi" unicode="&#x3a6;" horiz-adv-x="824" 
d="M334 -48v109q-70 10 -125 36.5t-93.5 66t-58.5 89t-20 105.5q0 55 20 105t58.5 89.5t93.5 66t125 36.5v109h156v-109q70 -10 125 -36.5t93.5 -66t58.5 -89.5t20 -105q0 -56 -20 -105.5t-58.5 -89t-93.5 -66t-125 -36.5v-109h-156zM631 358q0 60 -37.5 99.5t-103.5 54.5
v-308q66 15 103.5 54.5t37.5 99.5zM193 358q0 -60 37.5 -99.5t103.5 -54.5v308q-66 -15 -103.5 -54.5t-37.5 -99.5z" />
    <glyph glyph-name="Chi" unicode="&#x3a7;" horiz-adv-x="716" 
d="M248 376l-212 340h196l121 -214h10l121 214h196l-212 -340l232 -376h-198l-139 240h-10l-139 -240h-198z" />
    <glyph glyph-name="Psi" unicode="&#x3a8;" horiz-adv-x="794" 
d="M319 156q-51 0 -98.5 21t-84 59t-58.5 92.5t-22 122.5v265h156v-274q0 -27 7 -52t20.5 -44t33.5 -30.5t46 -11.5v412h156v-412q26 0 46 11.5t33.5 30.5t20.5 44t7 52v274h156v-265q0 -68 -22 -122.5t-58.5 -92.5t-84 -59t-98.5 -21v-156h-156v156z" />
    <glyph glyph-name="uni03A9" unicode="&#x3a9;" horiz-adv-x="804" 
d="M402 732q78 0 144 -25.5t114 -70t75 -104t27 -126.5q0 -51 -11.5 -93t-30.5 -74.5t-43.5 -56.5t-49.5 -40v-10h125v-132h-310v182q33 11 62.5 29t52 44.5t36 60.5t13.5 77q0 42 -16.5 77t-44 60.5t-64.5 39.5t-79 14t-79 -14t-64.5 -39.5t-44 -60.5t-16.5 -77
q0 -43 13.5 -77t36 -60.5t52 -44.5t62.5 -29v-182h-310v132h125v10q-26 16 -50 40t-43 56.5t-30.5 74.5t-11.5 93q0 67 27 126.5t75 104t114 70t144 25.5z" />
    <glyph glyph-name="Iotadieresis" unicode="&#x3aa;" horiz-adv-x="300" 
d="M-21 856q0 31 22 53t53 22t53 -22t22 -53t-22 -53t-53 -22t-53 22t-22 53zM171 856q0 31 22 53t53 22t53 -22t22 -53t-22 -53t-53 -22t-53 22t-22 53zM72 716h156v-716h-156v716z" />
    <glyph glyph-name="Upsilondieresis" unicode="&#x3ab;" horiz-adv-x="658" 
d="M253 333l-241 383h188l126 -210h10l120 210h190l-237 -383v-333h-156v333zM151 843q0 33 23 56t56 23t56 -23t23 -56t-23 -56t-56 -23t-56 23t-23 56zM353 843q0 33 23 56t56 23t56 -23t23 -56t-23 -56t-56 -23t-56 23t-23 56z" />
    <glyph glyph-name="alphatonos" unicode="&#x3ac;" horiz-adv-x="608" 
d="M416 0v54h-10q-17 -29 -52.5 -49.5t-89.5 -20.5q-47 0 -90 19t-75.5 53.5t-51.5 82.5t-19 106t19 106t51.5 82.5t75.5 53.5t90 19q54 0 89.5 -20.5t52.5 -49.5h10v54h140v-490h-140zM297 366q-24 0 -45.5 -8.5t-38 -24.5t-26 -38t-9.5 -50t9.5 -50.5t26 -38t38 -24
t45.5 -8.5t45.5 8.5t38 24t26 38t9.5 50.5t-9.5 50t-26 38t-38 24.5t-45.5 8.5zM231 588l37 140h179l-98 -140h-118z" />
    <glyph glyph-name="epsilontonos" unicode="&#x3ad;" horiz-adv-x="526" 
d="M254 506q62 0 108 -19.5t87 -60.5l-86 -83q-38 49 -109 49q-29 0 -48 -11.5t-19 -31.5q0 -23 18 -35t49 -12h75v-104h-75q-38 0 -57.5 -13t-19.5 -33q0 -23 22 -34.5t57 -11.5q71 0 122 60l90 -91q-38 -41 -88.5 -66t-123.5 -25q-105 0 -162.5 41t-57.5 115q0 34 20 63.5
t57 46.5v10q-27 14 -41.5 40t-14.5 66q0 28 14.5 53.5t41 45t62.5 30.5t79 11zM195 588l37 140h179l-98 -140h-118z" />
    <glyph glyph-name="etatonos" unicode="&#x3ae;" 
d="M245 588l37 140h179l-98 -140h-118zM196 428h10q50 78 150 78q45 0 79 -15.5t57 -44t34.5 -68t11.5 -86.5v-508h-150v491q0 38 -19 64.5t-59 26.5q-51 0 -77.5 -39t-26.5 -102v-225h-150v490h140v-62z" />
    <glyph glyph-name="iotatonos" unicode="&#x3af;" horiz-adv-x="278" 
d="M64 0v490h150v-490h-150zM72 588l37 140h179l-98 -140h-118z" />
    <glyph glyph-name="upsilondieresistonos" unicode="&#x3b0;" horiz-adv-x="582" 
d="M292 -16q-50 0 -94 16.5t-76.5 46t-51 70.5t-18.5 91v282h150v-248q0 -58 28.5 -88t68.5 -30q20 0 39 7t33.5 22t23.5 37.5t9 53.5q0 60 -21.5 119t-59.5 127h161q30 -54 50 -119t20 -134q0 -67 -22 -115t-58 -78.5t-83.5 -45t-98.5 -14.5zM59 659q0 30 21.5 51.5
t51.5 21.5t51.5 -21.5t21.5 -51.5t-21.5 -51.5t-51.5 -21.5t-51.5 21.5t-21.5 51.5zM235 732h80v-144h-80v144zM345 659q0 30 21.5 51.5t51.5 21.5t51.5 -21.5t21.5 -51.5t-21.5 -51.5t-51.5 -21.5t-51.5 21.5t-21.5 51.5z" />
    <glyph glyph-name="alpha" unicode="&#x3b1;" horiz-adv-x="608" 
d="M416 0v54h-10q-17 -29 -52.5 -49.5t-89.5 -20.5q-47 0 -90 19t-75.5 53.5t-51.5 82.5t-19 106t19 106t51.5 82.5t75.5 53.5t90 19q54 0 89.5 -20.5t52.5 -49.5h10v54h140v-490h-140zM297 366q-24 0 -45.5 -8.5t-38 -24.5t-26 -38t-9.5 -50t9.5 -50.5t26 -38t38 -24
t45.5 -8.5t45.5 8.5t38 24t26 38t9.5 50.5t-9.5 50t-26 38t-38 24.5t-45.5 8.5z" />
    <glyph glyph-name="beta" unicode="&#x3b2;" horiz-adv-x="597" 
d="M212 38l10 -80v-174h-150v718q0 50 16.5 92t47.5 73t74 48t97 17q48 0 89 -13.5t71 -38.5t46.5 -60t16.5 -78q0 -53 -24.5 -91t-53.5 -59v-10q53 -23 83 -65t30 -114q0 -51 -17.5 -91.5t-46.5 -69t-67 -43.5t-79 -15q-43 0 -73.5 12.5t-59.5 41.5h-10zM222 228
q0 -57 28.5 -83.5t70.5 -26.5q40 0 67 28.5t27 73.5q0 42 -30 69t-78 27h-24v130h18q38 0 62.5 21.5t24.5 56.5q0 31 -23 50.5t-58 19.5q-39 0 -62 -26.5t-23 -64.5v-275z" />
    <glyph glyph-name="gamma" unicode="&#x3b3;" horiz-adv-x="602" 
d="M225 2l-221 488h174l118 -281h10l120 281h172l-223 -488v-218h-150v218z" />
    <glyph glyph-name="delta" unicode="&#x3b4;" horiz-adv-x="584" 
d="M67 716h438v-124h-219l161 -133q57 -48 83 -102t26 -112q0 -57 -19.5 -105t-55 -82.5t-84 -54t-105.5 -19.5t-105.5 19.5t-84 54t-55 82.5t-19.5 105q0 50 15.5 91t41 72.5t57.5 52t64 30.5l-139 111v114zM292 124q23 0 43.5 8.5t36.5 24t25 38t9 50.5t-9 50t-25 38
t-36.5 24.5t-43.5 8.5t-43.5 -8.5t-36.5 -24.5t-25 -38t-9 -50t9 -50.5t25 -38t36.5 -24t43.5 -8.5z" />
    <glyph glyph-name="epsilon" unicode="&#x3b5;" horiz-adv-x="508" 
d="M254 506q62 0 108 -19.5t87 -60.5l-86 -83q-38 49 -109 49q-29 0 -48 -11.5t-19 -31.5q0 -23 18 -35t49 -12h75v-104h-75q-38 0 -57.5 -13t-19.5 -33q0 -23 22 -34.5t57 -11.5q71 0 122 60l90 -91q-38 -41 -88.5 -66t-123.5 -25q-105 0 -162.5 41t-57.5 115q0 34 20 63.5
t57 46.5v10q-27 14 -41.5 40t-14.5 66q0 28 14.5 53.5t41 45t62.5 30.5t79 11z" />
    <glyph glyph-name="zeta" unicode="&#x3b6;" horiz-adv-x="507" 
d="M198 0q-88 0 -131 40t-43 101q0 75 68 125q16 11 40 29q24 17 47 33q26 18 55 38h-197v124h412v-118q-64 -43 -115 -77q-22 -15 -43 -29t-38 -25q-18 -12 -29 -20q-12 -8 -14 -9q-13 -9 -21.5 -20t-8.5 -26q0 -22 15.5 -32t38.5 -10h99q33 0 60.5 -9.5t47.5 -27t31 -43
t11 -56.5q0 -41 -13 -70.5t-36 -48.5t-54 -28t-68 -9v114q16 0 23.5 8t7.5 19t-7.5 19t-23.5 8h-114z" />
    <glyph glyph-name="eta" unicode="&#x3b7;" 
d="M196 428h10q50 78 150 78q45 0 79 -15.5t57 -44t34.5 -68t11.5 -86.5v-508h-150v491q0 38 -19 64.5t-59 26.5q-51 0 -77.5 -39t-26.5 -102v-225h-150v490h140v-62z" />
    <glyph glyph-name="theta" unicode="&#x3b8;" horiz-adv-x="691" 
d="M337 -16q-68 0 -122 27t-92 75t-58.5 113.5t-20.5 142.5t20.5 142.5t58.5 113.5t92 75t122 27q67 0 121.5 -27t92.5 -75t58.5 -113.5t20.5 -142.5t-20.5 -142.5t-58.5 -113.5t-92.5 -75t-121.5 -27zM337 124q59 0 95.5 47.5t45.5 122.5h-282q9 -75 45.5 -122.5
t95.5 -47.5zM337 560q-52 0 -86 -37t-48 -97h268q-14 60 -48 97t-86 37z" />
    <glyph glyph-name="iota" unicode="&#x3b9;" horiz-adv-x="278" 
d="M64 0v490h150v-490h-150z" />
    <glyph glyph-name="kappa" unicode="&#x3ba;" horiz-adv-x="534" 
d="M206 490v-204h10l137 204h174v-10l-155 -221l166 -249v-10h-174l-148 228h-10v-228h-150v490h150z" />
    <glyph glyph-name="lambda" unicode="&#x3bb;" horiz-adv-x="581" 
d="M212 469.003l-208 -468.943h173l113 269.968h10l108 -269.968h169l-307 705.914h-164z" />
    <glyph glyph-name="nu" unicode="&#x3bd;" horiz-adv-x="586" 
d="M4 490h174l110 -278h10l112 278h172l-216 -490h-148z" />
    <glyph glyph-name="xi" unicode="&#x3be;" horiz-adv-x="545" 
d="M340 140q46 0 80 -12t56.5 -32.5t33.5 -48.5t11 -59q0 -41 -13 -70.5t-36 -48.5t-54 -28t-68 -9v114q16 0 23.5 8t7.5 19t-7.5 19t-23.5 8h-76q-59 0 -105.5 16.5t-78.5 44.5t-49 65t-17 79q0 35 10 62.5t25 48t34 35t37 24.5v10q-17 11 -31.5 24.5t-25 31.5t-17 42
t-6.5 57q0 40 17.5 75t47.5 61t71 41t88 15q46 0 80.5 -8.5t61 -22.5t46.5 -32.5t37 -37.5l-105 -101q-20 33 -46.5 51.5t-59.5 18.5q-49 0 -70 -23.5t-21 -52.5q0 -22 9 -38.5t23.5 -27.5t32.5 -16.5t36 -5.5h102v-126h-107q-57 0 -88 -23t-31 -61q0 -42 31 -64t94 -22h41z
" />
    <glyph glyph-name="omicron" unicode="&#x3bf;" horiz-adv-x="584" 
d="M292 506q57 0 105.5 -19.5t84 -54t55 -82.5t19.5 -105t-19.5 -105t-55 -82.5t-84 -54t-105.5 -19.5t-105.5 19.5t-84 54t-55 82.5t-19.5 105t19.5 105t55 82.5t84 54t105.5 19.5zM292 124q23 0 43.5 8.5t36.5 24t25 38t9 50.5t-9 50t-25 38t-36.5 24.5t-43.5 8.5
t-43.5 -8.5t-36.5 -24.5t-25 -38t-9 -50t9 -50.5t25 -38t36.5 -24t43.5 -8.5z" />
    <glyph glyph-name="pi" unicode="&#x3c0;" horiz-adv-x="759" 
d="M137 364h-113v126h687v-126h-121v-164q0 -27 14.5 -49t46.5 -22q16 0 25 4t17 10l42 -125q-18 -9 -48 -17.5t-66 -8.5q-42 0 -76 15t-57 41.5t-35.5 63.5t-12.5 82v170h-153v-364h-150v364z" />
    <glyph glyph-name="rho" unicode="&#x3c1;" horiz-adv-x="612" 
d="M315 366q-24 0 -45.5 -8.5t-38 -24.5t-26 -38t-9.5 -50t9.5 -50.5t26 -38t38 -24t45.5 -8.5t45.5 8.5t38 24t26 38t9.5 50.5t-9.5 50t-26 38t-38 24.5t-45.5 8.5zM315 506q67 0 117 -20.5t84 -55.5t51 -83t17 -102q0 -58 -17 -106t-46.5 -82.5t-70 -53.5t-87.5 -19
q-61 0 -97.5 20.5t-59.5 49.5h-10l10 -70v-200h-150v440q0 62 18.5 114t52.5 89.5t82 58t106 20.5z" />
    <glyph glyph-name="uni03C2" unicode="&#x3c2;" horiz-adv-x="550" 
d="M313 -16q-68 0 -120.5 19.5t-89.5 54t-56 82.5t-19 105t19.5 105t55 82.5t84 54t105.5 19.5q84 0 144.5 -37t89.5 -102l-138 -58q-26 57 -96 57q-49 0 -81.5 -32.5t-32.5 -88.5q0 -54 38 -87.5t108 -33.5h22q38 0 69.5 -11.5t54.5 -31.5t36 -48t13 -61q0 -41 -13 -70.5
t-36 -48.5t-54 -28t-68 -9v114q16 0 23.5 8t7.5 19t-7.5 19t-23.5 8h-35z" />
    <glyph glyph-name="sigma" unicode="&#x3c3;" horiz-adv-x="614" 
d="M492 366q26 -23 41 -58t15 -71q0 -55 -19.5 -101.5t-54 -80t-82.5 -52.5t-104 -19t-104 19t-82.5 52.5t-54 80t-19.5 101.5t19.5 101t54 80t82.5 53t104 19h314v-124h-32l-78 10v-10zM288 124q46 0 78 29.5t32 83.5t-32 83.5t-78 29.5t-78 -29.5t-32 -83.5t32 -83.5
t78 -29.5z" />
    <glyph glyph-name="tau" unicode="&#x3c4;" horiz-adv-x="496" 
d="M173 0v350h-149v140h448v-140h-149v-350h-150z" />
    <glyph glyph-name="upsilon" unicode="&#x3c5;" horiz-adv-x="582" 
d="M292 -16q-50 0 -94 16.5t-76.5 46t-51 70.5t-18.5 91v282h150v-248q0 -58 28.5 -88t68.5 -30q20 0 39 7t33.5 22t23.5 37.5t9 53.5q0 60 -21.5 119t-59.5 127h161q30 -54 50 -119t20 -134q0 -67 -22 -115t-58 -78.5t-83.5 -45t-98.5 -14.5z" />
    <glyph glyph-name="phi" unicode="&#x3c6;" horiz-adv-x="748" 
d="M295 -216v206q-58 8 -104.5 30t-79 55.5t-50 78t-17.5 98.5q0 52 14 92t36.5 70.5t50 53t55.5 38.5l69 -122q-35 -23 -56 -54t-21 -78q0 -48 27.5 -79.5t75.5 -45.5v209q0 42 13.5 73.5t37 53t55 32.5t68.5 11q55 0 98.5 -18.5t74 -51t46.5 -77.5t16 -99
q0 -55 -18.5 -100.5t-52 -80t-81 -57.5t-105.5 -32v-206h-152zM447 127q52 14 80.5 50.5t28.5 99.5q0 42 -19 69.5t-50 27.5q-17 0 -28.5 -13.5t-11.5 -40.5v-193z" />
    <glyph glyph-name="chi" unicode="&#x3c7;" horiz-adv-x="535" 
d="M177 249l-168 241h180l74 -118h10l68 118h186l-172 -241l171 -249h-178l-77 119h-10l-75 -119h-178z" />
    <glyph glyph-name="psi" unicode="&#x3c8;" horiz-adv-x="738" 
d="M305 490h152v-365q17 0 35.5 6.5t33.5 21.5t24.5 40.5t9.5 63.5q0 33 -4 62t-11.5 57t-18.5 56t-26 58h154q26 -54 41 -117.5t15 -123.5q0 -72 -25 -122t-63 -82t-82.5 -46.5t-82.5 -14.5v-200h-152v200q-53 0 -99 17t-80.5 48.5t-54 77.5t-19.5 104v259h150v-256
q0 -32 9 -53t23.5 -34t33 -18t37.5 -5v366z" />
    <glyph glyph-name="omega" unicode="&#x3c9;" horiz-adv-x="810" 
d="M251 -16q-45 0 -85.5 15.5t-71 46.5t-48.5 78.5t-18 112.5q0 70 19.5 135t48.5 118h170q-38 -63 -59 -121.5t-21 -124.5q0 -50 20.5 -80t53.5 -30q30 0 52.5 24.5t22.5 86.5v125h140v-125q0 -62 22.5 -86.5t52.5 -24.5q33 0 53.5 30t20.5 80q0 66 -21 124.5t-59 121.5
h170q29 -53 48.5 -118t19.5 -135q0 -65 -18 -112.5t-48.5 -78.5t-71 -46.5t-85.5 -15.5q-57 0 -94.5 23.5t-59.5 69.5q-22 -46 -59.5 -69.5t-94.5 -23.5z" />
    <glyph glyph-name="iotadieresis" unicode="&#x3ca;" horiz-adv-x="278" 
d="M-28 659q0 31 22 53t53 22t53 -22t22 -53t-22 -53t-53 -22t-53 22t-22 53zM156 659q0 31 22 53t53 22t53 -22t22 -53t-22 -53t-53 -22t-53 22t-22 53zM64 0v490h150v-490h-150z" />
    <glyph glyph-name="upsilondieresis" unicode="&#x3cb;" horiz-adv-x="582" 
d="M292 -16q-50 0 -94 16.5t-76.5 46t-51 70.5t-18.5 91v282h150v-248q0 -58 28.5 -88t68.5 -30q20 0 39 7t33.5 22t23.5 37.5t9 53.5q0 60 -21.5 119t-59.5 127h161q30 -54 50 -119t20 -134q0 -67 -22 -115t-58 -78.5t-83.5 -45t-98.5 -14.5zM90 659q0 33 23 56t56 23
t56 -23t23 -56t-23 -56t-56 -23t-56 23t-23 56zM292 659q0 33 23 56t56 23t56 -23t23 -56t-23 -56t-56 -23t-56 23t-23 56z" />
    <glyph glyph-name="omicrontonos" unicode="&#x3cc;" horiz-adv-x="584" 
d="M292 506q57 0 105.5 -19.5t84 -54t55 -82.5t19.5 -105t-19.5 -105t-55 -82.5t-84 -54t-105.5 -19.5t-105.5 19.5t-84 54t-55 82.5t-19.5 105t19.5 105t55 82.5t84 54t105.5 19.5zM292 124q23 0 43.5 8.5t36.5 24t25 38t9 50.5t-9 50t-25 38t-36.5 24.5t-43.5 8.5
t-43.5 -8.5t-36.5 -24.5t-25 -38t-9 -50t9 -50.5t25 -38t36.5 -24t43.5 -8.5zM231 588l37 140h179l-98 -140h-118z" />
    <glyph glyph-name="upsilontonos" unicode="&#x3cd;" horiz-adv-x="582" 
d="M292 -16q-50 0 -94 16.5t-76.5 46t-51 70.5t-18.5 91v282h150v-248q0 -58 28.5 -88t68.5 -30q20 0 39 7t33.5 22t23.5 37.5t9 53.5q0 60 -21.5 119t-59.5 127h161q30 -54 50 -119t20 -134q0 -67 -22 -115t-58 -78.5t-83.5 -45t-98.5 -14.5zM213 588l37 140h179l-98 -140
h-118z" />
    <glyph glyph-name="omegatonos" unicode="&#x3ce;" horiz-adv-x="810" 
d="M251 -16q-45 0 -85.5 15.5t-71 46.5t-48.5 78.5t-18 112.5q0 70 19.5 135t48.5 118h170q-38 -63 -59 -121.5t-21 -124.5q0 -50 20.5 -80t53.5 -30q30 0 52.5 24.5t22.5 86.5v125h140v-125q0 -62 22.5 -86.5t52.5 -24.5q33 0 53.5 30t20.5 80q0 66 -21 124.5t-59 121.5
h170q29 -53 48.5 -118t19.5 -135q0 -65 -18 -112.5t-48.5 -78.5t-71 -46.5t-85.5 -15.5q-57 0 -94.5 23.5t-59.5 69.5q-22 -46 -59.5 -69.5t-94.5 -23.5zM347 588l37 140h179l-98 -140h-118z" />
    <glyph glyph-name="uni03D1" unicode="&#x3d1;" horiz-adv-x="663" 
d="M306 -16q-59 0 -106 17.5t-80 50t-50.5 78t-17.5 102.5v258h140v-254q0 -29 9.5 -51t25 -37t36 -22.5t43.5 -7.5q45 0 75 29.5t30 88.5v36q-42 13 -78.5 39.5t-64 63.5t-43.5 83t-16 100q0 42 12.5 74.5t34.5 54.5t53 33.5t67 11.5q80 0 127.5 -45.5t47.5 -125.5v-179h88
v-119h-88v-30q0 -118 -63.5 -183.5t-181.5 -65.5zM411 568q0 23 -9.5 34.5t-24.5 11.5t-24.5 -12.5t-9.5 -43.5q0 -51 16 -93t52 -65v168z" />
    <glyph glyph-name="uni03D2" unicode="&#x3d2;" horiz-adv-x="688" 
d="M575 724q35 0 62.5 -9t46.5 -24l-48 -109q-5 3 -14 5.5t-19 2.5q-17 0 -30.5 -8t-24.5 -28l-126 -244v-310h-156v310l-126 244q-11 20 -24.5 28t-30.5 8q-10 0 -19 -2.5t-14 -5.5l-48 109q19 15 46.5 24t62.5 9q18 0 38 -3t39.5 -13t37.5 -29t34 -50l77 -150h10l77 150
q16 31 34 50t37.5 29t39.5 13t38 3z" />
    <glyph glyph-name="uni03D3" unicode="&#x3d3;" horiz-adv-x="830" 
d="M717 724q35 0 62.5 -9t46.5 -24l-48 -109q-5 3 -14 5.5t-19 2.5q-17 0 -30.5 -8t-24.5 -28l-126 -244v-310h-156v310l-126 244q-11 20 -24.5 28t-30.5 8q-10 0 -19 -2.5t-14 -5.5l-48 109q19 15 46.5 24t62.5 9q18 0 38 -3t39.5 -13t37.5 -29t34 -50l77 -150h10l77 150
q16 31 34 50t37.5 29t39.5 13t38 3zM-79 588l37 140h179l-98 -140h-118z" />
    <glyph glyph-name="uni03D4" unicode="&#x3d4;" horiz-adv-x="688" 
d="M575 724q35 0 62.5 -9t46.5 -24l-48 -109q-5 3 -14 5.5t-19 2.5q-17 0 -30.5 -8t-24.5 -28l-126 -244v-310h-156v310l-126 244q-11 20 -24.5 28t-30.5 8q-10 0 -19 -2.5t-14 -5.5l-48 109q19 15 46.5 24t62.5 9q18 0 38 -3t39.5 -13t37.5 -29t34 -50l77 -150h10l77 150
q16 31 34 50t37.5 29t39.5 13t38 3zM165 843q0 33 23 56t56 23t56 -23t23 -56t-23 -56t-56 -23t-56 23t-23 56zM367 843q0 33 23 56t56 23t56 -23t23 -56t-23 -56t-56 -23t-56 23t-23 56z" />
    <glyph glyph-name="uni03D6" unicode="&#x3d6;" horiz-adv-x="928" 
d="M310 -16q-45 0 -85.5 15.5t-71 46.5t-48.5 78.5t-18 112.5q0 38 7 74t19 71h-73v108h848v-108h-73q12 -35 19 -71t7 -74q0 -65 -18 -112.5t-48.5 -78.5t-71 -46.5t-85.5 -15.5q-57 0 -94.5 25.5t-59.5 67.5q-22 -42 -59.5 -67.5t-94.5 -25.5zM683 244q0 70 -24 138h-390
q-24 -68 -24 -138q0 -50 20.5 -80t53.5 -30q15 0 28.5 5.5t24 18.5t16.5 34.5t6 52.5v85h140v-85q0 -31 6 -52.5t16.5 -34.5t24 -18.5t28.5 -5.5q33 0 53.5 30t20.5 80z" />
    <glyph glyph-name="uni0400" unicode="&#x400;" horiz-adv-x="596" 
d="M228 568v-136h284v-148h-284v-136h316v-148h-472v716h472v-148h-316zM255 772l-98 140h179l37 -140h-118z" />
    <glyph glyph-name="uni0401" unicode="&#x401;" horiz-adv-x="596" 
d="M228 568v-136h284v-148h-284v-136h316v-148h-472v716h472v-148h-316zM124 843q0 33 23 56t56 23t56 -23t23 -56t-23 -56t-56 -23t-56 23t-23 56zM326 843q0 33 23 56t56 23t56 -23t23 -56t-23 -56t-56 -23t-56 23t-23 56z" />
    <glyph glyph-name="uni0402" unicode="&#x402;" horiz-adv-x="807" 
d="M775 220q0 -59 -17.5 -100.5t-49.5 -68t-76.5 -39t-99.5 -12.5h-32v136h19q48 0 74 21.5t26 57.5q0 40 -26 60.5t-71 20.5t-86 -22.5t-61 -53.5v-220h-156v568h-195v148h550v-148h-199v-126l-10 -78h10q30 32 75.5 53t104.5 21q45 0 85 -15.5t70 -44t47.5 -68.5t17.5 -90
z" />
    <glyph glyph-name="uni0403" unicode="&#x403;" horiz-adv-x="566" 
d="M72 716h470v-148h-314v-568h-156v716zM245 772l37 140h179l-98 -140h-118z" />
    <glyph glyph-name="uni0404" unicode="&#x404;" horiz-adv-x="737" 
d="M701 116q-56 -67 -130.5 -99.5t-160.5 -32.5q-81 0 -149 29t-118 79.5t-78 118.5t-28 147t28 147t78 118.5t118 79.5t149 29q85 0 153 -30t121 -87l-107 -106q-28 32 -71 53.5t-97 21.5q-78 0 -135.5 -42t-76.5 -117h305v-134h-305q19 -75 76.5 -117t135.5 -42
q57 0 103 23t80 66z" />
    <glyph glyph-name="uni0405" unicode="&#x405;" horiz-adv-x="586" 
d="M299 -16q-100 0 -172.5 53.5t-102.5 153.5l147 58q13 -51 43 -84t85 -33q18 0 34.5 4t29 12.5t20.5 21.5t8 30t-6.5 31.5t-21.5 27t-40 25t-63 26.5l-44 16q-28 10 -57.5 27.5t-53.5 42.5t-39 57.5t-15 72.5q0 43 17 81t48 65.5t75 43.5t97 16q56 0 96 -14.5t68 -37
t44.5 -50.5t25.5 -54l-135 -57q-11 32 -35 51.5t-62 19.5q-40 0 -63.5 -16.5t-23.5 -42.5q0 -27 24 -48t85 -42l44 -15q91 -31 141 -83t50 -140q0 -56 -22.5 -97t-58 -68t-80 -40.5t-87.5 -13.5z" />
    <glyph glyph-name="uni0406" unicode="&#x406;" horiz-adv-x="300" 
d="M72 716h156v-716h-156v716z" />
    <glyph glyph-name="uni0407" unicode="&#x407;" horiz-adv-x="300" 
d="M-21 843q0 31 22 53t53 22t53 -22t22 -53t-22 -53t-53 -22t-53 22t-22 53zM171 843q0 31 22 53t53 22t53 -22t22 -53t-22 -53t-53 -22t-53 22t-22 53zM72 716h156v-716h-156v716z" />
    <glyph glyph-name="uni0408" unicode="&#x408;" horiz-adv-x="571" 
d="M268 -16q-44 0 -82.5 12.5t-70.5 36t-55.5 56t-35.5 72.5l142 58q10 -38 35 -62.5t67 -24.5q41 0 64 24.5t23 75.5v484h156v-486q0 -61 -19.5 -107t-53 -77t-77.5 -46.5t-93 -15.5z" />
    <glyph glyph-name="uni0409" unicode="&#x409;" horiz-adv-x="1111" 
d="M58 138q40 0 59 22q16 18 22.5 54.5t6.5 98.5v403h522v-276h144q56 0 105 -13.5t85 -40.5t56.5 -68.5t20.5 -97.5t-20.5 -97.5t-56.5 -68.5t-85 -40.5t-105 -13.5h-300v568h-210v-319q0 -142 -68 -206q-56 -51 -158 -51q-11 0 -27.5 2t-24.5 4v146q6 -3 16 -4.5t18 -1.5z
M668 296v-152h150q45 0 70 19t25 57t-25 57t-70 19h-150z" />
    <glyph glyph-name="uni040A" unicode="&#x40a;" horiz-adv-x="1102" 
d="M72 716h156v-276h274v276h156v-276h145q56 0 105 -13.5t85 -40.5t56.5 -68.5t20.5 -97.5t-20.5 -97.5t-56.5 -68.5t-85 -40.5t-105 -13.5h-301v296h-274v-296h-156v716zM658 296v-152h151q45 0 70 19t25 57t-25 57t-70 19h-151z" />
    <glyph glyph-name="uni040B" unicode="&#x40b;" horiz-adv-x="803" 
d="M605 0v193q0 49 -26.5 76t-72.5 27q-42 0 -76.5 -22.5t-54.5 -53.5v-220h-156v568h-195v148h550v-148h-199v-126l-10 -78h10q30 32 75 53t106 21q43 0 78.5 -13.5t61.5 -40t40.5 -66t14.5 -90.5v-228h-146z" />
    <glyph glyph-name="uni040C" unicode="&#x40c;" horiz-adv-x="678" 
d="M72 716h156v-326h10l232 326h189v-10l-257 -348l276 -348v-10h-192l-248 310h-10v-310h-156v716zM282 772l37 140h179l-98 -140h-118z" />
    <glyph glyph-name="uni040D" unicode="&#x40d;" horiz-adv-x="728" 
d="M72 716h154v-330l-10 -138h10l266 468h164v-716h-154v304l10 138h-10l-250 -442h-180v716zM288 772l-98 140h179l37 -140h-118z" />
    <glyph glyph-name="uni040E" unicode="&#x40e;" horiz-adv-x="644" 
d="M362 119q-34 -75 -80.5 -105t-105.5 -30q-33 0 -59 6t-43 16l42 130q11 -6 22.5 -10t24.5 -4q15 0 30 7t25 27l25 50l-231 510h165l140 -330h10l143 330h162zM324 760q-28 0 -53.5 10.5t-45 29t-31 44t-11.5 56.5h102q0 -16 10 -28t29 -12q17 0 27.5 12t10.5 28h101
q0 -31 -11 -56.5t-30 -44t-44.5 -29t-53.5 -10.5z" />
    <glyph glyph-name="uni040F" unicode="&#x40f;" horiz-adv-x="710" 
d="M280 -168v168h-208v716h156v-568h254v568h156v-716h-208v-168h-150z" />
    <glyph glyph-name="uni0410" unicode="&#x410;" horiz-adv-x="740" 
d="M280 716h180l268 -716h-172l-55 160h-262l-55 -160h-172zM451 302l-52 150l-24 88h-10l-24 -88l-52 -150h162z" />
    <glyph glyph-name="uni0411" unicode="&#x411;" horiz-adv-x="644" 
d="M355 444q53 0 100 -14t82 -41.5t55 -69t20 -95.5t-20 -96t-55 -70.5t-82 -43t-100 -14.5h-283v716h467v-142h-311v-130h127zM361 144q45 0 70 21t25 59t-23.5 59t-71.5 21h-133v-160h133z" />
    <glyph glyph-name="uni0412" unicode="&#x412;" horiz-adv-x="646" 
d="M72 716h291q48 0 89.5 -15t71.5 -40t47 -58.5t17 -69.5q0 -59 -28.5 -98t-67.5 -58v-10q57 -21 89.5 -64t32.5 -106q0 -46 -18.5 -82.5t-51 -62t-77 -39t-96.5 -13.5h-299v716zM348 432q42 0 65 19t23 54t-23 54t-61 19h-124v-146h120zM361 140q97 0 97 80t-101 80h-129
v-160h133z" />
    <glyph glyph-name="uni0413" unicode="&#x413;" horiz-adv-x="552" 
d="M72 716h456v-148h-300v-568h-156v716z" />
    <glyph glyph-name="uni0414" unicode="&#x414;" horiz-adv-x="811" 
d="M40 -152v300h96q30 66 43 163t13 206v199h501v-568h78v-300h-150v152h-431v-152h-150zM348 490q0 -95 -11.5 -183t-40.5 -159h241v420h-189v-78z" />
    <glyph glyph-name="uni0415" unicode="&#x415;" horiz-adv-x="596" 
d="M228 568v-136h284v-148h-284v-136h316v-148h-472v716h472v-148h-316z" />
    <glyph glyph-name="uni0416" unicode="&#x416;" horiz-adv-x="990" 
d="M573 0h-156v305h-10l-207 -305h-198v10l250 344l-233 352v10h189l199 -317h10v317h156v-317h10l199 317h189v-10l-233 -352l250 -344v-10h-198l-207 305h-10v-305z" />
    <glyph glyph-name="uni0417" unicode="&#x417;" horiz-adv-x="584" 
d="M293 -16q-96 0 -163.5 47.5t-93.5 137.5l140 55q12 -50 42 -75t75 -25q44 0 72.5 26t28.5 65q0 40 -33 66.5t-90 26.5h-55v126h50q21 0 40.5 5t34.5 15.5t24 27.5t9 40q0 32 -23.5 55t-65.5 23t-65.5 -22t-34.5 -51l-129 53q10 27 29 54.5t48 49t67.5 35t87.5 13.5
q53 0 96 -14.5t73 -40.5t46.5 -61.5t16.5 -77.5q0 -58 -21.5 -93t-56.5 -61v-10q45 -23 73.5 -66.5t28.5 -106.5q0 -43 -18 -82.5t-50.5 -69.5t-79 -47.5t-103.5 -17.5z" />
    <glyph glyph-name="uni0418" unicode="&#x418;" horiz-adv-x="728" 
d="M72 716h154v-330l-10 -138h10l266 468h164v-716h-154v304l10 138h-10l-250 -442h-180v716z" />
    <glyph glyph-name="uni0419" unicode="&#x419;" horiz-adv-x="728" 
d="M362 760q-28 0 -53.5 10.5t-45 29t-31 44t-11.5 56.5h102q0 -16 10 -28t29 -12q17 0 27.5 12t10.5 28h101q0 -31 -11 -56.5t-30 -44t-44.5 -29t-53.5 -10.5zM72 716h154v-330l-10 -138h10l266 468h164v-716h-154v304l10 138h-10l-250 -442h-180v716z" />
    <glyph glyph-name="uni041A" unicode="&#x41a;" horiz-adv-x="678" 
d="M72 716h156v-326h10l232 326h189v-10l-257 -348l276 -348v-10h-192l-248 310h-10v-310h-156v716z" />
    <glyph glyph-name="uni041B" unicode="&#x41b;" horiz-adv-x="740" 
d="M58 138q40 0 59 22q16 18 22.5 54.5t6.5 98.5v403h522v-716h-156v568h-210v-319q0 -142 -68 -206q-56 -51 -158 -51q-11 0 -27.5 2t-24.5 4v146q6 -3 16 -4.5t18 -1.5z" />
    <glyph glyph-name="uni041C" unicode="&#x41c;" horiz-adv-x="894" 
d="M72 716h154l204 -350h10l204 350h154v-716h-154v317l10 120h-10l-163 -285h-92l-163 285h-10l10 -120v-317h-154v716z" />
    <glyph glyph-name="uni041D" unicode="&#x41d;" horiz-adv-x="730" 
d="M72 716h156v-276h274v276h156v-716h-156v292h-274v-292h-156v716z" />
    <glyph glyph-name="uni041E" unicode="&#x41e;" horiz-adv-x="835" 
d="M414 -16q-81 0 -150 29t-119.5 79.5t-79 118.5t-28.5 147t28.5 147t79 118.5t119.5 79.5t150 29t150 -29t119.5 -79.5t79 -118.5t28.5 -147t-28.5 -147t-79 -118.5t-119.5 -79.5t-150 -29zM414 132q46 0 86.5 16t70.5 46t47 71.5t17 92.5t-17 92.5t-47 71.5t-70.5 46
t-86.5 16q-47 0 -87 -16t-70 -46t-47 -71.5t-17 -92.5t17 -92.5t47 -71.5t70 -46t87 -16z" />
    <glyph glyph-name="uni041F" unicode="&#x41f;" horiz-adv-x="710" 
d="M72 0v716h566v-716h-156v568h-254v-568h-156z" />
    <glyph glyph-name="uni0420" unicode="&#x420;" horiz-adv-x="606" 
d="M72 0v716h256q55 0 101.5 -17t80.5 -47.5t53 -73.5t19 -95t-19 -95t-53 -73.5t-80.5 -47.5t-101.5 -17h-100v-250h-156zM333 398q49 0 73 24t24 61t-24 61t-73 24h-105v-170h105z" />
    <glyph glyph-name="uni0421" unicode="&#x421;" horiz-adv-x="737" 
d="M701 116q-110 -132 -287 -132q-80 0 -149 29t-119.5 79.5t-79.5 118.5t-29 147t29 147t79.5 118.5t119.5 79.5t149 29q88 0 152.5 -30t117.5 -87l-109 -106q-28 32 -67 53.5t-93 21.5q-47 0 -87.5 -16t-70.5 -46t-47 -71.5t-17 -92.5t17 -92.5t47 -71.5t70.5 -46
t87.5 -16q57 0 99 23t76 66z" />
    <glyph glyph-name="uni0422" unicode="&#x422;" horiz-adv-x="610" 
d="M224 0v568h-200v148h556v-148h-200v-568h-156z" />
    <glyph glyph-name="uni0423" unicode="&#x423;" horiz-adv-x="644" 
d="M362 119q-34 -75 -80.5 -105t-105.5 -30q-33 0 -59 6t-43 16l42 130q11 -6 22.5 -10t24.5 -4q15 0 30 7t25 27l25 50l-231 510h165l140 -330h10l143 330h162z" />
    <glyph glyph-name="uni0424" unicode="&#x424;" horiz-adv-x="840" 
d="M342 -48v109q-69 10 -125.5 36t-96 64.5t-61.5 88.5t-22 108t22 108t61.5 88.5t96 64.5t125.5 36v109h156v-109q69 -10 125.5 -36t96 -64.5t61.5 -88.5t22 -108t-22 -108t-61.5 -88.5t-96 -64.5t-125.5 -36v-109h-156zM193 358q0 -61 39 -101.5t110 -55.5v314
q-71 -15 -110 -55.5t-39 -101.5zM647 358q0 61 -39 101.5t-110 55.5v-314q71 15 110 55.5t39 101.5z" />
    <glyph glyph-name="uni0425" unicode="&#x425;" horiz-adv-x="716" 
d="M248 376l-212 340h196l121 -214h10l121 214h196l-212 -340l232 -376h-198l-139 240h-10l-139 -240h-198z" />
    <glyph glyph-name="uni0426" unicode="&#x426;" horiz-adv-x="786" 
d="M72 716h156v-568h270v568h156v-568h92v-316h-150v168h-524v716z" />
    <glyph glyph-name="uni0427" unicode="&#x427;" horiz-adv-x="622" 
d="M414 716h156v-716h-156v302q-28 -21 -66 -31.5t-73 -10.5q-51 0 -94.5 16t-74.5 46.5t-48.5 74.5t-17.5 99v220h156v-194q0 -58 32 -86t77 -28q35 0 59 10t50 32v266z" />
    <glyph glyph-name="uni0428" unicode="&#x428;" horiz-adv-x="952" 
d="M72 716h156v-568h170v568h156v-568h170v568h156v-716h-808v716z" />
    <glyph glyph-name="uni0429" unicode="&#x429;" horiz-adv-x="998" 
d="M72 716h156v-568h170v568h156v-568h170v568h156v-568h78v-316h-150v168h-736v716z" />
    <glyph glyph-name="uni042A" unicode="&#x42a;" horiz-adv-x="793" 
d="M24 716h348v-236h116q55 0 104.5 -14.5t87 -44.5t59.5 -74.5t22 -104.5t-22 -105.5t-59.5 -75.5t-87 -45.5t-104.5 -15.5h-272v576h-192v140zM503 144q48 0 75 28t27 70t-27 70t-75 28h-131v-196h131z" />
    <glyph glyph-name="uni042B" unicode="&#x42b;" horiz-adv-x="902" 
d="M228 480h116q55 0 104.5 -14.5t87 -44.5t59.5 -74.5t22 -104.5t-22 -105.5t-59.5 -75.5t-87 -45.5t-104.5 -15.5h-272v716h156v-236zM359 144q48 0 75 28t27 70t-27 70t-75 28h-131v-196h131zM674 716h156v-716h-156v716z" />
    <glyph glyph-name="uni042C" unicode="&#x42c;" horiz-adv-x="649" 
d="M228 480h116q55 0 104.5 -14.5t87 -44.5t59.5 -74.5t22 -104.5t-22 -105.5t-59.5 -75.5t-87 -45.5t-104.5 -15.5h-272v716h156v-236zM359 144q48 0 75 28t27 70t-27 70t-75 28h-131v-196h131z" />
    <glyph glyph-name="uni042D" unicode="&#x42d;" horiz-adv-x="737" 
d="M235 425h305q-20 75 -77 117t-135 42q-54 0 -97 -21.5t-71 -53.5l-107 106q53 57 121 87t153 30q81 0 149 -29t118 -79.5t78 -118.5t28 -147t-28 -147t-78 -118.5t-118 -79.5t-149 -29q-86 0 -160.5 32.5t-130.5 99.5l109 105q34 -43 80 -66t103 -23q78 0 135 42t77 117
h-305v134z" />
    <glyph glyph-name="uni042E" unicode="&#x42e;" horiz-adv-x="1102" 
d="M688 -16q-72 0 -135 23t-112 64t-81.5 97.5t-43.5 123.5h-88v-292h-156v716h156v-276h91q13 63 46.5 116.5t82 92.5t109.5 61t131 22q81 0 150 -29t119.5 -79.5t79 -118.5t28.5 -147t-28.5 -147t-79 -118.5t-119.5 -79.5t-150 -29zM688 132q46 0 86.5 16t70.5 46t47 71.5
t17 92.5t-17 92.5t-47 71.5t-70.5 46t-86.5 16q-47 0 -87 -16t-70 -46t-47 -71.5t-17 -92.5t17 -92.5t47 -71.5t70 -46t87 -16z" />
    <glyph glyph-name="uni042F" unicode="&#x42f;" horiz-adv-x="664" 
d="M592 0h-156v258h-44l-181 -258h-178v10l187 267v9q-30 13 -56 32.5t-45.5 45t-31 55.5t-11.5 65q0 50 16.5 92.5t48 73.5t77.5 48.5t104 17.5h270v-716zM436 402v170h-114q-45 0 -67.5 -24.5t-22.5 -60.5t24 -60.5t66 -24.5h114z" />
    <glyph glyph-name="uni0430" unicode="&#x430;" horiz-adv-x="550" 
d="M350 44h-10q-24 -26 -54.5 -43t-78.5 -17q-37 0 -69.5 12t-57 34t-38.5 53t-14 69q0 37 15 67.5t41 52.5t61.5 34t77.5 12q45 0 74.5 -6t52.5 -14v13q0 32 -26.5 54.5t-71.5 22.5q-65 0 -112 -53l-102 72q42 50 97.5 74.5t122.5 24.5q120 0 181 -53.5t61 -162.5v-290
h-150v44zM350 193q-23 9 -45.5 14t-46.5 5q-40 0 -60 -16.5t-20 -42.5t19 -41.5t50 -15.5q25 0 44.5 8.5t32.5 22.5t19.5 31.5t6.5 34.5z" />
    <glyph glyph-name="uni0431" unicode="&#x431;" horiz-adv-x="616" 
d="M211 442q28 30 64.5 47t86.5 17q46 0 87.5 -21t72 -56.5t48.5 -83t18 -100.5q0 -57 -19.5 -105t-55 -82.5t-84 -54t-105.5 -19.5q-56 0 -105 19t-85 60t-57 104t-21 152q0 129 33 209.5t90 123.5q36 27 80 39.5t95 12.5q53 0 70.5 7t22.5 22h123q-4 -83 -56 -115
t-150 -32q-58 0 -98 -26q-56 -38 -65 -118h10zM324 124q23 0 43.5 8.5t36.5 24t25 38t9 50.5t-9 50t-25 38t-36.5 24.5t-43.5 8.5t-43.5 -8.5t-36.5 -24.5t-25 -38t-9 -50t9 -50.5t25 -38t36.5 -24t43.5 -8.5z" />
    <glyph glyph-name="uni0432" unicode="&#x432;" horiz-adv-x="526" 
d="M56 0v490h269q33 0 62 -10.5t50.5 -28t34 -41t12.5 -49.5q0 -39 -17 -64t-46 -39v-10q36 -17 58.5 -46t22.5 -68q0 -33 -15 -58.5t-38.5 -42t-52.5 -25t-58 -8.5h-282zM196 202v-90h123q23 0 36.5 12.5t13.5 32.5t-13.5 32.5t-36.5 12.5h-123zM196 384v-80h100
q17 0 30.5 11t13.5 29t-13.5 29t-30.5 11h-100z" />
    <glyph glyph-name="uni0433" unicode="&#x433;" horiz-adv-x="452" 
d="M428 490v-126h-222v-364h-150v490h372z" />
    <glyph glyph-name="uni0434" unicode="&#x434;" horiz-adv-x="664" 
d="M28 -152v282h64q8 16 15 39t12 49.5t8 55t3 55.5v161h434v-360h72v-282h-132v152h-344v-152h-132zM272 316q0 -49 -8 -96.5t-22 -89.5h180v230h-150v-44z" />
    <glyph glyph-name="uni0435" unicode="&#x435;" horiz-adv-x="566" 
d="M530 119q-36 -63 -94.5 -99t-141.5 -36q-57 0 -105.5 19.5t-84.5 54.5t-56 82.5t-20 104.5q0 53 20 100.5t55.5 83t83 56.5t103.5 21q61 0 107.5 -20t77.5 -54.5t47 -81t16 -99.5q0 -8 -0.5 -16t-1.5 -14q-1 -7 -1 -13h-361q11 -48 45 -70t76 -22t69.5 18t43.5 46z
M397 310q-2 12 -9.5 26t-21 25.5t-33 19t-43.5 7.5q-35 0 -65 -20t-44 -58h216z" />
    <glyph glyph-name="uni0436" unicode="&#x436;" horiz-adv-x="782" 
d="M466 490v-200h10l135 200h166v-10l-155 -221l164 -249v-10h-166l-144 224h-10v-224h-150v224h-10l-144 -224h-166v10l164 249l-155 221v10h166l135 -200h10v200h150z" />
    <glyph glyph-name="uni0437" unicode="&#x437;" horiz-adv-x="508" 
d="M254 506q43 0 79 -11t62 -30.5t41 -45t15 -53.5q0 -40 -14.5 -66t-41.5 -40v-10q37 -17 57 -46.5t20 -63.5q0 -74 -57.5 -115t-162.5 -41q-73 0 -123.5 25t-88.5 66l90 91q51 -60 122 -60q35 0 57 11.5t22 34.5q0 20 -19.5 33t-57.5 13h-75v104h75q31 0 49 12t18 35
q0 20 -19 31.5t-48 11.5q-71 0 -109 -49l-86 83q41 41 87 60.5t108 19.5z" />
    <glyph glyph-name="uni0438" unicode="&#x438;" horiz-adv-x="582" 
d="M526 0h-150v170l10 96h-10l-170 -266h-150v490h150v-170l-10 -96h10l170 266h150v-490z" />
    <glyph glyph-name="uni0439" unicode="&#x439;" horiz-adv-x="582" 
d="M526 0h-150v170l10 96h-10l-170 -266h-150v490h150v-170l-10 -96h10l170 266h150v-490zM299 561q-28 0 -53.5 10.5t-45 29t-31 44t-11.5 56.5h102q0 -16 10 -28t29 -12q17 0 27.5 12t10.5 28h101q0 -31 -11 -56.5t-30 -44t-44.5 -29t-53.5 -10.5z" />
    <glyph glyph-name="uni043A" unicode="&#x43a;" horiz-adv-x="534" 
d="M206 490v-204h10l137 204h174v-10l-155 -221l166 -249v-10h-174l-148 228h-10v-228h-150v490h150z" />
    <glyph glyph-name="uni043B" unicode="&#x43b;" horiz-adv-x="638" 
d="M107 -8q-17 0 -36 2t-30 6v131q10 -3 18.5 -4t13.5 -1q15 0 25.5 7t17.5 23.5t10.5 43.5t3.5 68v222h452v-490h-142v356h-170v-120q0 -69 -11.5 -115.5t-33 -75t-51.5 -41t-67 -12.5z" />
    <glyph glyph-name="uni043C" unicode="&#x43c;" horiz-adv-x="701" 
d="M52 0v490h179l115 -230h10l114 230h179v-490h-142v172l10 96h-10l-104 -204h-105l-104 204h-10l10 -96v-172h-142z" />
    <glyph glyph-name="uni043D" unicode="&#x43d;" horiz-adv-x="594" 
d="M388 0v181h-182v-181h-150v490h150v-169h182v169h150v-490h-150z" />
    <glyph glyph-name="uni043E" unicode="&#x43e;" horiz-adv-x="584" 
d="M292 506q57 0 105.5 -19.5t84 -54t55 -82.5t19.5 -105t-19.5 -105t-55 -82.5t-84 -54t-105.5 -19.5t-105.5 19.5t-84 54t-55 82.5t-19.5 105t19.5 105t55 82.5t84 54t105.5 19.5zM292 124q23 0 43.5 8.5t36.5 24t25 38t9 50.5t-9 50t-25 38t-36.5 24.5t-43.5 8.5
t-43.5 -8.5t-36.5 -24.5t-25 -38t-9 -50t9 -50.5t25 -38t36.5 -24t43.5 -8.5z" />
    <glyph glyph-name="uni043F" unicode="&#x43f;" horiz-adv-x="584" 
d="M528 490v-490h-150v350h-172v-350h-150v490h472z" />
    <glyph glyph-name="uni0440" unicode="&#x440;" horiz-adv-x="608" 
d="M192 436h10q17 29 52.5 49.5t89.5 20.5q47 0 90 -19t75.5 -53.5t51.5 -82.5t19 -106t-19 -106t-51.5 -82.5t-75.5 -53.5t-90 -19q-54 0 -89.5 20.5t-52.5 49.5h-10l10 -70v-200h-150v706h140v-54zM311 366q-24 0 -45.5 -8.5t-38 -24.5t-26 -38t-9.5 -50t9.5 -50.5t26 -38
t38 -24t45.5 -8.5t45.5 8.5t38 24t26 38t9.5 50.5t-9.5 50t-26 38t-38 24.5t-45.5 8.5z" />
    <glyph glyph-name="uni0441" unicode="&#x441;" horiz-adv-x="556" 
d="M532 125q-36 -66 -95.5 -103.5t-144.5 -37.5q-57 0 -105.5 19.5t-84 54t-55 82.5t-19.5 105t19.5 105t55 82.5t84 54t105.5 19.5q84 0 144.5 -37t89.5 -102l-138 -58q-16 29 -38.5 43t-57.5 14q-49 0 -81.5 -32.5t-32.5 -88.5t32.5 -88.5t81.5 -32.5q35 0 60 15.5
t42 45.5z" />
    <glyph glyph-name="uni0442" unicode="&#x442;" horiz-adv-x="472" 
d="M173 0v350h-149v140h448v-140h-149v-350h-150z" />
    <glyph glyph-name="uni0443" unicode="&#x443;" horiz-adv-x="581" 
d="M212 21l-208 469h173l113 -270h10l108 270h169l-307 -706h-164z" />
    <glyph glyph-name="uni0444" unicode="&#x444;" horiz-adv-x="770" 
d="M733 245q0 -53 -19.5 -97t-55.5 -76.5t-86.5 -53.5t-111.5 -29v-205h-150v205q-61 8 -111.5 29t-86.5 53.5t-55.5 76.5t-19.5 97t19.5 96.5t55.5 76.5t86.5 54t111.5 29v215h150v-215q61 -8 111.5 -29t86.5 -54t55.5 -76.5t19.5 -96.5zM183 245q0 -49 32.5 -81.5
t94.5 -44.5v252q-62 -13 -94.5 -45t-32.5 -81zM587 245q0 49 -32.5 81t-94.5 45v-252q62 12 94.5 44.5t32.5 81.5z" />
    <glyph glyph-name="uni0445" unicode="&#x445;" horiz-adv-x="535" 
d="M177 249l-168 241h180l74 -118h10l68 118h186l-172 -241l171 -249h-178l-77 119h-10l-75 -119h-178z" />
    <glyph glyph-name="uni0446" unicode="&#x446;" horiz-adv-x="624" 
d="M464 -152v152h-408v490h150v-356h172v356h150v-356h68v-286h-132z" />
    <glyph glyph-name="uni0447" unicode="&#x447;" horiz-adv-x="543" 
d="M272 294q15 0 32 3.5t33 11.5v181h150v-490h-150v171q-22 -6 -46 -9.5t-50 -3.5q-47 0 -85.5 13.5t-66 39.5t-42.5 64.5t-15 88.5v126h152v-111q0 -45 20.5 -65t67.5 -20z" />
    <glyph glyph-name="uni0448" unicode="&#x448;" horiz-adv-x="826" 
d="M56 0v490h146v-356h128v356h146v-356h128v356h146v-490h-694z" />
    <glyph glyph-name="uni0449" unicode="&#x449;" horiz-adv-x="866" 
d="M686 -152v152h-630v490h146v-356h128v356h146v-356h128v356h146v-356h68v-286h-132z" />
    <glyph glyph-name="uni044A" unicode="&#x44a;" horiz-adv-x="620" 
d="M24 490h266v-156h117q41 0 75.5 -11t60 -32.5t39.5 -52.5t14 -71t-14 -71t-39.5 -52.5t-60 -32.5t-75.5 -11h-257v378h-126v112zM290 222v-110h111q27 0 44.5 14t17.5 41t-17.5 41t-44.5 14h-111z" />
    <glyph glyph-name="uni044B" unicode="&#x44b;" horiz-adv-x="750" 
d="M56 0v490h140v-156h117q41 0 75.5 -11t60 -32.5t39.5 -52.5t14 -71t-14 -71t-39.5 -52.5t-60 -32.5t-75.5 -11h-257zM196 222v-110h111q27 0 44.5 14t17.5 41t-17.5 41t-44.5 14h-111zM554 0v490h140v-490h-140z" />
    <glyph glyph-name="uni044C" unicode="&#x44c;" horiz-adv-x="526" 
d="M56 0v490h140v-156h117q41 0 75.5 -11t60 -32.5t39.5 -52.5t14 -71t-14 -71t-39.5 -52.5t-60 -32.5t-75.5 -11h-257zM196 222v-110h111q27 0 44.5 14t17.5 41t-17.5 41t-44.5 14h-111z" />
    <glyph glyph-name="uni044D" unicode="&#x44d;" horiz-adv-x="544" 
d="M140 178q17 -35 46 -54.5t74 -19.5t75.5 22.5t42.5 66.5h-192v103h192q-12 44 -42.5 67t-75.5 23q-38 0 -69 -19t-46 -48l-115 47q29 65 87.5 102.5t142.5 37.5q57 0 104.5 -19.5t81 -54t52 -82.5t18.5 -105t-18.5 -105t-52 -82.5t-81 -54t-104.5 -19.5q-85 0 -145.5 38
t-90.5 104z" />
    <glyph glyph-name="uni044E" unicode="&#x44e;" horiz-adv-x="835" 
d="M543 506q57 0 105.5 -19.5t84 -54t55 -82.5t19.5 -105t-19.5 -105t-55 -82.5t-84 -54t-105.5 -19.5q-49 0 -91.5 14t-76 40t-56.5 62.5t-33 80.5h-72v-181h-150v490h150v-169h75q11 42 34.5 76t56.5 58t74.5 37.5t88.5 13.5zM543 124q23 0 43.5 8.5t36.5 24t25 38t9 50.5
t-9 50t-25 38t-36.5 24.5t-43.5 8.5t-43.5 -8.5t-36.5 -24.5t-25 -38t-9 -50t9 -50.5t25 -38t36.5 -24t43.5 -8.5z" />
    <glyph glyph-name="uni044F" unicode="&#x44f;" horiz-adv-x="516" 
d="M0 0v10l115 159l-3 9q-44 20 -71 59t-27 90q0 37 15 67.5t41 51.5t60 32.5t73 11.5h257v-490h-140v158h-54l-110 -158h-156zM154 324q0 -27 18.5 -40.5t45.5 -13.5h102v108h-102q-27 0 -45.5 -13.5t-18.5 -40.5z" />
    <glyph glyph-name="uni0450" unicode="&#x450;" horiz-adv-x="562" 
d="M530 119q-36 -63 -94.5 -99t-141.5 -36q-57 0 -105.5 19.5t-84.5 54.5t-56 82.5t-20 104.5q0 53 20 100.5t55.5 83t83 56.5t103.5 21q61 0 107.5 -20t77.5 -54.5t47 -81t16 -99.5q0 -8 -0.5 -16t-1.5 -14q-1 -7 -1 -13h-361q11 -48 45 -70t76 -22t69.5 18t43.5 46z
M397 310q-2 12 -9.5 26t-21 25.5t-33 19t-43.5 7.5q-35 0 -65 -20t-44 -58h216zM225 588l-98 140h179l37 -140h-118z" />
    <glyph glyph-name="uni0451" unicode="&#x451;" horiz-adv-x="562" 
d="M530 119q-36 -63 -94.5 -99t-141.5 -36q-57 0 -105.5 19.5t-84.5 54.5t-56 82.5t-20 104.5q0 53 20 100.5t55.5 83t83 56.5t103.5 21q61 0 107.5 -20t77.5 -54.5t47 -81t16 -99.5q0 -8 -0.5 -16t-1.5 -14q-1 -7 -1 -13h-361q11 -48 45 -70t76 -22t69.5 18t43.5 46z
M397 310q-2 12 -9.5 26t-21 25.5t-33 19t-43.5 7.5q-35 0 -65 -20t-44 -58h216zM101 659q0 33 23 56t56 23t56 -23t23 -56t-23 -56t-56 -23t-56 23t-23 56zM303 659q0 33 23 56t56 23t56 -23t23 -56t-23 -56t-56 -23t-56 23t-23 56z" />
    <glyph glyph-name="uni0452" unicode="&#x452;" 
d="M56 558h-55v100h55v58h150v-58h130v-100h-130v-30l-10 -100h10q23 36 61 57t86 21q93 0 139 -56t46 -158v-334q0 -51 -14 -86t-37.5 -57t-53.5 -31.5t-63 -9.5q-30 0 -53 4t-43 12l38 132q17 -10 37 -10q39 0 39 50v313q0 40 -19 65.5t-59 25.5q-51 0 -77.5 -39
t-26.5 -102v-225h-150v558z" />
    <glyph glyph-name="uni0453" unicode="&#x453;" horiz-adv-x="432" 
d="M428 490v-126h-222v-364h-150v490h372zM166 588l37 140h179l-98 -140h-118z" />
    <glyph glyph-name="uni0454" unicode="&#x454;" horiz-adv-x="544" 
d="M520 126q-30 -66 -89 -104t-144 -38q-57 0 -105 19.5t-82 54t-53 82.5t-19 105t20 105t54.5 82.5t82 54t102.5 19.5q84 0 141 -37.5t86 -102.5l-115 -47q-15 29 -44.5 48t-67.5 19q-45 0 -76.5 -23t-44.5 -67h192v-103h-192q13 -44 44.5 -66.5t76.5 -22.5t72.5 19.5
t44.5 54.5z" />
    <glyph glyph-name="uni0455" unicode="&#x455;" horiz-adv-x="497" 
d="M258 -16q-51 0 -90 12t-67.5 31.5t-47.5 45t-29 51.5l135 57q14 -34 39 -49.5t60 -15.5q30 0 46.5 9.5t16.5 24.5q0 17 -16 26.5t-51 17.5l-67 14q-24 5 -49 16t-46 29t-34 42.5t-13 56.5q0 35 15.5 63.5t42.5 48.5t64 31t81 11q76 0 131 -26.5t83 -88.5l-129 -53
q-13 26 -36.5 38t-47.5 12q-26 0 -42 -9t-16 -22q0 -14 16.5 -22.5t40.5 -14.5l76 -18q75 -18 112 -58t37 -94q0 -33 -15.5 -63t-44 -53t-68 -36.5t-87.5 -13.5z" />
    <glyph glyph-name="uni0456" unicode="&#x456;" horiz-adv-x="278" 
d="M139 544q-20 0 -37 7.5t-29.5 20t-20 29.5t-7.5 37q0 19 7.5 36.5t20 30t29.5 20t37 7.5q19 0 36.5 -7.5t30 -20t20 -30t7.5 -36.5q0 -20 -7.5 -37t-20 -29.5t-30 -20t-36.5 -7.5zM64 0v490h150v-490h-150z" />
    <glyph glyph-name="uni0457" unicode="&#x457;" horiz-adv-x="278" 
d="M-28 659q0 31 22 53t53 22t53 -22t22 -53t-22 -53t-53 -22t-53 22t-22 53zM156 659q0 31 22 53t53 22t53 -22t22 -53t-22 -53t-53 -22t-53 22t-22 53zM64 0v490h150v-490h-150z" />
    <glyph glyph-name="uni0458" unicode="&#x458;" horiz-adv-x="278" 
d="M-12 -78q17 -10 37 -10q39 0 39 50v528h150v-532q0 -51 -14 -86t-37.5 -57t-53.5 -31.5t-63 -9.5q-30 0 -53 4t-43 12zM139 544q-20 0 -37 7.5t-29.5 20t-20 29.5t-7.5 37q0 19 7.5 36.5t20 30t29.5 20t37 7.5q19 0 36.5 -7.5t30 -20t20 -30t7.5 -36.5q0 -20 -7.5 -37
t-20 -29.5t-30 -20t-36.5 -7.5z" />
    <glyph glyph-name="uni0459" unicode="&#x459;" horiz-adv-x="906" 
d="M107 -8q-17 0 -36 2t-30 6v131q10 -3 18.5 -4t13.5 -1q15 0 25.5 7t17.5 23.5t10.5 43.5t3.5 68v222h452v-164h111q41 0 75.5 -11t60 -32t39.5 -51t14 -69t-14 -69t-39.5 -51t-60 -32t-75.5 -11h-253v356h-170v-120q0 -69 -11.5 -115.5t-33 -75t-51.5 -41t-67 -12.5z
M582 214v-102h105q27 0 44.5 13t17.5 38t-17.5 38t-44.5 13h-105z" />
    <glyph glyph-name="uni045A" unicode="&#x45a;" horiz-adv-x="902" 
d="M388 0v214h-182v-214h-150v490h150v-164h182v164h150v-164h151q41 0 75.5 -11t60 -32t39.5 -51t14 -69t-14 -69t-39.5 -51t-60 -32t-75.5 -11h-301zM538 214v-102h145q27 0 44.5 13t17.5 38t-17.5 38t-44.5 13h-145z" />
    <glyph glyph-name="uni045B" unicode="&#x45b;" 
d="M56 558h-55v100h55v58h150v-58h130v-100h-130v-30l-10 -100h10q23 36 61 57t86 21q93 0 139 -56t46 -158v-292h-150v275q0 40 -19 65.5t-59 25.5q-51 0 -77.5 -39t-26.5 -102v-225h-150v558z" />
    <glyph glyph-name="uni045C" unicode="&#x45c;" horiz-adv-x="534" 
d="M206 490v-204h10l137 204h174v-10l-155 -221l166 -249v-10h-174l-148 228h-10v-228h-150v490h150zM212 588l37 140h179l-98 -140h-118z" />
    <glyph glyph-name="uni045D" unicode="&#x45d;" horiz-adv-x="582" 
d="M526 0h-150v170l10 96h-10l-170 -266h-150v490h150v-170l-10 -96h10l170 266h150v-490zM242 588l-98 140h179l37 -140h-118z" />
    <glyph glyph-name="uni045E" unicode="&#x45e;" horiz-adv-x="581" 
d="M212 21l-208 469h173l113 -270h10l108 270h169l-307 -706h-164zM294 576q-28 0 -53.5 10.5t-45 29t-31 44t-11.5 56.5h102q0 -16 10 -28t29 -12q17 0 27.5 12t10.5 28h101q0 -31 -11 -56.5t-30 -44t-44.5 -29t-53.5 -10.5z" />
    <glyph glyph-name="uni045F" unicode="&#x45f;" horiz-adv-x="584" 
d="M226 -152v152h-170v490h150v-350h172v350h150v-490h-170v-152h-132z" />
    <glyph glyph-name="uni0490" unicode="&#x490;" horiz-adv-x="568" 
d="M72 716h316v129h156v-277h-316v-568h-156v716z" />
    <glyph glyph-name="uni0491" unicode="&#x491;" horiz-adv-x="452" 
d="M302 490v112h126v-238h-222v-364h-150v490h246z" />
    <glyph glyph-name="uni04B0" unicode="&#x4b0;" horiz-adv-x="658" 
d="M253 256h-171v112h149l-219 348h188l126 -210h10l120 210h190l-216 -348h150v-112h-171v-256h-156v256z" />
    <glyph glyph-name="uni04B1" unicode="&#x4b1;" horiz-adv-x="562" 
d="M355 0v-216h-150v216h-140v100h99l-15 37l-145 353h170l107 -292l109 292h168l-147 -353l-15 -37h99v-100h-140z" />
    <glyph glyph-name="Wgrave" unicode="&#x1e80;" horiz-adv-x="970" 
d="M16 716h166l99 -375l17 -86h10l21 86l87 279h146l88 -279l20 -84h10l15 84l93 375h166l-189 -716h-148l-102 314l-21 86h-10l-21 -86l-102 -314h-148zM424 772l-98 140h179l37 -140h-118z" />
    <glyph glyph-name="wgrave" unicode="&#x1e81;" horiz-adv-x="830" 
d="M4 490h172l67 -276h10l87 276h154l86 -276h10l66 276h170l-156 -490h-164l-87 276h-10l-86 -276h-163zM353 588l-98 140h179l37 -140h-118z" />
    <glyph glyph-name="Wacute" unicode="&#x1e82;" horiz-adv-x="970" 
d="M16 716h166l99 -375l17 -86h10l21 86l87 279h146l88 -279l20 -84h10l15 84l93 375h166l-189 -716h-148l-102 314l-21 86h-10l-21 -86l-102 -314h-148zM437 772l37 140h179l-98 -140h-118z" />
    <glyph glyph-name="wacute" unicode="&#x1e83;" horiz-adv-x="830" 
d="M4 490h172l67 -276h10l87 276h154l86 -276h10l66 276h170l-156 -490h-164l-87 276h-10l-86 -276h-163zM361 588l37 140h179l-98 -140h-118z" />
    <glyph glyph-name="Wdieresis" unicode="&#x1e84;" horiz-adv-x="970" 
d="M16 716h166l99 -375l17 -86h10l21 86l87 279h146l88 -279l20 -84h10l15 84l93 375h166l-189 -716h-148l-102 314l-21 86h-10l-21 -86l-102 -314h-148zM309 843q0 33 23 56t56 23t56 -23t23 -56t-23 -56t-56 -23t-56 23t-23 56zM511 843q0 33 23 56t56 23t56 -23t23 -56
t-23 -56t-56 -23t-56 23t-23 56z" />
    <glyph glyph-name="wdieresis" unicode="&#x1e85;" horiz-adv-x="830" 
d="M4 490h172l67 -276h10l87 276h154l86 -276h10l66 276h170l-156 -490h-164l-87 276h-10l-86 -276h-163zM234 659q0 33 23 56t56 23t56 -23t23 -56t-23 -56t-56 -23t-56 23t-23 56zM436 659q0 33 23 56t56 23t56 -23t23 -56t-23 -56t-56 -23t-56 23t-23 56z" />
    <glyph glyph-name="Ygrave" unicode="&#x1ef2;" horiz-adv-x="658" 
d="M253 333l-241 383h188l126 -210h10l120 210h190l-237 -383v-333h-156v333zM272 772l-98 140h179l37 -140h-118z" />
    <glyph glyph-name="ygrave" unicode="&#x1ef3;" horiz-adv-x="581" 
d="M212 21l-208 469h173l113 -270h10l108 270h169l-307 -706h-164zM231 588l-98 140h179l37 -140h-118z" />
    <glyph glyph-name="endash" unicode="&#x2013;" horiz-adv-x="620" 
d="M56 378h508v-136h-508v136z" />
    <glyph glyph-name="emdash" unicode="&#x2014;" horiz-adv-x="930" 
d="M56 378h818v-136h-818v136z" />
    <glyph glyph-name="quoteleft" unicode="&#x2018;" horiz-adv-x="288" 
d="M237 688l-52 -79q25 -11 40 -34.5t15 -52.5q0 -40 -28 -68t-68 -28t-68 28t-28 68q0 18 5.5 32t17.5 31l99 147z" />
    <glyph glyph-name="quoteright" unicode="&#x2019;" horiz-adv-x="288" 
d="M51 470l52 79q-25 11 -40 34.5t-15 52.5q0 40 28 68t68 28t68 -28t28 -68q0 -18 -5.5 -32t-17.5 -31l-99 -147z" />
    <glyph glyph-name="quotesinglbase" unicode="&#x201a;" horiz-adv-x="288" 
d="M51 -79l52 79q-25 11 -40 34.5t-15 52.5q0 40 28 68t68 28t68 -28t28 -68q0 -18 -5.5 -32t-17.5 -31l-99 -147z" />
    <glyph glyph-name="quotedblleft" unicode="&#x201c;" horiz-adv-x="528" 
d="M237 688l-52 -79q25 -11 40 -34.5t15 -52.5q0 -40 -28 -68t-68 -28t-68 28t-28 68q0 18 5.5 32t17.5 31l99 147zM477 688l-52 -79q25 -11 40 -34.5t15 -52.5q0 -40 -28 -68t-68 -28t-68 28t-28 68q0 18 5.5 32t17.5 31l99 147z" />
    <glyph glyph-name="quotedblright" unicode="&#x201d;" horiz-adv-x="528" 
d="M51 470l52 79q-25 11 -40 34.5t-15 52.5q0 40 28 68t68 28t68 -28t28 -68q0 -18 -5.5 -32t-17.5 -31l-99 -147zM291 470l52 79q-25 11 -40 34.5t-15 52.5q0 40 28 68t68 28t68 -28t28 -68q0 -18 -5.5 -32t-17.5 -31l-99 -147z" />
    <glyph glyph-name="quotedblbase" unicode="&#x201e;" horiz-adv-x="514" 
d="M51 -78l52 79q-25 11 -40 34.5t-15 52.5q0 40 28 68t68 28t68 -28t28 -68q0 -18 -5.5 -32t-17.5 -31l-99 -147zM277 -78l52 79q-25 11 -40 34.5t-15 52.5q0 40 28 68t68 28t68 -28t28 -68q0 -18 -5.5 -32t-17.5 -31l-99 -147z" />
    <glyph glyph-name="bullet" unicode="&#x2022;" horiz-adv-x="432" 
d="M216 188q-28 0 -53 10.5t-43.5 29t-29 43.5t-10.5 53t10.5 53t29 43.5t43.5 29t53 10.5t53 -10.5t43.5 -29t29 -43.5t10.5 -53t-10.5 -53t-29 -43.5t-43.5 -29t-53 -10.5z" />
    <glyph glyph-name="ellipsis" unicode="&#x2026;" horiz-adv-x="776" 
d="M144 -6q-40 0 -68 28t-28 68t28 68t68 28t68 -28t28 -68t-28 -68t-68 -28zM388 -6q-40 0 -68 28t-28 68t28 68t68 28t68 -28t28 -68t-28 -68t-68 -28zM632 -6q-40 0 -68 28t-28 68t28 68t68 28t68 -28t28 -68t-28 -68t-68 -28z" />
    <glyph glyph-name="guilsinglleft" unicode="&#x2039;" horiz-adv-x="402" 
d="M342 114l-85 -78l-217 235l217 235l85 -78l-145 -157z" />
    <glyph glyph-name="guilsinglright" unicode="&#x203a;" horiz-adv-x="402" 
d="M60 428l85 78l217 -235l-217 -235l-85 78l145 157z" />
    <glyph glyph-name="fraction" unicode="&#x2044;" horiz-adv-x="203" 
d="M-176 41l465 694l90 -61l-465 -694z" />
    <glyph glyph-name="uni2074" unicode="&#x2074;" horiz-adv-x="370" 
d="M28 484l169 232h98v-224h47v-80h-47v-62h-94v62h-173v72zM201 492v96h-10l-68 -96h78z" />
    <glyph glyph-name="uni20A3" unicode="&#x20a3;" horiz-adv-x="580" 
d="M90 114h-66v76h66v494h454v-130h-316v-155h284v-130h-284v-79h124v-76h-124v-114h-138v114z" />
    <glyph glyph-name="uni20A4" unicode="&#x20a4;" horiz-adv-x="562" 
d="M260 326q4 -11 7 -23t5 -26h101v-76h-107q-6 -21 -16.5 -35.5t-24.5 -25.5l6 -10h135q52 0 66 60l114 -50q-17 -66 -59 -103t-118 -37h-322v119q33 12 54.5 34.5t31.5 47.5h-101v76h102q-3 13 -7.5 25t-9.5 24h-85v76h47q-8 20 -13.5 42.5t-5.5 51.5q0 42 16 79t45 64.5
t69.5 44t89.5 16.5q48 0 85 -12.5t63.5 -33t43.5 -48t26 -57.5l-131 -53q-6 28 -27 51t-60 23q-36 0 -58 -22.5t-22 -57.5q0 -26 6.5 -47t16.5 -41h150v-76h-113z" />
    <glyph glyph-name="uni20A9" unicode="&#x20a9;" horiz-adv-x="1017" 
d="M894 326l-83 -326h-163l-95 326h-86l-100 -326h-152l-87 326h-96v76h77l-75 282h168l69 -282h69l92 282h156l91 -282h69l69 282h168l-72 -282h64v-76h-83zM490 402h41l-15 95h-10zM306 262l13 64h-32l9 -64h10zM722 264l10 62h-32l12 -62h10z" />
    <glyph glyph-name="uni20AB" unicode="&#x20ab;" horiz-adv-x="597" 
d="M408 54h-10q-17 -29 -50.5 -49.5t-87.5 -20.5q-45 0 -87 18t-74 51t-51.5 79.5t-19.5 104.5t19.5 104.5t51.5 79.5t74 51t87 18q54 0 87.5 -20.5t50.5 -49.5h10l-10 70v48h-140v76h140v70h150v-70h57v-76h-57v-538h-140v54zM55 -84h493v-106h-493v106zM293 124
q24 0 44.5 7.5t36.5 22t25 35.5t9 48t-9 48t-25 35.5t-36.5 22t-44.5 7.5t-44.5 -7.5t-36.5 -22t-25 -35.5t-9 -48t9 -48t25 -35.5t36.5 -22t44.5 -7.5z" />
    <glyph glyph-name="Euro" unicode="&#x20ac;" horiz-adv-x="665" 
d="M24 474h101q18 50 50 91.5t75.5 71.5t97 46.5t114.5 16.5q46 0 85.5 -11t79.5 -35l-70 -122q-38 26 -93 26q-53 0 -97.5 -22.5t-73.5 -61.5h189v-104h-229q-1 -7 -1 -14v-14v-14q0 -7 1 -14h229v-104h-189q29 -40 73.5 -62t97.5 -22q39 0 65.5 9.5t49.5 24.5l62 -129
q-45 -26 -88 -36.5t-91 -10.5q-61 0 -114.5 16.5t-97 46.5t-75.5 71.5t-50 91.5h-101v104h79q-1 7 -1 14v14v14t1 14h-79v104z" />
    <glyph glyph-name="uni20AE" unicode="&#x20ae;" horiz-adv-x="572" 
d="M102 297l115 72v185h-193v130h524v-130h-193v-104l105 66h10v-118l-115 -72v-36l115 73v-124l-115 -73v-166h-138v85l-105 -65h-10v117l115 72v36l-115 -72v124z" />
    <glyph glyph-name="uni20B1" unicode="&#x20b1;" horiz-adv-x="672" 
d="M596 430q-12 -86 -76 -132t-160 -46h-122v-252h-138v430h-76v76h76v178h260q96 0 160 -46t76 -132h60v-76h-60zM238 506h220q-10 23 -32.5 35.5t-54.5 12.5h-133v-48zM371 382q32 0 54.5 12.5t32.5 35.5h-220v-48h133z" />
    <glyph glyph-name="uni20B8" unicode="&#x20b8;" horiz-adv-x="572" 
d="M217 0v376h-193v130h524v-130h-193v-376h-138zM24 554v130h524v-130h-524z" />
    <glyph glyph-name="uni20B9" unicode="&#x20b9;" horiz-adv-x="594" 
d="M24 506h341q-10 23 -32.5 35.5t-54.5 12.5h-254v130h546v-76h-111q35 -41 44 -102h67v-76h-67q-6 -38 -23 -68.5t-41.5 -52.5t-55 -36t-63.5 -19v-10l228 -234v-10h-196l-249 254v128h175q32 0 54.5 12.5t32.5 35.5h-341v76z" />
    <glyph glyph-name="uni20BA" unicode="&#x20ba;" horiz-adv-x="556" 
d="M24 398l111 69v217h138v-136l119 75v-124l-119 -75v-66l119 76v-124l-119 -76v-110q28 4 51.5 16.5t40 30.5t25.5 41t9 49h133q0 -55 -19.5 -102.5t-55 -83t-84 -55.5t-107.5 -20h-131v153l-111 -69v124l111 69v66l-111 -69v124z" />
    <glyph glyph-name="uni20BD" unicode="&#x20bd;" horiz-adv-x="623" 
d="M100 0v114h-76v76h76v62h-76v130h76v302h260q53 0 97 -14t75.5 -41.5t49 -68t17.5 -92.5t-17.5 -92.5t-49 -68t-75.5 -41.5t-97 -14h-122v-62h129v-76h-129v-114h-138zM371 382q43 0 68.5 23t25.5 63t-25.5 63t-68.5 23h-133v-172h133z" />
    <glyph glyph-name="uni2116" unicode="&#x2116;" horiz-adv-x="1101" 
d="M756 238v92h280v-92h-280zM72 716h180l258 -442h10l-10 138v304h154v-716h-164l-274 468h-10l10 -138v-330h-154v716zM896 732q38 0 69.5 -13.5t54.5 -36.5t36 -54t13 -67t-13 -67t-36 -54t-54.5 -36.5t-69.5 -13.5t-69.5 13.5t-54.5 36.5t-36 54t-13 67t13 67t36 54
t54.5 36.5t69.5 13.5zM896 486q29 0 49.5 20t20.5 55t-20.5 55t-49.5 20q-28 0 -49 -20t-21 -55t21 -55t49 -20z" />
    <glyph glyph-name="minus" unicode="&#x2212;" horiz-adv-x="578" 
d="M56 339h466v-136h-466v136z" />
    <glyph glyph-name="uni2215" unicode="&#x2215;" horiz-adv-x="501" 
d="M27 0l297 716h150l-297 -716h-150z" />
    <glyph glyph-name="uniF8FF" horiz-adv-x="1000" 
d="M891 451q4 -21 5.5 -42t1.5 -44q0 -89 -28.5 -163.5t-81 -128.5t-126 -84t-163.5 -30q-86 0 -162 32.5t-132.5 89t-89 132.5t-32.5 162t32.5 162t89 132.5t132.5 89t162 32.5q85 0 154.5 -28.5t123.5 -79.5l-119 -120q-65 62 -159 62q-51 0 -96 -20t-78 -54t-52.5 -79.5
t-19.5 -96.5t19.5 -96.5t52.5 -80t78 -54.5t96 -20q46 0 84 12.5t67 34.5t47.5 52.5t25.5 66.5h-224v161h392z" />
    <glyph glyph-name="one.numerator" horiz-adv-x="287" 
d="M129 350v252l-68 -30l-37 85l129 59h74v-366h-98z" />
    <glyph glyph-name="two.denominator" horiz-adv-x="324" 
d="M29 0v65l125 125q20 20 30 33.5t10 31.5q0 12 -9.5 22.5t-25.5 10.5q-18 0 -30.5 -11.5t-16.5 -35.5l-88 34q11 45 47.5 72t87.5 27q61 0 98 -30.5t37 -77.5q0 -18 -6.5 -35t-16 -31.5t-20 -26.5t-19.5 -21l-66 -66h130v-86h-267z" />
    <glyph glyph-name="two.numerator" horiz-adv-x="324" 
d="M29 350v65l125 125q20 20 30 33.5t10 31.5q0 12 -9.5 22.5t-25.5 10.5q-18 0 -30.5 -11.5t-16.5 -35.5l-88 34q11 45 47.5 72t87.5 27q61 0 98 -30.5t37 -77.5q0 -18 -6.5 -35t-16 -31.5t-20 -26.5t-19.5 -21l-66 -66h130v-86h-267z" />
    <glyph glyph-name="three.numerator" horiz-adv-x="341" 
d="M169 342q-50 0 -90.5 24t-54.5 77l92 33q5 -28 20 -39t33 -11q17 0 29.5 10.5t12.5 28.5q0 17 -15 27t-40 10h-37v76h33q23 0 36 8t13 25q0 14 -10 21.5t-24 7.5q-20 0 -32 -10t-16 -24l-86 35q13 36 47 59.5t90 23.5q28 0 51.5 -8.5t40 -22.5t25.5 -32.5t9 -37.5
q0 -24 -9.5 -43.5t-32.5 -36.5q23 -12 39 -34.5t16 -49.5q0 -28 -11.5 -49.5t-31 -36.5t-45 -23t-52.5 -8z" />
    <glyph glyph-name="four.denominator" horiz-adv-x="370" 
d="M28 134l169 232h98v-224h47v-80h-47v-62h-94v62h-173v72zM201 142v96h-10l-68 -96h78z" />
    <glyph glyph-name="four.numerator" horiz-adv-x="370" 
d="M28 484l169 232h98v-224h47v-80h-47v-62h-94v62h-173v72zM201 492v96h-10l-68 -96h78z" />
    <glyph glyph-name="r.alt" horiz-adv-x="421" 
d="M56 490h140v-62h10q20 32 57 54t82 22q19 0 30.5 -1t21.5 -6v-145q-12 6 -27.5 10t-37.5 4q-60 0 -93 -37.5t-33 -103.5v-225h-150v490z" />
    <glyph glyph-name="uni03BC" 
d="M192 0l10 -69v-147h-150v706h150v-275q0 -40 21 -65.5t57 -25.5q51 0 77.5 39t26.5 102v225h150v-490h-140v47h-10q-42 -63 -115 -63q-20 0 -37 4.5t-30 11.5h-10z" />
    <glyph glyph-name="uni2103" horiz-adv-x="967" 
d="M931 110q-104 -126 -274 -126q-77 0 -143 27.5t-114.5 76t-76.5 114t-28 140.5t28 140.5t76.5 114t114.5 76t143 27.5q84 0 145.5 -29t112.5 -83l-104 -102q-27 30 -64.5 51t-89.5 21q-45 0 -83.5 -15.5t-67 -44t-45 -68t-16.5 -88.5t16.5 -89t45 -68.5t67 -44
t83.5 -15.5q54 0 95 22t73 64zM163 442q-27 0 -51 10t-41.5 27.5t-28 41t-10.5 50.5t10.5 50.5t28 41t41.5 27.5t51 10t50.5 -10t41 -27.5t28 -41t10.5 -50.5t-10.5 -50.5t-28 -41t-41 -27.5t-50.5 -10zM163 526q20 0 32 13.5t12 31.5q0 19 -12 32t-32 13t-32.5 -13
t-12.5 -32q0 -18 12.5 -31.5t32.5 -13.5z" />
    <glyph glyph-name="uni2109" horiz-adv-x="843" 
d="M360 684h451v-142h-301v-137h271v-142h-271v-263h-150v684zM163 442q-27 0 -51 10t-41.5 27.5t-28 41t-10.5 50.5t10.5 50.5t28 41t41.5 27.5t51 10t50.5 -10t41 -27.5t28 -41t10.5 -50.5t-10.5 -50.5t-28 -41t-41 -27.5t-50.5 -10zM163 526q20 0 32 13.5t12 31.5
q0 19 -12 32t-32 13t-32.5 -13t-12.5 -32q0 -18 12.5 -31.5t32.5 -13.5z" />
    <glyph glyph-name="uni2190" horiz-adv-x="1143" 
d="M308 50l-260 260l260 260v-186h779v-148h-779v-186z" />
    <glyph glyph-name="uni2191" horiz-adv-x="600" 
d="M40 582l260 260l260 -260h-186v-740h-148v740h-186z" />
    <glyph glyph-name="uni2192" horiz-adv-x="1143" 
d="M835 236h-779v148h779v186l260 -260l-260 -260v186z" />
    <glyph glyph-name="uni2193" horiz-adv-x="600" 
d="M226 82v740h148v-740h186l-260 -260l-260 260h186z" />
    <glyph glyph-name="uni2196" horiz-adv-x="802" 
d="M40 368v368h368l-132 -132l526 -522l-105 -105l-525 523z" />
    <glyph glyph-name="uni2197" horiz-adv-x="802" 
d="M630 500l-525 -523l-105 105l526 522l-132 132h368v-368z" />
    <glyph glyph-name="uni2198" horiz-adv-x="802" 
d="M172 216l525 523l105 -105l-526 -522l132 -132h-368v368z" />
    <glyph glyph-name="uni2199" horiz-adv-x="802" 
d="M762 348v-368h-368l132 132l-526 522l105 105l525 -523z" />
    <glyph glyph-name="uni2639" horiz-adv-x="836" 
d="M287 395q-23 0 -39.5 16.5t-16.5 40.5q0 23 16.5 39t39.5 16t39.5 -16t16.5 -39q0 -24 -16.5 -40.5t-39.5 -16.5zM549 395q-23 0 -39.5 16.5t-16.5 40.5q0 23 16.5 39t39.5 16t39.5 -16t16.5 -39q0 -24 -16.5 -40.5t-39.5 -16.5zM418 -16q-77 0 -145 29.5t-119 80.5
t-80.5 119t-29.5 145t29.5 145t80.5 119t119 80.5t145 29.5t145 -29.5t119 -80.5t80.5 -119t29.5 -145t-29.5 -145t-80.5 -119t-119 -80.5t-145 -29.5zM418 48q64 0 120.5 24.5t98.5 67t66.5 99t24.5 119.5q0 64 -24.5 120.5t-66.5 98.5t-98.5 66.5t-120.5 24.5
q-63 0 -119.5 -24.5t-99 -66.5t-67 -98.5t-24.5 -120.5q0 -63 24.5 -119.5t67 -99t99 -67t119.5 -24.5zM418 301q63 0 113 -32.5t74 -86.5l-67 -31q-17 35 -49.5 55t-70.5 20t-70.5 -20t-48.5 -55l-68 31q24 54 74 86.5t113 32.5z" />
    <glyph glyph-name="uni263A" horiz-adv-x="836" 
d="M549 395q-23 0 -39.5 16.5t-16.5 40.5q0 23 16.5 39t39.5 16t39.5 -16t16.5 -39q0 -24 -16.5 -40.5t-39.5 -16.5zM287 395q-23 0 -39.5 16.5t-16.5 40.5q0 23 16.5 39t39.5 16t39.5 -16t16.5 -39q0 -24 -16.5 -40.5t-39.5 -16.5zM418 152q-63 0 -113 32.5t-74 86.5l68 31
q16 -35 48.5 -55t70.5 -20t70.5 20t49.5 55l67 -31q-24 -54 -74 -86.5t-113 -32.5zM418 -16q-77 0 -145 29.5t-119 80.5t-80.5 119t-29.5 145t29.5 145t80.5 119t119 80.5t145 29.5t145 -29.5t119 -80.5t80.5 -119t29.5 -145t-29.5 -145t-80.5 -119t-119 -80.5t-145 -29.5z
M418 48q64 0 120.5 24.5t98.5 67t66.5 99t24.5 119.5q0 64 -24.5 120.5t-66.5 98.5t-98.5 66.5t-120.5 24.5q-63 0 -119.5 -24.5t-99 -66.5t-67 -98.5t-24.5 -120.5q0 -63 24.5 -119.5t67 -99t99 -67t119.5 -24.5z" />
    <glyph glyph-name="uni2780" horiz-adv-x="836" 
d="M418 -16q-77 0 -145 29.5t-119 80.5t-80.5 119t-29.5 145t29.5 145t80.5 119t119 80.5t145 29.5t145 -29.5t119 -80.5t80.5 -119t29.5 -145t-29.5 -145t-80.5 -119t-119 -80.5t-145 -29.5zM140 358q0 -57 22 -108t59.5 -88.5t88.5 -59.5t108 -22t108 22t88.5 59.5
t59.5 88.5t22 108t-22 108t-59.5 88.5t-88.5 59.5t-108 22t-108 -22t-88.5 -59.5t-59.5 -88.5t-22 -108zM381 177v252l-68 -30l-37 85l129 59h74v-366h-98z" />
    <glyph glyph-name="uni2781" horiz-adv-x="836" 
d="M418 -16q-77 0 -145 29.5t-119 80.5t-80.5 119t-29.5 145t29.5 145t80.5 119t119 80.5t145 29.5t145 -29.5t119 -80.5t80.5 -119t29.5 -145t-29.5 -145t-80.5 -119t-119 -80.5t-145 -29.5zM140 358q0 -57 22 -108t59.5 -88.5t88.5 -59.5t108 -22t108 22t88.5 59.5
t59.5 88.5t22 108t-22 108t-59.5 88.5t-88.5 59.5t-108 22t-108 -22t-88.5 -59.5t-59.5 -88.5t-22 -108zM284 177v65l125 125q20 20 30 33.5t10 31.5q0 12 -9.5 22.5t-25.5 10.5q-18 0 -30.5 -11.5t-16.5 -35.5l-88 34q11 45 47.5 72t87.5 27q61 0 98 -30.5t37 -77.5
q0 -18 -6.5 -35t-16 -31.5t-20 -26.5t-19.5 -21l-66 -66h130v-86h-267z" />
    <glyph glyph-name="uni2782" horiz-adv-x="836" 
d="M418 -16q-77 0 -145 29.5t-119 80.5t-80.5 119t-29.5 145t29.5 145t80.5 119t119 80.5t145 29.5t145 -29.5t119 -80.5t80.5 -119t29.5 -145t-29.5 -145t-80.5 -119t-119 -80.5t-145 -29.5zM140 358q0 -57 22 -108t59.5 -88.5t88.5 -59.5t108 -22t108 22t88.5 59.5
t59.5 88.5t22 108t-22 108t-59.5 88.5t-88.5 59.5t-108 22t-108 -22t-88.5 -59.5t-59.5 -88.5t-22 -108zM418 169q-50 0 -90.5 24t-54.5 77l92 33q5 -28 20 -39t33 -11q17 0 29.5 10.5t12.5 28.5q0 17 -15 27t-40 10h-37v76h33q23 0 36 8t13 25q0 14 -10 21.5t-24 7.5
q-20 0 -32 -10t-16 -24l-86 35q13 36 47 59.5t90 23.5q28 0 51.5 -8.5t40 -22.5t25.5 -32.5t9 -37.5q0 -24 -9.5 -43.5t-32.5 -36.5q23 -12 39 -34.5t16 -49.5q0 -28 -11.5 -49.5t-31 -36.5t-45 -23t-52.5 -8z" />
    <glyph glyph-name="uni2783" horiz-adv-x="836" 
d="M418 -16q-77 0 -145 29.5t-119 80.5t-80.5 119t-29.5 145t29.5 145t80.5 119t119 80.5t145 29.5t145 -29.5t119 -80.5t80.5 -119t29.5 -145t-29.5 -145t-80.5 -119t-119 -80.5t-145 -29.5zM140 358q0 -57 22 -108t59.5 -88.5t88.5 -59.5t108 -22t108 22t88.5 59.5
t59.5 88.5t22 108t-22 108t-59.5 88.5t-88.5 59.5t-108 22t-108 -22t-88.5 -59.5t-59.5 -88.5t-22 -108zM245 311l169 232h98v-224h47v-80h-47v-62h-94v62h-173v72zM418 319v96h-10l-68 -96h78z" />
    <glyph glyph-name="uni2784" horiz-adv-x="836" 
d="M418 -16q-77 0 -145 29.5t-119 80.5t-80.5 119t-29.5 145t29.5 145t80.5 119t119 80.5t145 29.5t145 -29.5t119 -80.5t80.5 -119t29.5 -145t-29.5 -145t-80.5 -119t-119 -80.5t-145 -29.5zM140 358q0 -57 22 -108t59.5 -88.5t88.5 -59.5t108 -22t108 22t88.5 59.5
t59.5 88.5t22 108t-22 108t-59.5 88.5t-88.5 59.5t-108 22t-108 -22t-88.5 -59.5t-59.5 -88.5t-22 -108zM417 169q-22 0 -43 5t-39.5 16t-33 28t-22.5 42l86 34q5 -19 18 -30t32 -11q20 0 32.5 12.5t12.5 33.5t-12.5 33.5t-30.5 12.5t-30 -8.5t-18 -19.5l-79 36l22 189h224
v-78h-153l-11 -59q15 9 29.5 12.5t34.5 3.5q24 0 45.5 -8.5t38 -24.5t26 -39t9.5 -53t-11.5 -53.5t-30.5 -40t-44 -25t-52 -8.5z" />
    <glyph glyph-name="uni2785" horiz-adv-x="836" 
d="M418 -16q-77 0 -145 29.5t-119 80.5t-80.5 119t-29.5 145t29.5 145t80.5 119t119 80.5t145 29.5t145 -29.5t119 -80.5t80.5 -119t29.5 -145t-29.5 -145t-80.5 -119t-119 -80.5t-145 -29.5zM140 358q0 -57 22 -108t59.5 -88.5t88.5 -59.5t108 -22t108 22t88.5 59.5
t59.5 88.5t22 108t-22 108t-59.5 88.5t-88.5 59.5t-108 22t-108 -22t-88.5 -59.5t-59.5 -88.5t-22 -108zM414 169q-31 0 -56.5 10.5t-44 28.5t-28.5 41.5t-10 49.5q0 34 13 60.5t29 49.5q11 16 29 42q17 25 35 49q20 28 44 59l74 -54l-73 -91q10 4 19 4q19 0 38.5 -9t35 -25
t25 -38.5t9.5 -49.5q0 -26 -10.5 -49t-29.5 -40.5t-44 -27.5t-55 -10zM413 251q20 0 32 13t12 32t-12 32t-32 13t-32 -13t-12 -32t12 -32t32 -13z" />
    <glyph glyph-name="uni2786" horiz-adv-x="836" 
d="M418 -16q-77 0 -145 29.5t-119 80.5t-80.5 119t-29.5 145t29.5 145t80.5 119t119 80.5t145 29.5t145 -29.5t119 -80.5t80.5 -119t29.5 -145t-29.5 -145t-80.5 -119t-119 -80.5t-145 -29.5zM140 358q0 -57 22 -108t59.5 -88.5t88.5 -59.5t108 -22t108 22t88.5 59.5
t59.5 88.5t22 108t-22 108t-59.5 88.5t-88.5 59.5t-108 22t-108 -22t-88.5 -59.5t-59.5 -88.5t-22 -108zM303 205l149 249h-160v89h266v-85l-168 -296z" />
    <glyph glyph-name="uni2787" horiz-adv-x="836" 
d="M418 -16q-77 0 -145 29.5t-119 80.5t-80.5 119t-29.5 145t29.5 145t80.5 119t119 80.5t145 29.5t145 -29.5t119 -80.5t80.5 -119t29.5 -145t-29.5 -145t-80.5 -119t-119 -80.5t-145 -29.5zM140 358q0 -57 22 -108t59.5 -88.5t88.5 -59.5t108 -22t108 22t88.5 59.5
t59.5 88.5t22 108t-22 108t-59.5 88.5t-88.5 59.5t-108 22t-108 -22t-88.5 -59.5t-59.5 -88.5t-22 -108zM418 169q-27 0 -52 7.5t-44.5 22t-31.5 35.5t-12 49q0 29 14.5 51.5t37.5 35.5q-20 12 -30 32t-10 40q0 25 10 45t27.5 34.5t40.5 22t50 7.5t50 -7.5t40.5 -22
t27.5 -34.5t10 -45q0 -20 -10 -40t-30 -32q23 -13 37.5 -35.5t14.5 -51.5q0 -28 -12 -49.5t-31.5 -35.5t-44.5 -21.5t-52 -7.5zM418 405q14 0 24.5 9t10.5 24q0 14 -10 23.5t-25 9.5t-25 -8.5t-10 -24.5t10.5 -24.5t24.5 -8.5zM418 249q17 0 30.5 11.5t13.5 30.5
q0 18 -13.5 29.5t-30.5 11.5q-18 0 -31 -11t-13 -30t12.5 -30.5t31.5 -11.5z" />
    <glyph glyph-name="uni2788" horiz-adv-x="836" 
d="M418 -16q-77 0 -145 29.5t-119 80.5t-80.5 119t-29.5 145t29.5 145t80.5 119t119 80.5t145 29.5t145 -29.5t119 -80.5t80.5 -119t29.5 -145t-29.5 -145t-80.5 -119t-119 -80.5t-145 -29.5zM140 358q0 -57 22 -108t59.5 -88.5t88.5 -59.5t108 -22t108 22t88.5 59.5
t59.5 88.5t22 108t-22 108t-59.5 88.5t-88.5 59.5t-108 22t-108 -22t-88.5 -59.5t-59.5 -88.5t-22 -108zM415 551q31 0 56.5 -10.5t44 -28.5t28.5 -41.5t10 -49.5q0 -34 -13 -60.5t-29 -49.5q-11 -16 -29 -41q-19 -26 -36 -50q-21 -28 -43 -59l-74 54l72 90q-8 -3 -18 -3
q-19 0 -38.5 9t-35 25t-25 38.5t-9.5 49.5q0 26 10.5 49t29.5 40.5t44 27.5t55 10zM416 469q-20 0 -32 -13t-12 -32t12 -32t32 -13t32 13t12 32t-12 32t-32 13z" />
    <glyph glyph-name="uni278A" horiz-adv-x="836" 
d="M418 -16q-77 0 -145 29.5t-119 80.5t-80.5 119t-29.5 145t29.5 145t80.5 119t119 80.5t145 29.5t145 -29.5t119 -80.5t80.5 -119t29.5 -145t-29.5 -145t-80.5 -119t-119 -80.5t-145 -29.5zM479 177v366h-74l-129 -59l37 -85l68 30v-252h98z" />
    <glyph glyph-name="uni278B" horiz-adv-x="836" 
d="M418 -16q-77 0 -145 29.5t-119 80.5t-80.5 119t-29.5 145t29.5 145t80.5 119t119 80.5t145 29.5t145 -29.5t119 -80.5t80.5 -119t29.5 -145t-29.5 -145t-80.5 -119t-119 -80.5t-145 -29.5zM550 177v86h-130l66 66q9 9 19.5 21t20 26.5t16 31.5t6.5 35q0 47 -37 77.5
t-98 30.5q-51 0 -87.5 -27t-47.5 -72l88 -34q4 24 16.5 35.5t30.5 11.5q16 0 25.5 -10.5t9.5 -22.5q0 -18 -10 -31.5t-30 -33.5l-125 -125v-65h267z" />
    <glyph glyph-name="uni278C" horiz-adv-x="836" 
d="M418 -16q-77 0 -145 29.5t-119 80.5t-80.5 119t-29.5 145t29.5 145t80.5 119t119 80.5t145 29.5t145 -29.5t119 -80.5t80.5 -119t29.5 -145t-29.5 -145t-80.5 -119t-119 -80.5t-145 -29.5zM418 169q27 0 52.5 8t45 23t31 36.5t11.5 49.5q0 27 -18.5 50t-51.5 34
q23 8 40 30t17 52q0 20 -9 38t-25.5 31.5t-40 21.5t-51.5 8q-56 0 -88.5 -24t-45.5 -60l83 -34q4 14 16 25t32 11q14 0 24 -8.5t10 -22.5q0 -17 -13 -25t-36 -8h-33v-76h37q25 0 40 -10t15 -27q0 -18 -12.5 -28.5t-29.5 -10.5q-18 0 -33 11t-20 39l-92 -33q14 -53 54.5 -77
t90.5 -24z" />
    <glyph glyph-name="uni278D" horiz-adv-x="836" 
d="M418 -16q-77 0 -145 29.5t-119 80.5t-80.5 119t-29.5 145t29.5 145t80.5 119t119 80.5t145 29.5t145 -29.5t119 -80.5t80.5 -119t29.5 -145t-29.5 -145t-80.5 -119t-119 -80.5t-145 -29.5zM243 239h173v-62h94v62h47v80h-47v224h-98l-169 -232v-72zM338 319l68 96h10v-96
h-78z" />
    <glyph glyph-name="uni278E" horiz-adv-x="836" 
d="M418 -16q-77 0 -145 29.5t-119 80.5t-80.5 119t-29.5 145t29.5 145t80.5 119t119 80.5t145 29.5t145 -29.5t119 -80.5t80.5 -119t29.5 -145t-29.5 -145t-80.5 -119t-119 -80.5t-145 -29.5zM418 169q27 0 52 8.5t44 25t30.5 40t11.5 53.5t-9.5 53t-26 39t-37.5 24.5
t-44 8.5q-20 0 -39.5 -8.5t-29.5 -25.5l14 77h153v78h-224l-22 -189l79 -36q6 11 18 19.5t30 8.5t30.5 -12.5t12.5 -33.5t-12.5 -33.5t-32.5 -12.5q-19 0 -32 11t-18 30l-86 -34q8 -25 22.5 -42t33 -28t39.5 -16t43 -5z" />
    <glyph glyph-name="uni278F" horiz-adv-x="836" 
d="M418 -16q-77 0 -145 29.5t-119 80.5t-80.5 119t-29.5 145t29.5 145t80.5 119t119 80.5t145 29.5t145 -29.5t119 -80.5t80.5 -119t29.5 -145t-29.5 -145t-80.5 -119t-119 -80.5t-145 -29.5zM414 169q30 0 55 10t44 27.5t29.5 40.5t10.5 49q0 27 -9.5 49.5t-25 38.5t-35 25
t-38.5 9q-11 0 -19 -4l73 91l-74 54q-24 -31 -44 -59q-18 -24 -35 -49q-18 -26 -29 -42q-16 -23 -29 -49.5t-13 -60.5q0 -26 10 -49.5t28.5 -41.5t44 -28.5t56.5 -10.5zM413 251q-20 0 -32 13t-12 32t12 32t32 13t32 -13t12 -32t-12 -32t-32 -13z" />
    <glyph glyph-name="uni2790" horiz-adv-x="836" 
d="M418 -16q-77 0 -145 29.5t-119 80.5t-80.5 119t-29.5 145t29.5 145t80.5 119t119 80.5t145 29.5t145 -29.5t119 -80.5t80.5 -119t29.5 -145t-29.5 -145t-80.5 -119t-119 -80.5t-145 -29.5zM391 162l168 296v85h-266v-89h151l-140 -249z" />
    <glyph glyph-name="uni2791" horiz-adv-x="836" 
d="M418 -16q-77 0 -145 29.5t-119 80.5t-80.5 119t-29.5 145t29.5 145t80.5 119t119 80.5t145 29.5t145 -29.5t119 -80.5t80.5 -119t29.5 -145t-29.5 -145t-80.5 -119t-119 -80.5t-145 -29.5zM418 169q27 0 52 7.5t44.5 21.5t31.5 35.5t12 49.5q0 29 -15.5 51.5t-41.5 35.5
q22 12 33.5 32t11.5 40q0 25 -10 45t-27.5 34.5t-40.5 22t-50 7.5t-50 -7.5t-40.5 -22t-27.5 -34.5t-10 -45q0 -20 11.5 -40t33.5 -32q-26 -13 -41.5 -35.5t-15.5 -51.5q0 -28 12 -49t31.5 -35.5t44.5 -22t52 -7.5zM418 405q-14 0 -24.5 8.5t-10.5 24.5t10 24.5t25 8.5
t25 -9.5t10 -23.5q0 -15 -10.5 -24t-24.5 -9zM418 249q-19 0 -31.5 11.5t-12.5 30.5t13 30t31 11q17 0 30.5 -11.5t13.5 -29.5q0 -19 -13.5 -30.5t-30.5 -11.5z" />
    <glyph glyph-name="uni2792" horiz-adv-x="836" 
d="M418 -16q-77 0 -145 29.5t-119 80.5t-80.5 119t-29.5 145t29.5 145t80.5 119t119 80.5t145 29.5t145 -29.5t119 -80.5t80.5 -119t29.5 -145t-29.5 -145t-80.5 -119t-119 -80.5t-145 -29.5zM415 551q-30 0 -55 -10t-44 -27.5t-29.5 -40.5t-10.5 -49q0 -27 9.5 -49.5
t25 -38.5t35 -25t38.5 -9q11 0 19 4l-73 -91l74 -54q22 31 43 59q17 24 36 50q18 25 29 41q16 23 29 49.5t13 60.5q0 26 -10 49.5t-28.5 41.5t-44 28.5t-56.5 10.5zM416 469q20 0 32 -13t12 -32t-12 -32t-32 -13t-32 13t-12 32t12 32t32 13z" />
    <glyph glyph-name="Google.logo" horiz-adv-x="3284" 
d="M460 -16q-85 0 -160.5 32.5t-132.5 88t-90 130t-33 159.5t33 159.5t90 130t132.5 88t160.5 32.5q94 0 162.5 -32.5t118.5 -80.5l-79 -79q-36 34 -85.5 57t-116.5 23q-62 0 -115.5 -23.5t-93.5 -64t-62.5 -94.5t-22.5 -116t22.5 -116t62.5 -94.5t93.5 -64t115.5 -23.5
q40 0 72 7.5t57 19t44 26t34 29.5q49 49 61 141h-268v112h377q6 -30 6 -70q0 -32 -5 -66t-16 -68.5t-29.5 -67t-46.5 -60.5q-54 -57 -124 -86t-162 -29zM1148 -16q-55 0 -103 20t-84 55t-57 83.5t-21 105.5t21 105.5t57 84t84 55t103 19.5t103 -19.5t84 -55t57 -84
t21 -105.5t-21 -105.5t-57 -83.5t-84 -55t-103 -20zM1148 88q30 0 57 12t47.5 33t32.5 50.5t12 64.5q0 36 -12 65.5t-32.5 50.5t-47.5 32.5t-57 11.5t-57 -11.5t-47.5 -32.5t-32.5 -50.5t-12 -65.5q0 -35 12 -64.5t32.5 -50.5t47.5 -33t57 -12zM1726 -16q-55 0 -103 20
t-84 55t-57 83.5t-21 105.5t21 105.5t57 84t84 55t103 19.5t103 -19.5t84 -55t57 -84t21 -105.5t-21 -105.5t-57 -83.5t-84 -55t-103 -20zM1726 88q30 0 57 12t47.5 33t32.5 50.5t12 64.5q0 36 -12 65.5t-32.5 50.5t-47.5 32.5t-57 11.5t-57 -11.5t-47.5 -32.5t-32.5 -50.5
t-12 -65.5q0 -35 12 -64.5t32.5 -50.5t47.5 -33t57 -12zM2294 -253q-48 0 -86.5 14.5t-67.5 37t-49 50.5t-31 54l101 42q7 -16 18.5 -33t28 -30.5t38 -22t48.5 -8.5q66 0 103.5 39.5t37.5 115.5v38h-4q-20 -24 -55.5 -42t-83.5 -18q-50 0 -95.5 20.5t-80.5 55.5t-56 83
t-21 104t21 104.5t56 84t80.5 56t95.5 20.5q48 0 83.5 -18t55.5 -41h4v43h110v-474q0 -73 -20 -125t-54.5 -85.5t-80 -49t-96.5 -15.5zM2302 88q30 0 55.5 12t44.5 33t30 50t11 64t-11 64.5t-30 51t-44.5 33.5t-55.5 12t-56.5 -12t-47 -33.5t-32 -51t-11.5 -64.5t11.5 -64
t32 -50t47 -33t56.5 -12zM2741 0h-116v776h116v-776zM3059 -16q-56 0 -104 20.5t-83 56t-55 83.5t-20 104q0 59 20 107.5t53.5 83.5t79 54t96.5 19t90 -18t66.5 -44t44.5 -55t25 -51l12 -30l-353 -146q41 -80 128 -80q45 0 76 20t54 53l90 -60q-11 -16 -29.5 -36.5
t-46 -38.5t-63.5 -30t-81 -12zM3148 354q-10 25 -36.5 40.5t-61.5 15.5q-22 0 -47 -9.5t-45.5 -29t-33.5 -48.5t-12 -67z" />
    <glyph glyph-name="G.logo" horiz-adv-x="861" 
d="M460 -16q-85 0 -160.5 32.5t-132.5 88t-90 130t-33 159.5t33 159.5t90 130t132.5 88t160.5 32.5q94 0 162.5 -32.5t118.5 -80.5l-79 -79q-36 34 -85.5 57t-116.5 23q-62 0 -115.5 -23.5t-93.5 -64t-62.5 -94.5t-22.5 -116t22.5 -116t62.5 -94.5t93.5 -64t115.5 -23.5
q40 0 72 7.5t57 19t44 26t34 29.5q49 49 61 141h-268v112h377q6 -30 6 -70q0 -32 -5 -66t-16 -68.5t-29.5 -67t-46.5 -60.5q-54 -57 -124 -86t-162 -29z" />
    <glyph glyph-name="o.logo" horiz-adv-x="578" 
d="M287 -16q-55 0 -103 20t-84 55t-57 83.5t-21 105.5t21 105.5t57 84t84 55t103 19.5t103 -19.5t84 -55t57 -84t21 -105.5t-21 -105.5t-57 -83.5t-84 -55t-103 -20zM287 88q30 0 57 12t47.5 33t32.5 50.5t12 64.5q0 36 -12 65.5t-32.5 50.5t-47.5 32.5t-57 11.5t-57 -11.5
t-47.5 -32.5t-32.5 -50.5t-12 -65.5q0 -35 12 -64.5t32.5 -50.5t47.5 -33t57 -12z" />
    <glyph glyph-name="g.logo" horiz-adv-x="566" 
d="M277 -253q-48 0 -86.5 14.5t-67.5 37t-49 50.5t-31 54l101 42q7 -16 18.5 -33t28 -30.5t38 -22t48.5 -8.5q66 0 103.5 39.5t37.5 115.5v38h-4q-20 -24 -55.5 -42t-83.5 -18q-50 0 -95.5 20.5t-80.5 55.5t-56 83t-21 104t21 104.5t56 84t80.5 56t95.5 20.5q48 0 83.5 -18
t55.5 -41h4v43h110v-474q0 -73 -20 -125t-54.5 -85.5t-80 -49t-96.5 -15.5zM285 88q30 0 55.5 12t44.5 33t30 50t11 64t-11 64.5t-30 51t-44.5 33.5t-55.5 12t-56.5 -12t-47 -33.5t-32 -51t-11.5 -64.5t11.5 -64t32 -50t47 -33t56.5 -12z" />
    <glyph glyph-name="l.logo" horiz-adv-x="187" 
d="M158 0h-116v776h116v-776z" />
    <glyph glyph-name="e.logo" horiz-adv-x="514" 
d="M289 -16q-56 0 -104 20.5t-83 56t-55 83.5t-20 104q0 59 20 107.5t53.5 83.5t79 54t96.5 19t90 -18t66.5 -44t44.5 -55t25 -51l12 -30l-353 -146q41 -80 128 -80q45 0 76 20t54 53l90 -60q-11 -16 -29.5 -36.5t-46 -38.5t-63.5 -30t-81 -12zM378 354q-10 25 -36.5 40.5
t-61.5 15.5q-22 0 -47 -9.5t-45.5 -29t-33.5 -48.5t-12 -67z" />
    <glyph glyph-name="caron.alt" horiz-adv-x="457" 
d="M150 490v226h157l-49 -226h-108z" />
    <glyph glyph-name="dotaccent.cap" horiz-adv-x="288" 
d="M144 776q-33 0 -56.5 23.5t-23.5 56.5t23.5 56.5t56.5 23.5t56.5 -23.5t23.5 -56.5t-23.5 -56.5t-56.5 -23.5z" />
    <glyph glyph-name="uni00200326" horiz-adv-x="440" 
d="M136 -271l49 77q-20 9 -31.5 27.5t-11.5 41.5q0 32 22.5 54.5t54.5 22.5t54 -22.5t22 -54.5q0 -22 -13 -43l-92 -138z" />
    <glyph glyph-name="K.alt" horiz-adv-x="678" 
d="M72 716h156v-326h10l232 326h189v-10l-257 -348l276 -348v-10h-192l-248 310h-10v-310h-156v716z" />
    <glyph glyph-name="a.alt" horiz-adv-x="608" 
d="M416 0v54h-10q-17 -29 -52.5 -49.5t-89.5 -20.5q-47 0 -90 19t-75.5 53.5t-51.5 82.5t-19 106t19 106t51.5 82.5t75.5 53.5t90 19q54 0 89.5 -20.5t52.5 -49.5h10v54h140v-490h-140zM297 366q-24 0 -45.5 -8.5t-38 -24.5t-26 -38t-9.5 -50t9.5 -50.5t26 -38t38 -24
t45.5 -8.5t45.5 8.5t38 24t26 38t9.5 50.5t-9.5 50t-26 38t-38 24.5t-45.5 8.5z" />
    <glyph glyph-name="quoteright.alt" horiz-adv-x="333" 
d="M116 716h177l-133 -226h-120z" />
    <glyph glyph-name="three.cap" horiz-adv-x="584" 
d="M293 -16q-96 0 -163.5 47.5t-93.5 137.5l140 55q12 -50 42 -75t75 -25q44 0 72.5 26t28.5 65q0 40 -33 66.5t-90 26.5h-55v126h50q21 0 40.5 5t34.5 15.5t24 27.5t9 40q0 32 -23.5 55t-65.5 23t-65.5 -22t-34.5 -51l-129 53q10 27 29 54.5t48 49t67.5 35t87.5 13.5
q53 0 96 -14.5t73 -40.5t46.5 -61.5t16.5 -77.5q0 -58 -21.5 -93t-56.5 -61v-10q45 -23 73.5 -66.5t28.5 -106.5q0 -43 -18 -82.5t-50.5 -69.5t-79 -47.5t-103.5 -17.5z" />
    </font>
</defs>
</svg>
