<?xml version="1.0" standalone="no"?>
<!DOCTYPE svg PUBLIC "-//W3C//DTD SVG 1.1//EN" "http://www.w3.org/Graphics/SVG/1.1/DTD/svg11.dtd" >
<svg xmlns="http://www.w3.org/2000/svg" xmlns:xlink="http://www.w3.org/1999/xlink" version="1.1">
<metadata>
Created by FontForge 20170731 at Mon Sep  3 22:25:15 2018
 By Aleksey,,,
</metadata>
<defs>
<font id="ProductSans-BlackItalic" horiz-adv-x="590" >
  <font-face 
    font-family="Product Sans Black"
    font-weight="900"
    font-style="italic"
    font-stretch="normal"
    units-per-em="1000"
    panose-1="2 11 10 3 3 5 2 9 2 3"
    ascent="800"
    descent="-200"
    x-height="490"
    cap-height="716"
    bbox="-231 -306 3284 966"
    underline-thickness="84"
    underline-position="-412"
    slope="-10"
    unicode-range="U+000D-2215"
  />
<missing-glyph horiz-adv-x="570" 
d="M72 716h426v-716h-426v716zM136 60h298v596h-298v-596z" />
    <glyph glyph-name="f_i" unicode="fi" horiz-adv-x="642" 
d="M196 0h-150l64 364h-86l22 126h86l6 36q17 101 74.5 149.5t151.5 48.5q26 0 46 -3l-25 -143q-5 2 -12 3t-15 1q-31 0 -48.5 -17t-22.5 -46l-5 -29h316l-85 -490h-150l63 364h-166zM549 544q-20 0 -37 7.5t-29.5 20t-20 29.5t-7.5 37q0 19 7.5 36.5t20 30t29.5 20t37 7.5
q39 0 66.5 -27.5t27.5 -66.5q0 -20 -7.5 -37t-20 -29.5t-30 -20t-36.5 -7.5z" />
    <glyph glyph-name="f_l" unicode="fl" horiz-adv-x="634" 
d="M364 0l103 582h-105q-30 0 -50 -18t-26 -52l-4 -22h108l-22 -126h-108l-64 -364h-150l64 364h-86l22 126h86l3 18q19 111 78.5 161.5t171.5 50.5h256l-127 -720h-150z" />
    <glyph glyph-name="f_b" unicode="fb" horiz-adv-x="982" 
d="M467 582h-105q-30 0 -50 -18t-26 -52l-4 -22h108l-22 -126h-108l-64 -364h-150l64 364h-86l22 126h86l3 18q19 111 78.5 161.5t171.5 50.5h256l-39 -214l-22 -70h10q18 25 55 47.5t93 22.5q41 0 77.5 -16t64 -45t43.5 -71.5t16 -94.5q0 -65 -21.5 -119t-58 -93t-85 -61
t-101.5 -22q-55 0 -92.5 20.5t-57.5 49.5h-10l-9 -54h-140zM652 124q28 0 53 10.5t43.5 29t29.5 43t11 52.5q0 48 -29 77.5t-76 29.5q-34 0 -60 -11.5t-44 -30.5t-27 -44t-9 -53q0 -24 9 -43.5t24 -32.5t34.5 -20t40.5 -7z" />
    <glyph glyph-name="f_f" unicode="ff" horiz-adv-x="728" 
d="M196 0h-150l64 364h-86l22 126h86l6 36q17 101 74.5 149.5t151.5 48.5q26 0 46 -3l-25 -143q-5 2 -12 3t-15 1q-31 0 -48.5 -17t-22.5 -46l-5 -29h166l6 36q17 101 74.5 149.5t151.5 48.5q28 0 54 -8t46 -19l-61 -128q-9 6 -19.5 9.5t-25.5 3.5q-31 0 -48.5 -17
t-22.5 -46l-5 -29h119l-22 -126h-119l-64 -364h-150l64 364h-166z" />
    <glyph glyph-name="f_f_b" unicode="ffb" horiz-adv-x="1298" 
d="M783 582h-105q-30 0 -50 -18t-26 -52l-4 -22h108l-22 -126h-108l-64 -364h-150l64 364h-166l-64 -364h-150l64 364h-86l22 126h86l6 36q17 101 74.5 149.5t151.5 48.5q26 0 46 -3l-25 -143q-5 2 -12 3t-15 1q-31 0 -48.5 -17t-22.5 -46l-5 -29h166l3 18
q19 111 78.5 161.5t171.5 50.5h256l-39 -214l-22 -70h10q18 25 55 47.5t93 22.5q41 0 77.5 -16t64 -45t43.5 -71.5t16 -94.5q0 -65 -21.5 -119t-58 -93t-85 -61t-101.5 -22q-55 0 -92.5 20.5t-57.5 49.5h-10l-9 -54h-140zM968 124q28 0 53 10.5t43.5 29t29.5 43t11 52.5
q0 48 -29 77.5t-76 29.5q-34 0 -60 -11.5t-44 -30.5t-27 -44t-9 -53q0 -24 9 -43.5t24 -32.5t34.5 -20t40.5 -7z" />
    <glyph glyph-name="f_f_h" unicode="ffh" horiz-adv-x="1278" 
d="M923 528l-27 -100h10q26 39 67 58.5t91 19.5q39 0 68 -13t48.5 -35t29 -50.5t9.5 -59.5q0 -14 -1.5 -27.5t-3.5 -28.5l-52 -292h-150l49 275q1 4 1.5 11.5t0.5 13.5q0 26 -15.5 46t-48.5 20q-29 0 -50.5 -10.5t-37 -29t-25 -44.5t-15.5 -57l-40 -225h-150l102 582h-105
q-30 0 -50 -18t-26 -52l-4 -22h108l-22 -126h-108l-64 -364h-150l64 364h-166l-64 -364h-150l64 364h-86l22 126h86l6 36q17 101 74.5 149.5t151.5 48.5q26 0 46 -3l-25 -143q-5 2 -12 3t-15 1q-31 0 -48.5 -17t-22.5 -46l-5 -29h166l3 18q19 111 78.5 161.5t171.5 50.5h256
z" />
    <glyph glyph-name="f_f_i" unicode="ffi" horiz-adv-x="957" 
d="M512 0h-150l64 364h-166l-64 -364h-150l64 364h-86l22 126h86l6 36q17 101 74.5 149.5t151.5 48.5q26 0 46 -3l-25 -143q-5 2 -12 3t-15 1q-31 0 -48.5 -17t-22.5 -46l-5 -29h166l6 36q17 101 74.5 149.5t151.5 48.5q26 0 46 -3l-25 -143q-5 2 -12 3t-15 1
q-31 0 -48.5 -17t-22.5 -46l-5 -29h316l-85 -490h-150l63 364h-166zM865 544q-39 0 -66.5 27.5t-27.5 66.5q0 19 7.5 36.5t20 30t29.5 20t37 7.5q39 0 66.5 -27.5t27.5 -66.5q0 -20 -7.5 -37t-20 -29.5t-30 -20t-36.5 -7.5z" />
    <glyph glyph-name="f_f_j" unicode="ffj" horiz-adv-x="957" 
d="M822 -42q-9 -54 -26 -89.5t-40.5 -56.5t-54.5 -29.5t-69 -8.5q-23 0 -50 4t-46 12l53 132q16 -10 35 -10q39 0 48 50l70 402h-166l-64 -364h-150l64 364h-166l-64 -364h-150l64 364h-86l22 126h86l6 36q17 101 74.5 149.5t151.5 48.5q26 0 46 -3l-25 -143q-5 2 -12 3
t-15 1q-31 0 -48.5 -17t-22.5 -46l-5 -29h166l6 36q17 101 74.5 149.5t151.5 48.5q26 0 46 -3l-25 -143q-5 2 -12 3t-15 1q-31 0 -48.5 -17t-22.5 -46l-5 -29h316zM865 544q-39 0 -66.5 27.5t-27.5 66.5q0 19 7.5 36.5t20 30t29.5 20t37 7.5q39 0 66.5 -27.5t27.5 -66.5
q0 -20 -7.5 -37t-20 -29.5t-30 -20t-36.5 -7.5z" />
    <glyph glyph-name="f_f_k" unicode="ffk" horiz-adv-x="1240" 
d="M783 582h-105q-30 0 -50 -18t-26 -52l-4 -22h108l-22 -126h-108l-64 -364h-150l64 364h-166l-64 -364h-150l64 364h-86l22 126h86l6 36q17 101 74.5 149.5t151.5 48.5q26 0 46 -3l-25 -143q-5 2 -12 3t-15 1q-31 0 -48.5 -17t-22.5 -46l-5 -29h166l3 18
q19 111 78.5 161.5t171.5 50.5h256l-64 -364h10l157 134h189l-2 -10l-211 -175l147 -295l-2 -10h-169l-96 207l-58 -48l-28 -159h-150z" />
    <glyph glyph-name="f_f_l" unicode="ffl" horiz-adv-x="950" 
d="M680 0l103 582h-105q-30 0 -50 -18t-26 -52l-4 -22h108l-22 -126h-108l-64 -364h-150l64 364h-166l-64 -364h-150l64 364h-86l22 126h86l6 36q17 101 74.5 149.5t151.5 48.5q26 0 46 -3l-25 -143q-5 2 -12 3t-15 1q-31 0 -48.5 -17t-22.5 -46l-5 -29h166l3 18
q19 111 78.5 161.5t171.5 50.5h256l-127 -720h-150z" />
    <glyph glyph-name="f_f_t" unicode="fft" horiz-adv-x="1057" 
d="M598 490h167l27 150h150l-27 -150h121l-22 -126h-121l-29 -165q-1 -6 -1 -9v-7q0 -20 10.5 -34.5t36.5 -14.5q16 0 27.5 4t20.5 10l22 -135q-39 -21 -113 -21q-71 0 -114.5 37t-43.5 114q0 13 1.5 26.5t3.5 27.5l29 167h-167l-64 -364h-150l64 364h-166l-64 -364h-150
l64 364h-86l22 126h86l6 36q17 101 74.5 149.5t151.5 48.5q26 0 46 -3l-25 -143q-5 2 -12 3t-15 1q-31 0 -48.5 -17t-22.5 -46l-5 -29h166l6 36q17 101 74.5 149.5t151.5 48.5q26 0 46 -3l-25 -143q-5 2 -12 3t-15 1q-31 0 -48.5 -17t-22.5 -46z" />
    <glyph glyph-name="f_h" unicode="fh" horiz-adv-x="962" 
d="M607 528l-27 -100h10q26 39 67 58.5t91 19.5q39 0 68 -13t48.5 -35t29 -50.5t9.5 -59.5q0 -14 -1.5 -27.5t-3.5 -28.5l-52 -292h-150l49 275q1 4 1.5 11.5t0.5 13.5q0 26 -15.5 46t-48.5 20q-29 0 -50.5 -10.5t-37 -29t-25 -44.5t-15.5 -57l-40 -225h-150l102 582h-105
q-30 0 -50 -18t-26 -52l-4 -22h108l-22 -126h-108l-64 -364h-150l64 364h-86l22 126h86l3 18q19 111 78.5 161.5t171.5 50.5h256z" />
    <glyph glyph-name="f_j" unicode="fj" horiz-adv-x="642" 
d="M273 -78q16 -10 35 -10q39 0 48 50l70 402h-166l-64 -364h-150l64 364h-86l22 126h86l6 36q17 101 74.5 149.5t151.5 48.5q26 0 46 -3l-25 -143q-5 2 -12 3t-15 1q-31 0 -48.5 -17t-22.5 -46l-5 -29h316l-92 -532q-9 -54 -26 -89.5t-40.5 -56.5t-54.5 -29.5t-69 -8.5
q-23 0 -50 4t-46 12zM549 544q-20 0 -37 7.5t-29.5 20t-20 29.5t-7.5 37q0 19 7.5 36.5t20 30t29.5 20t37 7.5q39 0 66.5 -27.5t27.5 -66.5q0 -20 -7.5 -37t-20 -29.5t-30 -20t-36.5 -7.5z" />
    <glyph glyph-name="f_k" unicode="fk" horiz-adv-x="924" 
d="M467 582h-105q-30 0 -50 -18t-26 -52l-4 -22h108l-22 -126h-108l-64 -364h-150l64 364h-86l22 126h86l3 18q19 111 78.5 161.5t171.5 50.5h256l-64 -364h10l157 134h189l-2 -10l-211 -175l147 -295l-2 -10h-169l-96 207l-58 -48l-28 -159h-150z" />
    <glyph glyph-name="f_t" unicode="ft" horiz-adv-x="741" 
d="M427 364h-167l-64 -364h-150l64 364h-86l22 126h86l6 36q17 101 74.5 149.5t151.5 48.5q26 0 46 -3l-25 -143q-5 2 -12 3t-15 1q-31 0 -48.5 -17t-22.5 -46l-5 -29h167l27 150h150l-27 -150h121l-22 -126h-121l-29 -165q-1 -6 -1 -9v-7q0 -20 10.5 -34.5t36.5 -14.5
q16 0 27.5 4t20.5 10l22 -135q-39 -21 -113 -21q-71 0 -114.5 37t-43.5 114q0 13 1.5 26.5t3.5 27.5z" />
    <glyph glyph-name="r_f" unicode="rf" horiz-adv-x="840" 
d="M792 724q28 0 54 -8t46 -19l-61 -128q-9 6 -19.5 9.5t-25.5 3.5q-31 0 -48.5 -17t-22.5 -46l-5 -29h119l-22 -126h-119l-64 -364h-150l64 364h-86l22 126h86l6 36q17 101 74.5 149.5t151.5 48.5zM79 490h140l-11 -62h10q26 32 62 54t90 22q19 0 30.5 -2t20.5 -5l-26 -145
q-11 6 -25.5 10t-36.5 4q-63 0 -101.5 -39t-49.5 -102l-40 -225h-149z" />
    <glyph glyph-name="r_f_f" unicode="rff" horiz-adv-x="1158" 
d="M79 490h140l-11 -62h10q26 32 62 54t90 22q19 0 30.5 -2t20.5 -5l-26 -145q-11 6 -25.5 10t-36.5 4q-63 0 -101.5 -39t-49.5 -102l-40 -225h-149zM624 0h-150l64 364h-86l22 126h86l6 36q17 101 74.5 149.5t151.5 48.5q26 0 46 -3l-25 -143q-5 2 -12 3t-15 1
q-31 0 -48.5 -17t-22.5 -46l-5 -29h166l6 36q17 101 74.5 149.5t151.5 48.5q28 0 54 -8t46 -19l-61 -128q-9 6 -19.5 9.5t-25.5 3.5q-31 0 -48.5 -17t-22.5 -46l-5 -29h119l-22 -126h-119l-64 -364h-150l64 364h-166z" />
    <glyph glyph-name="r_t" unicode="rt" horiz-adv-x="853" 
d="M79 490h140l-11 -62h10q26 32 62 54t90 22q19 0 30.5 -2t20.5 -5l-26 -145q-11 6 -25.5 10t-36.5 4q-63 0 -101.5 -39t-49.5 -102l-40 -225h-149zM539 364h-86l22 126h86l27 150h150l-27 -150h121l-22 -126h-121l-29 -165q-1 -6 -1 -9v-7q0 -20 10.5 -34.5t36.5 -14.5
q16 0 27.5 4t20.5 10l22 -135q-39 -21 -113 -21q-71 0 -114.5 37t-43.5 114q0 13 1.5 26.5t3.5 27.5z" />
    <glyph glyph-name="t_f" unicode="tf" horiz-adv-x="731" 
d="M683 724q28 0 54 -8t46 -19l-61 -128q-9 6 -19.5 9.5t-25.5 3.5q-31 0 -48.5 -17t-22.5 -46l-5 -29h119l-22 -126h-119l-64 -364h-150l64 364h-168l-29 -165q-1 -6 -1 -9v-7q0 -20 10.5 -34.5t36.5 -14.5q13 0 25 3.5t23 8.5l-25 -142q-13 -5 -30.5 -8.5t-35.5 -3.5
q-71 0 -114.5 37t-43.5 114q0 13 1.5 26.5t3.5 27.5l29 167h-86l22 126h86l27 150h150l-27 -150h168l6 36q17 101 74.5 149.5t151.5 48.5z" />
    <glyph glyph-name="t_t" unicode="tt" horiz-adv-x="743" 
d="M429 364h-168l-29 -165q-1 -6 -1 -9v-7q0 -20 10.5 -34.5t36.5 -14.5q13 0 25 3.5t23 8.5l-25 -142q-13 -5 -30.5 -8.5t-35.5 -3.5q-71 0 -114.5 37t-43.5 114q0 13 1.5 26.5t3.5 27.5l29 167h-86l22 126h86l27 150h150l-27 -150h168l27 150h150l-27 -150h121l-22 -126
h-121l-29 -165q-1 -6 -1 -9v-7q0 -20 10.5 -34.5t36.5 -14.5q16 0 27.5 4t20.5 10l22 -135q-39 -21 -113 -21q-71 0 -114.5 37t-43.5 114q0 13 1.5 26.5t3.5 27.5z" />
    <glyph glyph-name=".notdef" horiz-adv-x="570" 
d="M72 716h426v-716h-426v716zM136 60h298v596h-298v-596z" />
    <glyph glyph-name=".null" horiz-adv-x="0" 
 />
    <glyph glyph-name="uni000D" horiz-adv-x="0" 
d="M0 0z" />
    <glyph glyph-name="NULL" horiz-adv-x="0" 
d="M0 0z" />
    <glyph glyph-name="NULL" horiz-adv-x="0" 
d="M0 0z" />
    <glyph glyph-name="nonmarkingreturn" unicode="&#xd;" horiz-adv-x="333" 
 />
    <glyph glyph-name="space" unicode=" " horiz-adv-x="220" 
d="M0 0z" />
    <glyph glyph-name="exclam" unicode="!" horiz-adv-x="288" 
d="M95 520l34 196h156l-34 -196l-61 -262h-128zM97 -6q-40 0 -68 28t-28 68t28 68t68 28t68 -28t28 -68t-28 -68t-68 -28z" />
    <glyph glyph-name="quotedbl" unicode="&#x22;" horiz-adv-x="408" 
d="M251 490l40 226h136l-40 -226h-136zM67 490l40 226h136l-40 -226h-136z" />
    <glyph glyph-name="numbersign" unicode="#" horiz-adv-x="670" 
d="M97 0l33 187h-112l22 114h110l15 91h-112l21 114h111l32 178h126l-32 -178h100l32 178h126l-32 -178h112l-21 -114h-111l-15 -91h113l-21 -114h-112l-33 -187h-126l33 187h-100l-33 -187h-126zM272 299h106l17 95h-106z" />
    <glyph glyph-name="dollar" unicode="$" horiz-adv-x="572" 
d="M182 -10q-34 7 -64.5 23.5t-55.5 41.5t-42 57.5t-23 72.5l132 54q8 -35 27 -64t51 -43l29 165q-33 15 -61.5 34t-49.5 43.5t-33 54t-12 65.5q0 42 17 78t47 62.5t71.5 43t91.5 20.5l15 86h96l-16 -91q34 -8 60.5 -24t45.5 -35.5t31 -41.5t18 -43l-134 -50q-8 19 -18 34
t-27 23l-28 -157q81 -35 120.5 -80.5t39.5 -111.5q0 -49 -17.5 -88t-48 -66.5t-73 -44t-93.5 -21.5l-15 -87h-96zM219 503q0 -19 10 -33.5t33 -28.5l21 123q-27 -6 -45.5 -21t-18.5 -40zM360 197q0 20 -8 33.5t-27 25.5l-22 -129q26 8 41.5 25.5t15.5 44.5z" />
    <glyph glyph-name="percent" unicode="%" horiz-adv-x="854" 
d="M108 42l561 663l76 -66l-561 -663zM228 358q-38 0 -69 11.5t-53 31.5t-34 48t-12 60q0 37 14.5 71.5t41 61t64 42.5t84.5 16q35 0 64.5 -11.5t50.5 -31.5t33 -48t12 -61q0 -40 -15.5 -75t-42 -60.5t-62.5 -40t-76 -14.5zM236 472q26 0 44 19.5t18 45.5q0 22 -13.5 35.5
t-33.5 13.5q-29 0 -47 -18.5t-18 -45.5q0 -24 15 -37t35 -13zM597 -16q-38 0 -69 11.5t-53 31.5t-34 48t-12 60q0 37 14.5 71.5t41 61t64 42.5t84.5 16q35 0 64.5 -11.5t50.5 -31.5t33 -48t12 -61q0 -40 -15.5 -75t-42 -60.5t-62.5 -40t-76 -14.5zM605 98q26 0 44 19.5
t18 45.5q0 22 -13.5 35.5t-33.5 13.5q-29 0 -47 -18.5t-18 -45.5q0 -24 15 -37t35 -13z" />
    <glyph glyph-name="ampersand" unicode="&#x26;" horiz-adv-x="661" 
d="M515 146l56 -87l-121 -75l-35 53q-36 -29 -78 -41t-99 -12q-47 0 -88.5 15.5t-72.5 44.5t-49 69.5t-18 90.5q0 78 38 138t108 101q-20 45 -20 86q0 42 15 79t43 64.5t68 43.5t90 16q37 0 66 -10t50.5 -26.5t36 -38.5t23.5 -46l-130 -59q-5 24 -23.5 38t-41.5 14
q-26 0 -43 -16.5t-17 -38.5q0 -14 5 -26.5t16 -29.5l156 -245l82 104l93 -70zM271 119q41 0 77 22l-128 196q-61 -43 -61 -106q0 -28 10 -49t25.5 -35t35.5 -21t41 -7z" />
    <glyph glyph-name="quotesingle" unicode="'" horiz-adv-x="224" 
d="M67 490l40 226h136l-40 -226h-136z" />
    <glyph glyph-name="parenleft" unicode="(" horiz-adv-x="373" 
d="M54 240q0 155 67 290t198 250l99 -87q-103 -104 -158.5 -210t-55.5 -230q0 -50 5 -92.5t15 -79.5t24 -70.5t32 -66.5l-113 -80q-22 33 -42.5 74t-36 88.5t-25 101t-9.5 112.5z" />
    <glyph glyph-name="parenright" unicode=")" horiz-adv-x="373" 
d="M318 404q0 -155 -67 -290t-198 -250l-99 87q103 104 158.5 210t55.5 230q0 50 -5 92.5t-15 79.5t-24 70.5t-32 66.5l113 80q22 -33 42.5 -74t36 -88.5t25 -101.5t9.5 -112z" />
    <glyph glyph-name="asterisk" unicode="*" horiz-adv-x="478" 
d="M250 716h104l-20 -111l9 -4l103 34l28 -94l-116 -43l-6 -10l56 -96l-93 -56l-55 99h-10l-85 -99l-77 65l85 95l-2 10l-91 35l39 98l100 -38l11 4z" />
    <glyph glyph-name="plus" unicode="+" horiz-adv-x="578" 
d="M382 504l-29 -165h165l-24 -136h-165l-29 -165h-136l29 165h-165l24 136h165l29 165h136z" />
    <glyph glyph-name="comma" unicode="," horiz-adv-x="291" 
d="M-36 -92l80 98q-20 14 -31.5 33t-11.5 51q0 40 28 68t68 28t68 -28t28 -68q0 -18 -6 -34.5t-23 -36.5l-135 -162z" />
    <glyph glyph-name="hyphen" unicode="-" horiz-adv-x="460" 
d="M59 378h348l-24 -136h-348z" />
    <glyph glyph-name="period" unicode="." horiz-adv-x="288" 
d="M97 -6q-40 0 -68 28t-28 68t28 68t68 28t68 -28t28 -68t-28 -68t-68 -28z" />
    <glyph glyph-name="slash" unicode="/" horiz-adv-x="501" 
d="M-38 0l423 716h154l-424 -716h-153z" />
    <glyph glyph-name="zero" unicode="0" horiz-adv-x="674" 
d="M286 -16q-53 0 -99 19t-80 57t-53.5 95t-19.5 132q0 81 25 155.5t70.5 131.5t110 91.5t144.5 34.5q54 0 100 -19t80 -57.5t53 -95t19 -131.5q0 -88 -26 -163.5t-72.5 -131t-111 -87t-140.5 -31.5zM300 124q41 0 75 20.5t58 56t37.5 83.5t13.5 103q0 85 -31.5 129
t-82.5 44q-44 0 -78 -23.5t-57.5 -61t-36 -84.5t-12.5 -94q0 -84 32.5 -128.5t81.5 -44.5z" />
    <glyph glyph-name="one" unicode="1" horiz-adv-x="444" 
d="M146 0l90 510l-108 -42l-48 122l218 94h119l-121 -684h-150z" />
    <glyph glyph-name="two" unicode="2" horiz-adv-x="557" 
d="M222 128h251l-22 -128h-463l22 132q70 59 130 109q25 21 51 43t48 41q22 18 39 32.5t25 22.5q18 16 31.5 28.5t22.5 25t14 26t5 30.5q0 29 -22.5 49.5t-55.5 20.5q-38 0 -62.5 -22t-37.5 -58l-134 58q13 32 34 61t51 51.5t71 36t94 13.5q48 0 88 -13.5t69 -38t45 -59
t16 -75.5q0 -36 -9.5 -66t-27.5 -57.5t-45 -54.5t-62 -56l-169 -142z" />
    <glyph glyph-name="three" unicode="3" horiz-adv-x="575" 
d="M237 -16q-92 0 -155 48.5t-79 135.5l147 55q5 -46 32.5 -69.5t69.5 -23.5q45 0 75 24t30 63q0 71 -102 71h-59l24 136h55q22 0 41.5 5t34.5 14.5t24 24.5t9 36q0 26 -19 43t-51 17q-40 0 -62 -23t-33 -52l-131 60q12 29 32 56.5t50 48.5t70.5 33.5t93.5 12.5
q46 0 84 -13.5t65.5 -36.5t42.5 -54t15 -66q0 -31 -9 -57t-25 -46.5t-36.5 -35.5t-43.5 -24l-1 -10q34 -19 58.5 -53t24.5 -84q0 -54 -20 -97.5t-56 -74.5t-86 -47.5t-110 -16.5z" />
    <glyph glyph-name="four" unicode="4" horiz-adv-x="629" 
d="M287 0l21 117h-310l22 129l370 438h168l-75 -427h84l-25 -140h-84l-21 -117h-150zM368 459h-10l-170 -202h145z" />
    <glyph glyph-name="five" unicode="5" horiz-adv-x="583" 
d="M242 -16q-41 0 -80 11.5t-70.5 34.5t-54 57.5t-29.5 81.5l143 52q6 -45 32.5 -72t70.5 -27q21 0 41.5 7t36 21.5t25 35t9.5 47.5q0 35 -23 60t-61 25q-29 0 -52 -11t-41 -28l-135 56l99 349h399l-22 -128h-274l-51 -142l9 -4q18 16 44.5 29t65.5 13t74 -14t61 -40
t41.5 -64t15.5 -86q0 -55 -19 -103t-54.5 -84t-86 -56.5t-114.5 -20.5z" />
    <glyph glyph-name="six" unicode="6" horiz-adv-x="577" 
d="M349 443q30 0 60.5 -14t54.5 -39.5t39 -62.5t15 -82q0 -52 -18.5 -99.5t-54 -83.5t-88 -57t-120.5 -21q-51 0 -92 18t-70.5 48t-45 69t-15.5 81q0 43 11 78.5t29.5 67.5t44 62.5t55.5 63.5l209 234l101 -79l-158 -181l6 -7q7 2 17 3t20 1zM254 120q50 0 83 32t33 82
q0 37 -26 61.5t-68 24.5q-24 0 -45 -8.5t-36.5 -24t-24.5 -36.5t-9 -46q0 -38 27.5 -61.5t65.5 -23.5z" />
    <glyph glyph-name="seven" unicode="7" horiz-adv-x="557" 
d="M369 544h-295l26 140h475l-25 -146l-416 -554l-110 79l348 471z" />
    <glyph glyph-name="eight" unicode="8" horiz-adv-x="592" 
d="M243 -16q-55 0 -98.5 16t-74 42.5t-46.5 61.5t-16 73q0 62 36.5 109.5t99.5 73.5l1 10q-23 17 -40 46t-17 67q0 49 21.5 89t57.5 68.5t83.5 44t100.5 15.5q45 0 83 -13.5t65.5 -36.5t43 -54t15.5 -67q0 -54 -27 -96.5t-79 -69.5l-1 -10q32 -20 53.5 -53t21.5 -88
q0 -52 -21 -94t-58.5 -72t-89.5 -46t-114 -16zM316 421q45 0 72.5 22t27.5 59q0 27 -22.5 46.5t-61.5 19.5q-42 0 -72 -20.5t-30 -62.5q0 -29 24.5 -46.5t61.5 -17.5zM255 122q51 0 86 24t35 75q0 29 -24.5 49.5t-66.5 20.5q-23 0 -45 -6t-39 -18t-27.5 -29.5t-10.5 -40.5
q0 -36 24.5 -55.5t67.5 -19.5z" />
    <glyph glyph-name="nine" unicode="9" horiz-adv-x="577" 
d="M229 241q-28 0 -58.5 14t-56 39.5t-42 62.5t-16.5 82q0 52 18.5 99.5t54 83.5t88 57t120.5 21q51 0 92 -17.5t70.5 -47.5t45 -70.5t15.5 -86.5q0 -41 -11 -75t-29.5 -65.5t-44 -62t-55.5 -63.5l-209 -234l-101 79l158 181l-6 7q-7 -2 -15 -3t-18 -1zM320 564
q-50 0 -83 -32t-33 -82q0 -37 26 -61.5t68 -24.5q24 0 45 8.5t36.5 23.5t24.5 35.5t9 43.5q0 40 -27.5 64.5t-65.5 24.5z" />
    <glyph glyph-name="colon" unicode=":" horiz-adv-x="288" 
d="M153 314q-40 0 -68 28t-28 68t28 68t68 28t68 -28t28 -68t-28 -68t-68 -28zM97 -6q-40 0 -68 28t-28 68t28 68t68 28t68 -28t28 -68t-28 -68t-68 -28z" />
    <glyph glyph-name="semicolon" unicode=";" horiz-adv-x="291" 
d="M147 314q-40 0 -68 28t-28 68t28 68t68 28t68 -28t28 -68t-28 -68t-68 -28zM-36 -92l80 98q-20 14 -31.5 33t-11.5 51q0 40 28 68t68 28t68 -28t28 -68q0 -18 -6 -34.5t-23 -36.5l-135 -162z" />
    <glyph glyph-name="less" unicode="&#x3c;" horiz-adv-x="544" 
d="M29 214l22 122l462 190l-28 -156l-257 -97l-2 -10l223 -98l-26 -149z" />
    <glyph glyph-name="equal" unicode="=" 
d="M42 284h478l-24 -136h-478zM79 490h478l-24 -136h-478z" />
    <glyph glyph-name="greater" unicode="&#x3e;" horiz-adv-x="544" 
d="M483 328l-22 -122l-462 -190l28 156l257 97l2 10l-223 98l26 149z" />
    <glyph glyph-name="question" unicode="?" horiz-adv-x="524" 
d="M167 258l5 26q4 25 10.5 46t20 40.5t36 39t57.5 42.5q25 17 44.5 36t19.5 45t-19 42.5t-51 16.5q-38 0 -62 -21.5t-36 -53.5l-120 54q10 31 31.5 60.5t51.5 51.5t68.5 35.5t83.5 13.5q44 0 81.5 -12.5t64.5 -35.5t42 -55t15 -71q0 -57 -32.5 -99t-81.5 -82
q-21 -17 -34.5 -29.5t-21.5 -24.5t-13 -25.5t-9 -34.5l-1 -5h-150zM210 -6q-40 0 -68 28t-28 68t28 68t68 28t68 -28t28 -68t-28 -68t-68 -28z" />
    <glyph glyph-name="at" unicode="@" horiz-adv-x="882" 
d="M491 690q69 0 132.5 -22t112 -63.5t77.5 -102t29 -137.5q0 -54 -14 -103t-40 -86t-63.5 -58.5t-83.5 -21.5q-44 0 -73.5 18.5t-38.5 53.5q-24 -37 -61 -54.5t-78 -17.5q-36 0 -68 13.5t-56.5 37t-38.5 56.5t-14 72q0 41 13.5 82t41 73.5t68.5 53t96 20.5q38 0 62 -14
t38 -34h10l6 34h111l-42 -238q-1 -5 -1.5 -9t-0.5 -8q0 -22 10.5 -31.5t26.5 -9.5q19 0 34.5 13t26.5 35t16.5 50.5t5.5 58.5q0 49 -16.5 92.5t-49.5 76t-81.5 51.5t-112.5 19q-71 0 -131 -24t-103.5 -67.5t-68 -103t-24.5 -130.5q0 -54 20 -99.5t53 -78t76.5 -51
t91.5 -18.5q41 0 76.5 9.5t65.5 26.5l34 -97q-40 -20 -86 -29.5t-95 -9.5q-82 0 -147 28t-110 75t-69 109t-24 130q0 99 35 179t96.5 135.5t145 85.5t180.5 30zM409 204q45 0 73.5 30.5t28.5 81.5q0 37 -23.5 58.5t-55.5 21.5q-25 0 -44.5 -9t-33.5 -24.5t-21.5 -35.5
t-7.5 -42q0 -19 7 -34t19 -25.5t27 -16t31 -5.5z" />
    <glyph glyph-name="A" unicode="A" horiz-adv-x="740" 
d="M468 160h-259l-82 -160h-178l387 716h185l143 -716h-166zM282 302h160l-27 150l-8 88h-10l-38 -88z" />
    <glyph glyph-name="B" unicode="B" horiz-adv-x="646" 
d="M135 716h259q56 0 98 -14.5t70.5 -38.5t43 -56t14.5 -67q0 -36 -10.5 -63.5t-27.5 -47.5t-40 -32.5t-47 -19.5l-2 -10q38 -17 66.5 -52.5t28.5 -91.5q0 -53 -21.5 -94.5t-59.5 -70t-89 -43.5t-111 -15h-299zM361 432q47 0 75 19.5t28 58.5q0 32 -20 50t-54 18h-124
l-25 -146h120zM322 140q49 0 79.5 22.5t30.5 62.5q0 32 -20.5 53.5t-65.5 21.5h-129l-28 -160h133z" />
    <glyph glyph-name="C" unicode="C" horiz-adv-x="737" 
d="M671 115q-34 -36 -68 -60.5t-71.5 -40.5t-79.5 -23t-90 -7q-70 0 -130.5 23t-105.5 66.5t-70.5 106t-25.5 142.5q0 85 31.5 160t88 130.5t135.5 87.5t174 32q94 0 159.5 -32.5t107.5 -91.5l-124 -102q-27 35 -65.5 56.5t-99.5 21.5q-50 0 -95.5 -19t-80 -52.5t-55 -80.5
t-20.5 -103q0 -45 14 -81.5t39 -62t60 -39.5t76 -14q60 0 106 25t90 70z" />
    <glyph glyph-name="D" unicode="D" horiz-adv-x="733" 
d="M135 716h232q82 0 144.5 -23t105 -64.5t64 -100t21.5 -129.5q0 -81 -30 -153t-85.5 -127t-135 -87t-178.5 -32h-265zM279 148q62 0 111.5 17t84 48t53 73.5t18.5 93.5q0 91 -46 139.5t-146 48.5h-89l-75 -420h89z" />
    <glyph glyph-name="E" unicode="E" horiz-adv-x="596" 
d="M265 568l-24 -136h284l-27 -148h-284l-24 -136h316l-26 -148h-472l127 716h472l-26 -148h-316z" />
    <glyph glyph-name="F" unicode="F" horiz-adv-x="576" 
d="M135 716h472l-26 -148h-316l-26 -144h284l-26 -148h-284l-49 -276h-156z" />
    <glyph glyph-name="G" unicode="G" horiz-adv-x="815" 
d="M421 398h352q2 -11 2 -18v-15q0 -91 -33.5 -164t-92.5 -124q-52 -45 -118.5 -69t-141.5 -24q-84 0 -150 26t-112.5 72.5t-71 109.5t-24.5 137q0 79 31 152t87.5 129t135.5 89t176 33q96 0 165 -32t114 -88l-123 -106q-25 32 -66.5 55t-103.5 23q-53 0 -100 -17
t-82.5 -48.5t-56.5 -77.5t-21 -104q0 -47 15 -85t42.5 -64.5t65.5 -41t84 -14.5q45 0 80.5 11t62.5 31q23 17 39 41t27 53h-205z" />
    <glyph glyph-name="H" unicode="H" horiz-adv-x="730" 
d="M135 716h156l-49 -276h274l49 276h156l-127 -716h-156l52 292h-274l-52 -292h-156z" />
    <glyph glyph-name="I" unicode="I" horiz-adv-x="300" 
d="M135 716h156l-127 -716h-156z" />
    <glyph glyph-name="J" unicode="J" horiz-adv-x="571" 
d="M219 -16q-42 0 -81 13t-70 36.5t-51.5 56t-25.5 71.5l149 57q5 -38 30.5 -62t64.5 -24q81 0 99 100l85 484h156l-86 -486q-12 -66 -37 -113t-60 -76.5t-79 -43t-94 -13.5z" />
    <glyph glyph-name="K" unicode="K" horiz-adv-x="692" 
d="M135 716h156l-48 -272h10l279 272h190l-2 -10l-308 -294l212 -402l-2 -10h-182l-154 294l-84 -82l-38 -212h-156z" />
    <glyph glyph-name="L" unicode="L" horiz-adv-x="552" 
d="M135 716h156l-101 -568h300l-26 -148h-456z" />
    <glyph glyph-name="M" unicode="M" horiz-adv-x="870" 
d="M135 716h150l141 -350h10l265 350h160l-127 -716h-154l56 317l31 120h-10l-211 -285h-91l-116 285h-10l-11 -120l-56 -317h-154z" />
    <glyph glyph-name="N" unicode="N" horiz-adv-x="736" 
d="M135 716h172l188 -442h10l14 138l54 304h154l-127 -716h-156l-199 468h-10l-14 -138l-59 -330h-154z" />
    <glyph glyph-name="O" unicode="O" horiz-adv-x="828" 
d="M374 -16q-74 0 -137 24t-109 68.5t-72 106.5t-26 138q0 85 30.5 159.5t86 130.5t134 88.5t173.5 32.5q78 0 141.5 -25.5t108.5 -71t69.5 -107t24.5 -133.5q0 -85 -30.5 -159.5t-86 -130.5t-134 -88.5t-173.5 -32.5zM387 132q54 0 100.5 19.5t81 54.5t54 83t19.5 106
q0 40 -15 74.5t-42 60t-64 40t-80 14.5q-54 0 -100.5 -19.5t-81 -54t-54 -82t-19.5 -103.5q0 -42 15 -77t42 -61t64 -40.5t80 -14.5z" />
    <glyph glyph-name="P" unicode="P" horiz-adv-x="606" 
d="M8 0l127 716h241q50 0 92.5 -15.5t73.5 -44t48.5 -68.5t17.5 -88q0 -60 -21 -107t-59 -78.5t-90.5 -48t-115.5 -16.5h-114l-44 -250h-156zM340 398q51 0 82 23.5t31 69.5q0 34 -20 55.5t-63 21.5h-105l-30 -170h105z" />
    <glyph glyph-name="Q" unicode="Q" horiz-adv-x="828" 
d="M374 -16q-74 0 -137 24t-109 68.5t-72 106.5t-26 138q0 85 30.5 159.5t86 130.5t134 88.5t173.5 32.5q78 0 141.5 -25.5t108.5 -71t69.5 -107t24.5 -133.5q0 -99 -40.5 -183t-114.5 -141l39 -78l-137 -71l-40 80q-30 -8 -63 -13t-68 -5zM387 132q14 0 26.5 1.5t25.5 3.5
l-56 114l137 72l54 -111q32 35 50 81t18 102q0 40 -15 74.5t-42 60t-64 40t-80 14.5q-54 0 -100.5 -19.5t-81 -54t-54 -82t-19.5 -103.5q0 -42 15 -77t42 -61t64 -40.5t80 -14.5z" />
    <glyph glyph-name="R" unicode="R" horiz-adv-x="641" 
d="M135 716h235q56 0 101 -16.5t76.5 -44t48.5 -64.5t17 -78q0 -47 -15 -85.5t-40 -68.5t-57 -50.5t-66 -29.5l-2 -9l136 -260l-2 -10h-168l-135 258h-54l-46 -258h-156zM349 402q48 0 78 22t30 70q0 37 -24 57.5t-63 20.5h-105l-30 -170h114z" />
    <glyph glyph-name="S" unicode="S" horiz-adv-x="586" 
d="M243 -16q-45 0 -86 13t-74 38.5t-56 64.5t-32 91l149 60q4 -51 33 -85t82 -34q48 0 77.5 20.5t29.5 55.5q0 33 -23.5 56.5t-86.5 48.5l-31 12q-30 12 -57 29t-47 41t-32 55t-12 71q0 45 19.5 84t54 67t82 44t104.5 16q56 0 95.5 -15t65.5 -38t40.5 -50.5t20.5 -52.5
l-141 -54q-18 68 -98 68q-17 0 -32.5 -4.5t-28.5 -12.5t-20.5 -20t-7.5 -28q0 -29 22 -48.5t73 -38.5l41 -15q75 -28 115 -74.5t40 -125.5q0 -50 -19.5 -93.5t-56 -76t-88 -51t-115.5 -18.5z" />
    <glyph glyph-name="T" unicode="T" horiz-adv-x="604" 
d="M160 0l101 568h-200l26 148h556l-26 -148h-200l-101 -568h-156z" />
    <glyph glyph-name="U" unicode="U" horiz-adv-x="682" 
d="M288 -16q-57 0 -103 18t-78.5 50.5t-49.5 77.5t-17 100q0 31 8 77l72 409h156l-76 -432q-4 -19 -4 -40q0 -51 27 -81.5t84 -30.5q60 0 99.5 40.5t51.5 111.5l76 432h156l-77 -438q-14 -77 -42.5 -132.5t-70 -91.5t-95.5 -53t-117 -17z" />
    <glyph glyph-name="V" unicode="V" horiz-adv-x="704" 
d="M75 716h166l66 -394l10 -100h10l46 100l210 394h172l-386 -716h-165z" />
    <glyph glyph-name="W" unicode="W" horiz-adv-x="970" 
d="M79 716h165l31 -375l1 -86h10l37 86l134 279h148l39 -279l5 -84h10l30 84l159 375h169l-314 -716h-149l-47 314l-6 86h-10l-36 -86l-154 -314h-152z" />
    <glyph glyph-name="X" unicode="X" horiz-adv-x="716" 
d="M258 378l-173 338h200l93 -210h10l163 210h204l-293 -352l184 -364h-193l-111 230h-10l-181 -230h-207z" />
    <glyph glyph-name="Y" unicode="Y" horiz-adv-x="658" 
d="M248 333l-173 383h181l90 -210h10l158 210h195l-305 -383l-59 -333h-156z" />
    <glyph glyph-name="Z" unicode="Z" horiz-adv-x="612" 
d="M-3 156l418 412h-330l26 148h520l-28 -156l-413 -412h344l-26 -148h-539z" />
    <glyph glyph-name="bracketleft" unicode="[" horiz-adv-x="374" 
d="M152 792h270l-22 -124h-120l-117 -668h120l-22 -124h-269z" />
    <glyph glyph-name="backslash" unicode="\" horiz-adv-x="501" 
d="M263 0l-170 716h144l170 -716h-144z" />
    <glyph glyph-name="bracketright" unicode="]" horiz-adv-x="374" 
d="M221 -124h-270l22 124h120l117 668h-120l22 124h269z" />
    <glyph glyph-name="asciicircum" unicode="^" horiz-adv-x="538" 
d="M382 410l-67 164h-10l-121 -164h-163l247 306h128l139 -306h-153z" />
    <glyph glyph-name="underscore" unicode="_" horiz-adv-x="508" 
d="M-58 -80h507l-24 -136h-507z" />
    <glyph glyph-name="grave" unicode="`" horiz-adv-x="464" 
d="M234 588l-72 140h173l13 -140h-114z" />
    <glyph glyph-name="a" unicode="a" horiz-adv-x="548" 
d="M310 44h-10q-23 -26 -53 -43t-78 -17q-38 0 -68 12t-51.5 33t-33 49t-11.5 61q0 84 61 131.5t165 47.5q35 0 65 -6t58 -14l3 13q2 10 2 14q0 27 -24 45t-63 18q-37 0 -65.5 -14t-48.5 -37l-96 70q42 52 102 75.5t127 23.5q105 0 160 -49.5t55 -129.5q0 -12 -1.5 -24.5
t-3.5 -26.5l-49 -276h-150zM336 193q-46 19 -95 19q-37 0 -61 -15t-24 -47q0 -26 19.5 -40t48.5 -14q22 0 41.5 8.5t34 22.5t24 31.5t12.5 34.5z" />
    <glyph glyph-name="b" unicode="b" horiz-adv-x="612" 
d="M134 0h-140l126 716h150l-38 -210l-22 -70h10q18 25 55 47.5t93 22.5q41 0 77.5 -16t64 -45t43.5 -71.5t16 -94.5q0 -65 -21.5 -119t-58 -93t-85 -61t-101.5 -22q-55 0 -92.5 20.5t-57.5 49.5h-10zM282 124q28 0 53 10.5t43.5 29t29.5 43t11 52.5q0 48 -29 77.5t-76 29.5
q-34 0 -60 -11.5t-44 -30.5t-27 -44t-9 -53q0 -24 9 -43.5t24 -32.5t34.5 -20t40.5 -7z" />
    <glyph glyph-name="c" unicode="c" horiz-adv-x="556" 
d="M504 125q-42 -71 -109 -106t-148 -35q-52 0 -96 16.5t-76.5 47t-51 73.5t-18.5 96q0 55 21 107t60 92.5t96 65t129 24.5q82 0 139 -38t80 -107l-140 -55q-12 30 -38.5 45t-61.5 15q-31 0 -56 -11t-42.5 -29t-27 -42t-9.5 -50q0 -27 9 -47.5t24 -34.5t34 -21t39 -7
q41 0 68.5 17t44.5 47z" />
    <glyph glyph-name="d" unicode="d" horiz-adv-x="612" 
d="M363 54h-10q-18 -26 -53 -48t-93 -22q-44 0 -81 18t-64 49.5t-42 73.5t-15 91q0 58 19.5 110.5t55.5 92.5t86 63.5t112 23.5q49 0 89 -20.5t56 -49.5h10v70l37 210h150l-126 -716h-140zM267 124q24 0 48 9t42.5 26.5t30 43t11.5 59.5q0 45 -30.5 74.5t-80.5 29.5
q-30 0 -55 -11.5t-42 -30.5t-26.5 -44t-9.5 -52q0 -48 31.5 -76t80.5 -28z" />
    <glyph glyph-name="e" unicode="e" horiz-adv-x="566" 
d="M494 122q-23 -32 -47.5 -57.5t-54.5 -43.5t-67 -27.5t-85 -9.5q-54 0 -97 18.5t-74 50.5t-47.5 75t-16.5 92q0 56 21.5 108t60.5 91.5t93.5 63t120.5 23.5q55 0 96.5 -16.5t70 -44.5t43 -65t14.5 -77q0 -28 -4 -50.5t-12 -44.5h-361q2 -48 33 -70t72 -22q48 0 77.5 16
t50.5 48zM389 310q0 30 -25 54t-74 24q-44 0 -77.5 -23t-46.5 -55h223z" />
    <glyph glyph-name="f" unicode="f" horiz-adv-x="412" 
d="M364 724q28 0 54 -8t46 -19l-61 -128q-9 6 -19.5 9.5t-25.5 3.5q-31 0 -48.5 -17t-22.5 -46l-5 -29h119l-22 -126h-119l-64 -364h-150l64 364h-86l22 126h86l6 36q17 101 74.5 149.5t151.5 48.5z" />
    <glyph glyph-name="g" unicode="g" horiz-adv-x="608" 
d="M216 -232q-50 0 -89.5 12.5t-68 33.5t-47 48t-26.5 57l147 53q8 -38 34.5 -55t59.5 -17q60 0 95.5 29t47.5 95l7 38h-10q-22 -32 -58.5 -47t-79.5 -15q-44 0 -81.5 16t-64.5 45t-42 69.5t-15 89.5q0 53 18 104.5t52.5 92t84.5 65t114 24.5q46 0 82 -15t57 -47h10l8 46
h144l-84 -476q-20 -116 -90.5 -181t-204.5 -65zM279 136q25 0 48.5 9.5t42 27.5t30 43t11.5 57q0 24 -9 42.5t-23.5 30.5t-33 18t-37.5 6q-27 0 -51.5 -11t-42.5 -30t-28.5 -43t-10.5 -51q0 -25 8.5 -43.5t23 -31t33 -18.5t39.5 -6z" />
    <glyph glyph-name="h" unicode="h" 
d="M119 716h150l-34 -188l-27 -100h10q26 39 67 58.5t91 19.5q39 0 68 -13t48.5 -35t29 -50.5t9.5 -59.5q0 -14 -1.5 -27.5t-3.5 -28.5l-52 -292h-150l49 275q1 4 1.5 11.5t0.5 13.5q0 26 -15.5 46t-48.5 20q-29 0 -50.5 -10.5t-37 -29t-25 -44.5t-15.5 -57l-40 -225h-150z
" />
    <glyph glyph-name="i" unicode="i" horiz-adv-x="278" 
d="M0 0l85 490h150l-85 -490h-150zM186 544q-20 0 -37 7.5t-29.5 20t-20 29.5t-7.5 37q0 19 7.5 36.5t20 30t29.5 20t37 7.5q19 0 36.5 -7.5t30 -20t20 -30t7.5 -36.5q0 -20 -7.5 -37t-20 -29.5t-30 -20t-36.5 -7.5z" />
    <glyph glyph-name="j" unicode="j" horiz-adv-x="278" 
d="M-90 -78q16 -10 35 -10q39 0 48 50l92 528h150l-92 -532q-9 -54 -26 -89.5t-40.5 -56.5t-54.5 -29.5t-69 -8.5q-23 0 -50 4t-46 12zM186 544q-20 0 -37 7.5t-29.5 20t-20 29.5t-7.5 37q0 19 7.5 36.5t20 30t29.5 20t37 7.5q19 0 36.5 -7.5t30 -20t20 -30t7.5 -36.5
q0 -20 -7.5 -37t-20 -29.5t-30 -20t-36.5 -7.5z" />
    <glyph glyph-name="k" unicode="k" horiz-adv-x="553" 
d="M119 716h150l-63 -360h10l157 134h189l-2 -10l-211 -175l147 -295l-2 -10h-169l-96 207l-58 -48l-28 -159h-150z" />
    <glyph glyph-name="l" unicode="l" horiz-adv-x="262" 
d="M-7 0l126 716h150l-126 -716h-150z" />
    <glyph glyph-name="m" unicode="m" horiz-adv-x="894" 
d="M79 490h140l-11 -62h10q29 38 65 58t90 20q56 0 89 -26.5t45 -61.5q12 18 28.5 34t38 28t48.5 19t60 7q37 0 66 -12t49 -32.5t30 -49t10 -61.5q0 -10 -1 -20t-3 -21l-55 -310h-150l50 281q1 6 1.5 12.5t0.5 11.5q0 27 -14.5 44t-44.5 17q-47 0 -78.5 -39.5t-43.5 -105.5
l-39 -221h-150l50 281q1 5 1.5 10t0.5 13q0 30 -17 46t-46 16q-46 0 -75.5 -39.5t-41.5 -105.5l-39 -221h-150z" />
    <glyph glyph-name="n" unicode="n" 
d="M208 428h10q26 39 67 58.5t91 19.5q39 0 68 -13t48.5 -35t29 -50.5t9.5 -59.5q0 -14 -1.5 -27.5t-3.5 -28.5l-52 -292h-150l49 275q1 4 1.5 11.5t0.5 13.5q0 26 -15.5 46t-48.5 20q-29 0 -50.5 -10.5t-37 -29t-25 -44.5t-15.5 -57l-40 -225h-150l86 490h140z" />
    <glyph glyph-name="o" unicode="o" horiz-adv-x="584" 
d="M305 506q54 0 98 -17.5t75 -48t47.5 -71.5t16.5 -88q0 -63 -22 -117.5t-62 -94t-95 -62.5t-121 -23q-54 0 -98 17.5t-75 48t-47.5 72t-16.5 88.5q0 63 22 117t62 93.5t95 62.5t121 23zM257 124q27 0 51.5 10.5t43 29.5t29.5 44t11 55q0 45 -28.5 74t-73.5 29
q-27 0 -51.5 -10.5t-43 -29.5t-29.5 -44t-11 -55q0 -45 29 -74t73 -29z" />
    <glyph glyph-name="p" unicode="p" horiz-adv-x="608" 
d="M226 436h10q18 26 53 48t93 22q44 0 81 -18t64 -49.5t42 -73.5t15 -91q0 -58 -19.5 -110.5t-55.5 -92.5t-86.5 -63.5t-111.5 -23.5q-49 0 -89 20.5t-56 49.5h-10v-70l-35 -200h-150l124 706h140zM322 366q-24 0 -48 -9t-42.5 -26.5t-30 -43t-11.5 -59.5q0 -45 30.5 -74.5
t80.5 -29.5q30 0 55 11.5t42 30.5t26.5 44t9.5 52q0 48 -31.5 76t-80.5 28z" />
    <glyph glyph-name="q" unicode="q" horiz-adv-x="608" 
d="M440 490h140l-123 -706h-150l35 200l22 70h-10q-18 -25 -55 -47.5t-93 -22.5q-41 0 -77.5 16t-64 45t-43.5 71t-16 95q0 65 21.5 119t58 93t85 61t101.5 22q55 0 92.5 -20.5t57.5 -49.5h10zM292 366q-28 0 -53 -10.5t-43.5 -29t-29.5 -43t-11 -52.5q0 -48 29 -77.5
t76 -29.5q34 0 60 11.5t44 30.5t27 44t9 53q0 24 -9 43.5t-24 32.5t-34.5 20t-40.5 7z" />
    <glyph glyph-name="r" unicode="r" horiz-adv-x="429" 
d="M79 490h140l-11 -62h10q26 32 61 54t86 22q27 0 45.5 -6.5t30.5 -14.5l-54 -132q-10 5 -26 10t-39 5q-57 0 -93 -39t-47 -102l-39 -225h-150z" />
    <glyph glyph-name="s" unicode="s" horiz-adv-x="497" 
d="M207 -16q-46 0 -83.5 11t-65 30t-46 44.5t-27.5 54.5l137 56q8 -34 34 -49t62 -15q26 0 47.5 8.5t21.5 28.5q0 17 -15 26.5t-46 17.5l-52 13q-21 5 -44.5 16.5t-42.5 28.5t-31.5 41t-12.5 54q0 38 17 67.5t46.5 49t70.5 29.5t89 10q76 0 124.5 -28t75.5 -91l-136 -49
q-8 26 -30.5 38t-46.5 12q-32 0 -47 -9t-15 -22q0 -15 14 -24.5t35 -14.5l73 -18q63 -16 94 -53t31 -82q0 -42 -18 -76t-49.5 -57t-73.5 -35.5t-90 -12.5z" />
    <glyph glyph-name="t" unicode="t" horiz-adv-x="425" 
d="M111 364h-86l22 126h86l27 150h150l-27 -150h121l-22 -126h-121l-29 -165q-1 -6 -1 -9v-7q0 -20 10.5 -34.5t36.5 -14.5q16 0 27.5 4t20.5 10l22 -135q-39 -21 -113 -21q-71 0 -114.5 37t-43.5 114q0 13 1.5 26.5t3.5 27.5z" />
    <glyph glyph-name="u" unicode="u" 
d="M343 62h-10q-26 -39 -67 -58.5t-91 -19.5q-39 0 -68 13t-48.5 35t-29 50.5t-9.5 59.5q0 14 1.5 27.5t3.5 28.5l52 292h150l-49 -275q-1 -4 -1.5 -11.5t-0.5 -13.5q0 -26 15.5 -46t48.5 -20q58 0 87.5 39.5t40.5 101.5l40 225h150l-86 -490h-140z" />
    <glyph glyph-name="v" unicode="v" horiz-adv-x="586" 
d="M31 490h173l54 -278h10l161 278h176l-301 -490h-150z" />
    <glyph glyph-name="w" unicode="w" horiz-adv-x="830" 
d="M28 490h164l25 -276h10l134 276h156l40 -276h10l112 276h170l-238 -490h-165l-38 276h-10l-135 -276h-162z" />
    <glyph glyph-name="x" unicode="x" horiz-adv-x="535" 
d="M159 259l-127 231h180l52 -118h10l90 118h186l-211 -241l126 -249h-176l-54 124h-10l-95 -124h-185z" />
    <glyph glyph-name="y" unicode="y" horiz-adv-x="581" 
d="M157 28l-123 462h171l64 -270h10l158 270h170l-432 -706h-166z" />
    <glyph glyph-name="z" unicode="z" horiz-adv-x="488" 
d="M-9 120l273 246h-223l22 124h412l-21 -120l-275 -246h235l-22 -124h-423z" />
    <glyph glyph-name="braceleft" unicode="{" horiz-adv-x="347" 
d="M160 329q29 -8 42 -27t13 -49q0 -13 -1.5 -23t-3.5 -23l-23 -133q-1 -5 -1.5 -9.5t-0.5 -12.5q0 -27 15.5 -39.5t41.5 -12.5h14l-22 -124h-41q-72 0 -116.5 40.5t-44.5 111.5q0 10 1 18t3 22l25 145q1 5 1 8v7q0 43 -50 43l23 126q23 0 43.5 14.5t25.5 43.5l28 159
q14 78 68.5 128t145.5 50h49l-22 -124h-14q-35 0 -55 -20t-26 -54l-23 -133q-9 -51 -29 -81t-64 -41z" />
    <glyph glyph-name="bar" unicode="|" horiz-adv-x="282" 
d="M-8 -120l160 912h138l-160 -912h-138z" />
    <glyph glyph-name="braceright" unicode="}" horiz-adv-x="347" 
d="M186 339q-29 8 -42 27t-13 49q0 13 1.5 23t3.5 23l23 133q1 5 1.5 9.5t0.5 12.5q0 27 -15.5 39.5t-41.5 12.5h-14l22 124h41q72 0 116.5 -40.5t44.5 -111.5q0 -10 -1 -18t-3 -22l-25 -145q-1 -5 -1 -8v-7q0 -43 50 -43l-23 -126q-23 0 -43.5 -14.5t-25.5 -43.5l-28 -159
q-14 -78 -68.5 -128t-145.5 -50h-49l22 124h14q35 0 55 20t26 54l23 133q9 51 29 81t64 41z" />
    <glyph glyph-name="asciitilde" unicode="~" horiz-adv-x="566" 
d="M347 218q-35 0 -58.5 8.5t-41.5 19.5q-19 10 -36 19t-39 9q-21 0 -35 -11t-20 -29h-123q6 37 20.5 67t37.5 51.5t55.5 33.5t75.5 12q36 0 60 -9t42 -19q18 -11 34.5 -19.5t38.5 -8.5q21 0 35 11t20 29h124q-15 -74 -59.5 -119t-130.5 -45z" />
    <glyph glyph-name="uni00A0" unicode="&#xa0;" horiz-adv-x="220" 
d="M0 0z" />
    <glyph glyph-name="exclamdown" unicode="&#xa1;" horiz-adv-x="288" 
d="M174 -20l-34 -196h-156l34 196l61 262h128zM172 506q40 0 68 -28t28 -68t-28 -68t-68 -28t-68 28t-28 68t28 68t68 28z" />
    <glyph glyph-name="cent" unicode="&#xa2;" horiz-adv-x="547" 
d="M499 226q-37 -63 -89 -99t-127 -42l-15 -85h-96l16 89q-35 9 -65.5 28.5t-53 47.5t-35.5 64t-13 78q0 55 18 104.5t52 88.5t81 64.5t106 33.5l15 86h96l-16 -87q59 -9 99 -43t61 -88l-127 -53q-5 19 -19.5 35.5t-35.5 22.5l-46 -261q29 2 51 20t38 46zM156 324
q0 -38 14.5 -65t40.5 -41l44 253q-50 -18 -74.5 -58.5t-24.5 -88.5z" />
    <glyph glyph-name="sterling" unicode="&#xa3;" horiz-adv-x="547" 
d="M238 240q-7 -31 -24.5 -56t-42.5 -45l4 -9h135q31 0 48 15t29 45l105 -50q-25 -69 -69.5 -104.5t-125.5 -35.5h-328l21 119q19 7 37.5 18t34 26.5t26.5 34.5t15 42h-87l19 112h48q-11 29 -20.5 61t-9.5 73q0 46 17.5 85.5t49.5 68t77 44.5t100 16q48 0 83.5 -13t60 -34
t39 -48.5t19.5 -55.5l-140 -53q-4 32 -20.5 53t-57.5 21q-38 0 -63 -26t-25 -66q0 -36 10.5 -66.5t21.5 -59.5h133l-19 -112h-101z" />
    <glyph glyph-name="currency" unicode="&#xa4;" horiz-adv-x="614" 
d="M117 209q-15 25 -23.5 54.5t-8.5 61.5t8.5 61.5t23.5 54.5l-57 57l69 70l58 -57q26 16 56.5 24.5t63.5 8.5t63.5 -8.5t56.5 -24.5l58 57l69 -70l-57 -57q15 -25 23.5 -54.5t8.5 -61.5t-8.5 -61.5t-23.5 -54.5l57 -57l-69 -70l-58 57q-26 -16 -56.5 -24.5t-63.5 -8.5
t-63.5 8.5t-56.5 24.5l-58 -57l-69 70zM205 325q0 -45 29 -75t73 -30t73 30t29 75t-29 75t-73 30t-73 -30t-29 -75z" />
    <glyph glyph-name="yen" unicode="&#xa5;" horiz-adv-x="662" 
d="M106 441h76l-113 243h185l73 -173l13 -70h10l37 70l129 173h191l-196 -243h73l-24 -136h-159l-9 -53h159l-24 -136h-159l-21 -116h-156l21 116h-163l24 136h163l9 53h-163z" />
    <glyph glyph-name="brokenbar" unicode="&#xa6;" horiz-adv-x="282" 
d="M79 376l67 380h138l-67 -380h-138zM202 292l-72 -412h-138l72 412h138z" />
    <glyph glyph-name="section" unicode="&#xa7;" horiz-adv-x="572" 
d="M37 245q0 54 25.5 94.5t71.5 69.5q-22 23 -35 52t-13 63q0 48 21 86.5t56 65.5t80.5 41.5t94.5 14.5q48 0 83 -12.5t60.5 -34t41 -50t24.5 -59.5l-146 -53q-7 29 -25.5 51t-57.5 22q-32 0 -56 -15.5t-24 -42.5q0 -26 19 -43.5t72 -35.5l43 -15q74 -26 108 -69t34 -105
q0 -30 -8 -55.5t-20.5 -46.5t-29 -37.5t-33.5 -28.5q17 -21 27 -48.5t10 -61.5q0 -47 -21.5 -87.5t-57 -71t-81.5 -48t-94 -17.5q-54 0 -97 16.5t-73.5 43.5t-47.5 63t-19 75l133 47q7 -51 36.5 -80t76.5 -29q18 0 35.5 5t30.5 14t21 22t8 30q0 35 -25.5 53.5t-82.5 39.5
l-43 16q-26 10 -48 26t-38.5 37t-26 46t-9.5 52zM179 277q0 -59 88 -91l57 -20q17 14 27.5 32t10.5 42q0 36 -21.5 57.5t-79.5 42.5l-30 10q-22 -12 -37 -30t-15 -43z" />
    <glyph glyph-name="dieresis" unicode="&#xa8;" horiz-adv-x="478" 
d="M110 659q0 33 23 56t56 23t56 -23t23 -56t-23 -56t-56 -23t-56 23t-23 56zM312 659q0 33 23 56t56 23t56 -23t23 -56t-23 -56t-56 -23t-56 23t-23 56z" />
    <glyph glyph-name="copyright" unicode="&#xa9;" horiz-adv-x="532" 
d="M266 272q-48 0 -89.5 18t-73 49.5t-49.5 73t-18 89.5q0 47 18 89t49.5 73.5t73 49.5t89.5 18q47 0 89 -18t73.5 -49.5t49.5 -73.5t18 -89q0 -48 -18 -89.5t-49.5 -73t-73.5 -49.5t-89 -18zM266 320q38 0 71 14.5t58 39.5t39 58t14 70q0 38 -14 71t-39 58t-58 39t-71 14
q-37 0 -70 -14t-58 -39t-39.5 -58t-14.5 -71q0 -37 14.5 -70t39.5 -58t58 -39.5t70 -14.5zM270 383q-26 0 -47.5 9.5t-37.5 25.5t-25 38t-9 46q0 25 9 46.5t25 37.5t37.5 25.5t47.5 9.5q31 0 50.5 -11t36.5 -28l-32 -29q-11 11 -22 17.5t-33 6.5q-29 0 -51 -21.5t-22 -53.5
t22 -53.5t51 -21.5q21 0 35 8.5t25 22.5l34 -27q-16 -21 -39 -34.5t-55 -13.5z" />
    <glyph glyph-name="ordfeminine" unicode="&#xaa;" horiz-adv-x="503" 
d="M322 324h-10q-23 -23 -53.5 -37.5t-68.5 -14.5q-32 0 -58 10.5t-45.5 28.5t-30 42t-10.5 51q0 37 14 67t39.5 51t61 32.5t79.5 11.5q72 0 121 -23l2 12q1 5 1 8v5q0 26 -21 44t-61 18q-27 0 -54 -13t-44 -36l-83 61q35 48 89 69t108 21q97 0 148 -41t51 -113
q0 -17 -3 -36l-46 -256h-133zM345 456q-19 8 -43.5 12.5t-45.5 4.5q-30 0 -53 -13.5t-23 -42.5q0 -23 18 -34.5t47 -11.5q18 0 35 7.5t30.5 20t22.5 27.5t12 30z" />
    <glyph glyph-name="guillemotleft" unicode="&#xab;" horiz-adv-x="637" 
d="M295 111l-95 -75l-176 235l259 235l76 -84l-177 -159zM530 111l-95 -75l-176 235l259 235l76 -84l-177 -159z" />
    <glyph glyph-name="logicalnot" unicode="&#xac;" horiz-adv-x="610" 
d="M57 413h482l-54 -308h-136l31 176h-346z" />
    <glyph glyph-name="uni00AD" unicode="&#xad;" horiz-adv-x="460" 
d="M59 378h348l-24 -136h-348z" />
    <glyph glyph-name="registered" unicode="&#xae;" horiz-adv-x="532" 
d="M266 272q-48 0 -89.5 18t-73 49.5t-49.5 73t-18 89.5q0 47 18 89t49.5 73.5t73 49.5t89.5 18q47 0 89 -18t73.5 -49.5t49.5 -73.5t18 -89q0 -48 -18 -89.5t-49.5 -73t-73.5 -49.5t-89 -18zM266 320q38 0 71 14.5t58 39.5t39 58t14 70q0 38 -14 71t-39 58t-58 39t-71 14
q-37 0 -70 -14t-58 -39t-39.5 -58t-14.5 -71q0 -37 14.5 -70t39.5 -58t58 -39.5t70 -14.5zM189 389v226h96q29 0 51 -20.5t22 -51.5q0 -23 -14.5 -41.5t-35.5 -24.5l-2 -2l60 -84v-2h-52l-55 84h-24v-84h-46zM281 515q12 0 21.5 7.5t9.5 20.5q0 10 -8 19t-22 9h-47v-56h46z
" />
    <glyph glyph-name="macron" unicode="&#xaf;" horiz-adv-x="424" 
d="M103 602l20 114h304l-20 -114h-304z" />
    <glyph glyph-name="degree" unicode="&#xb0;" horiz-adv-x="325" 
d="M195 526q21 0 35.5 14t14.5 36q0 17 -10.5 28.5t-29.5 11.5q-22 0 -36.5 -14.5t-14.5 -36.5q0 -18 12 -28.5t29 -10.5zM186 442q-24 0 -45.5 8t-38 23t-26 36t-9.5 47q0 32 11 58.5t30.5 45.5t46 29.5t58.5 10.5q24 0 45.5 -8.5t38 -23.5t26 -36t9.5 -46q0 -32 -11 -58.5
t-30.5 -45.5t-46.5 -29.5t-58 -10.5z" />
    <glyph glyph-name="plusminus" unicode="&#xb1;" horiz-adv-x="578" 
d="M396 583l-23 -133h165l-22 -124h-165l-24 -133h-136l24 133h-165l22 124h165l23 133h136zM16 136h466l-24 -136h-465z" />
    <glyph glyph-name="twosuperior" unicode="&#xb2;" horiz-adv-x="324" 
d="M26 350l12 65q36 31 67 57q26 22 50 43q23 20 30 25q6 6 15 13q8 7 15.5 15t12.5 17t5 19q0 15 -9.5 24.5t-26.5 9.5q-36 0 -47 -43l-83 30q14 45 52 72t95 27q58 0 90 -29t32 -73q0 -18 -4.5 -33t-14 -28.5t-24 -27.5t-33.5 -31l-77 -66h126l-16 -86h-267z" />
    <glyph glyph-name="threesuperior" unicode="&#xb3;" horiz-adv-x="341" 
d="M172 342q-49 0 -87 26.5t-47 74.5l84 31q8 -26 22.5 -37t35.5 -11q18 0 34 10t16 31q0 17 -13.5 26t-36.5 9h-37l14 76h33q22 0 38.5 7.5t16.5 26.5q0 13 -11 20.5t-24 7.5q-20 0 -32.5 -9.5t-18.5 -22.5l-80 35q19 36 54.5 58.5t91.5 22.5q52 0 85 -26.5t33 -66.5
q0 -33 -15.5 -53.5t-42.5 -34.5q19 -11 30.5 -29t11.5 -41q0 -29 -11.5 -53.5t-32 -41.5t-49 -26.5t-62.5 -9.5z" />
    <glyph glyph-name="acute" unicode="&#xb4;" horiz-adv-x="464" 
d="M191 588l62 140h179l-123 -140h-118z" />
    <glyph glyph-name="mu" unicode="&#xb5;" 
d="M77 490h150l-49 -275q-1 -4 -1.5 -11.5t-0.5 -13.5q0 -26 15.5 -46t48.5 -20q58 0 87.5 39.5t40.5 101.5l40 225h150l-86 -490h-140l11 62h-10q-26 -39 -57 -58.5t-80 -19.5q-16 0 -32 4.5t-27 11.5h-10v-69l-26 -147h-149z" />
    <glyph glyph-name="paragraph" unicode="&#xb6;" horiz-adv-x="652" 
d="M264 -216v512h-16q-45 0 -85.5 14.5t-71 41.5t-49 66t-18.5 88t18.5 88t49 66t71 41.5t85.5 14.5h324v-932h-122v816h-64v-816h-122z" />
    <glyph glyph-name="periodcentered" unicode="&#xb7;" horiz-adv-x="232" 
d="M110 228q-40 0 -68 28t-28 68t28 68t68 28t68 -28t28 -68t-28 -68t-68 -28z" />
    <glyph glyph-name="cedilla" unicode="&#xb8;" horiz-adv-x="416" 
d="M99 -237q-35 0 -64 19t-36 46l74 29q2 -11 10.5 -18t20.5 -7q13 0 22 8t9 22q0 28 -27 28q-8 0 -14.5 -4t-9.5 -9l-62 31l52 92h74l-29 -47q6 1 10 1h7q35 0 57.5 -24.5t22.5 -60.5q0 -51 -33.5 -78.5t-83.5 -27.5z" />
    <glyph glyph-name="onesuperior" unicode="&#xb9;" horiz-adv-x="287" 
d="M127 350l45 252l-66 -27l-33 81l143 60h74l-65 -366h-98z" />
    <glyph glyph-name="ordmasculine" unicode="&#xba;" horiz-adv-x="544" 
d="M326 732q46 0 84 -13.5t66 -39.5t43.5 -63t15.5 -85q0 -52 -20 -99t-56 -82.5t-86 -56.5t-109 -21q-46 0 -84.5 13.5t-66 39.5t-43 63t-15.5 85q0 52 20 99t56 82.5t86 56.5t109 21zM276 396q25 0 47.5 9.5t39.5 26t27.5 38.5t10.5 48q0 40 -23.5 65t-63.5 25
q-25 0 -47.5 -9.5t-40 -26t-27.5 -39t-10 -47.5q0 -40 23.5 -65t63.5 -25z" />
    <glyph glyph-name="guillemotright" unicode="&#xbb;" horiz-adv-x="637" 
d="M75 431l95 75l176 -235l-259 -235l-76 84l177 159zM310 431l95 75l176 -235l-259 -235l-76 84l177 159z" />
    <glyph glyph-name="onequarter" unicode="&#xbc;" horiz-adv-x="788" 
d="M74 41l586 694l79 -61l-586 -694zM151 350l45 252l-66 -27l-33 81l143 60h74l-65 -366h-98zM378 134l210 232h98l-40 -224h47l-14 -80h-47l-11 -62h-94l11 62h-173zM552 142l17 93h-10l-80 -93h73z" />
    <glyph glyph-name="onehalf" unicode="&#xbd;" horiz-adv-x="824" 
d="M66 41l586 694l79 -61l-586 -694zM151 350l45 252l-66 -27l-33 81l143 60h74l-65 -366h-98zM437 0l12 65q36 31 67 57q26 22 50 43q23 20 30 25q6 6 15 13q8 7 15.5 15t12.5 17t5 19q0 15 -9.5 24.5t-26.5 9.5q-36 0 -47 -43l-83 30q14 45 52 72t95 27q58 0 90 -29
t32 -73q0 -18 -4.5 -33t-14 -28.5t-24 -27.5t-33.5 -31l-77 -66h126l-16 -86h-267z" />
    <glyph glyph-name="threequarters" unicode="&#xbe;" horiz-adv-x="850" 
d="M124 41l586 694l79 -61l-586 -694zM196 342q-49 0 -87 26.5t-47 74.5l84 31q8 -26 22.5 -37t35.5 -11q18 0 34 10t16 31q0 17 -13.5 26t-36.5 9h-37l14 76h33q22 0 38.5 7.5t16.5 26.5q0 13 -11 20.5t-24 7.5q-20 0 -32.5 -9.5t-18.5 -22.5l-80 35q19 36 54.5 58.5
t91.5 22.5q52 0 85 -26.5t33 -66.5q0 -33 -15.5 -53.5t-42.5 -34.5q19 -11 30.5 -29t11.5 -41q0 -29 -11.5 -53.5t-32 -41.5t-49 -26.5t-62.5 -9.5zM438 134l210 232h98l-40 -224h47l-14 -80h-47l-11 -62h-94l11 62h-173zM612 142l17 93h-10l-80 -93h73z" />
    <glyph glyph-name="questiondown" unicode="&#xbf;" horiz-adv-x="513" 
d="M326 242l-5 -26q-4 -25 -10.5 -46t-20 -40.5t-36 -39t-57.5 -42.5q-25 -17 -44.5 -36t-19.5 -45t19 -42.5t51 -16.5q38 0 62 21.5t36 53.5l120 -54q-10 -32 -31.5 -61t-51.5 -51t-68.5 -35.5t-83.5 -13.5q-44 0 -81.5 12.5t-64.5 35.5t-42 55t-15 71q0 57 32.5 99
t81.5 82q21 17 34.5 29.5t21.5 24.5t13 25.5t9 34.5l1 5h150zM283 506q40 0 68 -28t28 -68t-28 -68t-68 -28t-68 28t-28 68t28 68t68 28z" />
    <glyph glyph-name="Agrave" unicode="&#xc0;" horiz-adv-x="740" 
d="M468 160h-259l-82 -160h-178l387 716h185l143 -716h-166zM282 302h160l-27 150l-8 88h-10l-38 -88zM391 772l-72 140h173l13 -140h-114z" />
    <glyph glyph-name="Aacute" unicode="&#xc1;" horiz-adv-x="740" 
d="M468 160h-259l-82 -160h-178l387 716h185l143 -716h-166zM282 302h160l-27 150l-8 88h-10l-38 -88zM358 772l62 140h179l-123 -140h-118z" />
    <glyph glyph-name="Acircumflex" unicode="&#xc2;" horiz-adv-x="740" 
d="M468 160h-259l-82 -160h-178l387 716h185l143 -716h-166zM282 302h160l-27 150l-8 88h-10l-38 -88zM240 770l136 130h138l96 -130l-2 -10h-139l-27 58h-14l-43 -58h-147z" />
    <glyph glyph-name="Atilde" unicode="&#xc3;" horiz-adv-x="740" 
d="M468 160h-259l-82 -160h-178l387 716h185l143 -716h-166zM282 302h160l-27 150l-8 88h-10l-38 -88zM497 768q-22 0 -39.5 6.5t-32.5 14.5t-27 15q-12 6 -22 6q-23 0 -29 -26h-100q8 66 44 99t90 33q22 0 39.5 -6.5t32.5 -14.5t27 -14q12 -7 22 -7q23 0 29 26h100
q-8 -66 -44 -99t-90 -33z" />
    <glyph glyph-name="Adieresis" unicode="&#xc4;" horiz-adv-x="740" 
d="M468 160h-259l-82 -160h-178l387 716h185l143 -716h-166zM282 302h160l-27 150l-8 88h-10l-38 -88zM260 843q0 33 23 56t56 23t56 -23t23 -56t-23 -56t-56 -23t-56 23t-23 56zM462 843q0 33 23 56t56 23t56 -23t23 -56t-23 -56t-56 -23t-56 23t-23 56z" />
    <glyph glyph-name="Aring" unicode="&#xc5;" horiz-adv-x="740" 
d="M468 160h-259l-82 -160h-178l367 679q-22 35 -22 77q0 30 11 56t30.5 45.5t45.5 30.5t56 11q29 0 55 -11t45.5 -30.5t31 -45.5t11.5 -56q0 -31 -12.5 -58t-33.5 -47l130 -651h-166zM282 302h160l-27 150l-8 88h-10l-38 -88zM437 716q17 0 28.5 11.5t11.5 28.5t-11.5 28.5
t-28.5 11.5t-28.5 -11.5t-11.5 -28.5t11.5 -28.5t28.5 -11.5z" />
    <glyph glyph-name="AE" unicode="&#xc6;" horiz-adv-x="1027" 
d="M696 568l-24 -136h284l-27 -148h-284l-24 -136h316l-26 -148h-472l29 163h-219l-118 -163h-195l537 716h565l-26 -148h-316zM353 311h141l46 257h-13l-45 -79z" />
    <glyph glyph-name="Ccedilla" unicode="&#xc7;" horiz-adv-x="737" 
d="M320 -237q-35 0 -64 19t-36 46l74 29q2 -11 10.5 -18t20.5 -7q13 0 22 8t9 22q0 28 -27 28q-8 0 -14.5 -4t-9.5 -9l-62 31l47 83q-55 10 -102.5 37.5t-82.5 69.5t-55 98.5t-20 125.5q0 85 31.5 160t88 130.5t135.5 87.5t174 32q94 0 159.5 -32.5t107.5 -91.5l-124 -102
q-27 35 -65.5 56.5t-99.5 21.5q-50 0 -95.5 -19t-80 -52.5t-55 -80.5t-20.5 -103q0 -45 14 -81.5t39 -62t60 -39.5t76 -14q60 0 106 25t90 70l100 -112q-34 -36 -68.5 -60.5t-72 -40.5t-80 -23t-91.5 -7l-19 -31q6 1 10 1h7q35 0 57.5 -24.5t22.5 -60.5q0 -51 -33.5 -78.5
t-83.5 -27.5z" />
    <glyph glyph-name="Egrave" unicode="&#xc8;" horiz-adv-x="596" 
d="M265 568l-24 -136h284l-27 -148h-284l-24 -136h316l-26 -148h-472l127 716h472l-26 -148h-316zM314 772l-72 140h173l13 -140h-114z" />
    <glyph glyph-name="Eacute" unicode="&#xc9;" horiz-adv-x="596" 
d="M265 568l-24 -136h284l-27 -148h-284l-24 -136h316l-26 -148h-472l127 716h472l-26 -148h-316zM303 772l62 140h179l-123 -140h-118z" />
    <glyph glyph-name="Ecircumflex" unicode="&#xca;" horiz-adv-x="596" 
d="M265 568l-24 -136h284l-27 -148h-284l-24 -136h316l-26 -148h-472l127 716h472l-26 -148h-316zM186 770l136 130h138l96 -130l-2 -10h-139l-27 58h-14l-43 -58h-147z" />
    <glyph glyph-name="Edieresis" unicode="&#xcb;" horiz-adv-x="596" 
d="M265 568l-24 -136h284l-27 -148h-284l-24 -136h316l-26 -148h-472l127 716h472l-26 -148h-316zM193 843q0 33 23 56t56 23t56 -23t23 -56t-23 -56t-56 -23t-56 23t-23 56zM395 843q0 33 23 56t56 23t56 -23t23 -56t-23 -56t-56 -23t-56 23t-23 56z" />
    <glyph glyph-name="Igrave" unicode="&#xcc;" horiz-adv-x="300" 
d="M135 716h156l-127 -716h-156zM178 772l-72 140h173l13 -140h-114z" />
    <glyph glyph-name="Iacute" unicode="&#xcd;" horiz-adv-x="300" 
d="M135 716h156l-127 -716h-156zM147 772l62 140h179l-123 -140h-118z" />
    <glyph glyph-name="Icircumflex" unicode="&#xce;" horiz-adv-x="300" 
d="M135 716h156l-127 -716h-156zM28 770l136 130h138l96 -130l-2 -10h-139l-27 58h-14l-43 -58h-147z" />
    <glyph glyph-name="Idieresis" unicode="&#xcf;" horiz-adv-x="300" 
d="M63 843q0 31 22 53t53 22t53 -22t22 -53t-22 -53t-53 -22t-53 22t-22 53zM255 843q0 31 22 53t53 22t53 -22t22 -53t-22 -53t-53 -22t-53 22t-22 53zM135 716h156l-127 -716h-156z" />
    <glyph glyph-name="Eth" unicode="&#xd0;" horiz-adv-x="793" 
d="M120 293h-76l23 128h75l53 295h232q82 0 144.5 -23t105 -64.5t64 -100t21.5 -129.5q0 -81 -30 -153t-85.5 -127t-135 -87t-178.5 -32h-265zM339 148q62 0 111.5 17t84 48t53 73.5t18.5 93.5q0 91 -46 139.5t-146 48.5h-89l-26 -147h176l-23 -128h-176l-26 -145h89z" />
    <glyph glyph-name="Ntilde" unicode="&#xd1;" horiz-adv-x="736" 
d="M135 716h172l188 -442h10l14 138l54 304h154l-127 -716h-156l-199 468h-10l-14 -138l-59 -330h-154zM503 768q-22 0 -39.5 6.5t-32.5 14.5t-27 15q-12 6 -22 6q-23 0 -29 -26h-100q8 66 44 99t90 33q22 0 39.5 -6.5t32.5 -14.5t27 -14q12 -7 22 -7q23 0 29 26h100
q-8 -66 -44 -99t-90 -33z" />
    <glyph glyph-name="Ograve" unicode="&#xd2;" horiz-adv-x="828" 
d="M374 -16q-74 0 -137 24t-109 68.5t-72 106.5t-26 138q0 85 30.5 159.5t86 130.5t134 88.5t173.5 32.5q78 0 141.5 -25.5t108.5 -71t69.5 -107t24.5 -133.5q0 -85 -30.5 -159.5t-86 -130.5t-134 -88.5t-173.5 -32.5zM387 132q54 0 100.5 19.5t81 54.5t54 83t19.5 106
q0 40 -15 74.5t-42 60t-64 40t-80 14.5q-54 0 -100.5 -19.5t-81 -54t-54 -82t-19.5 -103.5q0 -42 15 -77t42 -61t64 -40.5t80 -14.5zM416 772l-72 140h173l13 -140h-114z" />
    <glyph glyph-name="Oacute" unicode="&#xd3;" horiz-adv-x="828" 
d="M374 -16q-74 0 -137 24t-109 68.5t-72 106.5t-26 138q0 85 30.5 159.5t86 130.5t134 88.5t173.5 32.5q78 0 141.5 -25.5t108.5 -71t69.5 -107t24.5 -133.5q0 -85 -30.5 -159.5t-86 -130.5t-134 -88.5t-173.5 -32.5zM387 132q54 0 100.5 19.5t81 54.5t54 83t19.5 106
q0 40 -15 74.5t-42 60t-64 40t-80 14.5q-54 0 -100.5 -19.5t-81 -54t-54 -82t-19.5 -103.5q0 -42 15 -77t42 -61t64 -40.5t80 -14.5zM413 772l62 140h179l-123 -140h-118z" />
    <glyph glyph-name="Ocircumflex" unicode="&#xd4;" horiz-adv-x="828" 
d="M374 -16q-74 0 -137 24t-109 68.5t-72 106.5t-26 138q0 85 30.5 159.5t86 130.5t134 88.5t173.5 32.5q78 0 141.5 -25.5t108.5 -71t69.5 -107t24.5 -133.5q0 -85 -30.5 -159.5t-86 -130.5t-134 -88.5t-173.5 -32.5zM387 132q54 0 100.5 19.5t81 54.5t54 83t19.5 106
q0 40 -15 74.5t-42 60t-64 40t-80 14.5q-54 0 -100.5 -19.5t-81 -54t-54 -82t-19.5 -103.5q0 -42 15 -77t42 -61t64 -40.5t80 -14.5zM296 771l136 130h138l96 -130l-2 -10h-139l-27 58h-14l-43 -58h-147z" />
    <glyph glyph-name="Otilde" unicode="&#xd5;" horiz-adv-x="828" 
d="M374 -16q-74 0 -137 24t-109 68.5t-72 106.5t-26 138q0 85 30.5 159.5t86 130.5t134 88.5t173.5 32.5q78 0 141.5 -25.5t108.5 -71t69.5 -107t24.5 -133.5q0 -85 -30.5 -159.5t-86 -130.5t-134 -88.5t-173.5 -32.5zM387 132q54 0 100.5 19.5t81 54.5t54 83t19.5 106
q0 40 -15 74.5t-42 60t-64 40t-80 14.5q-54 0 -100.5 -19.5t-81 -54t-54 -82t-19.5 -103.5q0 -42 15 -77t42 -61t64 -40.5t80 -14.5zM541 768q-22 0 -39.5 6.5t-32.5 14.5t-27 15q-12 6 -22 6q-23 0 -29 -26h-100q8 66 44 99t90 33q22 0 39.5 -6.5t32.5 -14.5t27 -14
q12 -7 22 -7q23 0 29 26h100q-8 -66 -44 -99t-90 -33z" />
    <glyph glyph-name="Odieresis" unicode="&#xd6;" horiz-adv-x="828" 
d="M374 -16q-74 0 -137 24t-109 68.5t-72 106.5t-26 138q0 85 30.5 159.5t86 130.5t134 88.5t173.5 32.5q78 0 141.5 -25.5t108.5 -71t69.5 -107t24.5 -133.5q0 -85 -30.5 -159.5t-86 -130.5t-134 -88.5t-173.5 -32.5zM387 132q54 0 100.5 19.5t81 54.5t54 83t19.5 106
q0 40 -15 74.5t-42 60t-64 40t-80 14.5q-54 0 -100.5 -19.5t-81 -54t-54 -82t-19.5 -103.5q0 -42 15 -77t42 -61t64 -40.5t80 -14.5zM303 843q0 33 23 56t56 23t56 -23t23 -56t-23 -56t-56 -23t-56 23t-23 56zM505 843q0 33 23 56t56 23t56 -23t23 -56t-23 -56t-56 -23
t-56 23t-23 56z" />
    <glyph glyph-name="multiply" unicode="&#xd7;" horiz-adv-x="646" 
d="M183 522l137 -157l197 161l83 -100l-195 -159l135 -155l-108 -92l-137 157l-197 -161l-84 100l195 159l-135 155z" />
    <glyph glyph-name="Oslash" unicode="&#xd8;" horiz-adv-x="828" 
d="M64 20l53 67q-42 44 -64.5 103t-22.5 131q0 85 30.5 159.5t86 130.5t134 88.5t173.5 32.5q44 0 82.5 -8.5t72.5 -23.5l57 71l95 -78l-51 -64q42 -45 65 -104.5t23 -129.5q0 -85 -30.5 -159.5t-86 -130.5t-134 -88.5t-173.5 -32.5q-86 0 -156 32l-59 -74zM387 132
q54 0 100.5 19.5t81 54.5t54 83t19.5 106q0 30 -9 57t-25 50l-289 -360q16 -5 33 -7.5t35 -2.5zM186 325q0 -63 34 -111l288 360q-16 5 -33 7.5t-34 2.5q-54 0 -100.5 -19.5t-81 -54t-54 -82t-19.5 -103.5z" />
    <glyph glyph-name="Ugrave" unicode="&#xd9;" horiz-adv-x="682" 
d="M288 -16q-57 0 -103 18t-78.5 50.5t-49.5 77.5t-17 100q0 31 8 77l72 409h156l-76 -432q-4 -19 -4 -40q0 -51 27 -81.5t84 -30.5q60 0 99.5 40.5t51.5 111.5l76 432h156l-77 -438q-14 -77 -42.5 -132.5t-70 -91.5t-95.5 -53t-117 -17zM356 772l-72 140h173l13 -140h-114z
" />
    <glyph glyph-name="Uacute" unicode="&#xda;" horiz-adv-x="682" 
d="M288 -16q-57 0 -103 18t-78.5 50.5t-49.5 77.5t-17 100q0 31 8 77l72 409h156l-76 -432q-4 -19 -4 -40q0 -51 27 -81.5t84 -30.5q60 0 99.5 40.5t51.5 111.5l76 432h156l-77 -438q-14 -77 -42.5 -132.5t-70 -91.5t-95.5 -53t-117 -17zM347 772l62 140h179l-123 -140h-118
z" />
    <glyph glyph-name="Ucircumflex" unicode="&#xdb;" horiz-adv-x="682" 
d="M288 -16q-57 0 -103 18t-78.5 50.5t-49.5 77.5t-17 100q0 31 8 77l72 409h156l-76 -432q-4 -19 -4 -40q0 -51 27 -81.5t84 -30.5q60 0 99.5 40.5t51.5 111.5l76 432h156l-77 -438q-14 -77 -42.5 -132.5t-70 -91.5t-95.5 -53t-117 -17zM227 770l136 130h138l96 -130
l-2 -10h-139l-27 58h-14l-43 -58h-147z" />
    <glyph glyph-name="Udieresis" unicode="&#xdc;" horiz-adv-x="682" 
d="M288 -16q-57 0 -103 18t-78.5 50.5t-49.5 77.5t-17 100q0 31 8 77l72 409h156l-76 -432q-4 -19 -4 -40q0 -51 27 -81.5t84 -30.5q60 0 99.5 40.5t51.5 111.5l76 432h156l-77 -438q-14 -77 -42.5 -132.5t-70 -91.5t-95.5 -53t-117 -17zM230 843q0 33 23 56t56 23t56 -23
t23 -56t-23 -56t-56 -23t-56 23t-23 56zM432 843q0 33 23 56t56 23t56 -23t23 -56t-23 -56t-56 -23t-56 23t-23 56z" />
    <glyph glyph-name="Yacute" unicode="&#xdd;" horiz-adv-x="658" 
d="M248 333l-173 383h181l90 -210h10l158 210h195l-305 -383l-59 -333h-156zM325 772l62 140h179l-123 -140h-118z" />
    <glyph glyph-name="Thorn" unicode="&#xde;" horiz-adv-x="606" 
d="M135 716h156l-18 -102h85q50 0 92.5 -15.5t73.5 -44t48.5 -68.5t17.5 -88q0 -60 -21 -107t-59 -78.5t-90.5 -48t-115.5 -16.5h-114l-26 -148h-156zM322 296q51 0 82 23.5t31 69.5q0 34 -20 55.5t-63 21.5h-105l-30 -170h105z" />
    <glyph glyph-name="germandbls" unicode="&#xdf;" horiz-adv-x="597" 
d="M455 382q39 -18 62.5 -57t23.5 -97q0 -51 -19.5 -94.5t-54.5 -75t-84 -49t-107 -17.5q-26 0 -41 1t-29 3l24 135q11 -2 21.5 -3.5t27.5 -1.5q22 0 42 7t35.5 20.5t25 33t9.5 44.5q0 41 -24.5 63t-69.5 22h-23l23 130h18q45 0 73 21.5t28 59.5q0 29 -19 48t-54 19
q-41 0 -65.5 -27t-31.5 -67l-88 -500h-150l88 502q9 50 30 92t54 73t79 48t106 17q46 0 83 -15t63 -39.5t39.5 -56t13.5 -65.5t-9 -60.5t-24 -47t-34 -34.5t-40 -22z" />
    <glyph glyph-name="agrave" unicode="&#xe0;" horiz-adv-x="548" 
d="M310 44h-10q-23 -26 -53 -43t-78 -17q-38 0 -68 12t-51.5 33t-33 49t-11.5 61q0 84 61 131.5t165 47.5q35 0 65 -6t58 -14l3 13q2 10 2 14q0 27 -24 45t-63 18q-37 0 -65.5 -14t-48.5 -37l-96 70q42 52 102 75.5t127 23.5q105 0 160 -49.5t55 -129.5q0 -12 -1.5 -24.5
t-3.5 -26.5l-49 -276h-150zM336 193q-46 19 -95 19q-37 0 -61 -15t-24 -47q0 -26 19.5 -40t48.5 -14q22 0 41.5 8.5t34 22.5t24 31.5t12.5 34.5zM262 588l-72 140h173l13 -140h-114z" />
    <glyph glyph-name="aacute" unicode="&#xe1;" horiz-adv-x="548" 
d="M310 44h-10q-23 -26 -53 -43t-78 -17q-38 0 -68 12t-51.5 33t-33 49t-11.5 61q0 84 61 131.5t165 47.5q35 0 65 -6t58 -14l3 13q2 10 2 14q0 27 -24 45t-63 18q-37 0 -65.5 -14t-48.5 -37l-96 70q42 52 102 75.5t127 23.5q105 0 160 -49.5t55 -129.5q0 -12 -1.5 -24.5
t-3.5 -26.5l-49 -276h-150zM336 193q-46 19 -95 19q-37 0 -61 -15t-24 -47q0 -26 19.5 -40t48.5 -14q22 0 41.5 8.5t34 22.5t24 31.5t12.5 34.5zM247 588l62 140h179l-123 -140h-118z" />
    <glyph glyph-name="acircumflex" unicode="&#xe2;" horiz-adv-x="548" 
d="M310 44h-10q-23 -26 -53 -43t-78 -17q-38 0 -68 12t-51.5 33t-33 49t-11.5 61q0 84 61 131.5t165 47.5q35 0 65 -6t58 -14l3 13q2 10 2 14q0 27 -24 45t-63 18q-37 0 -65.5 -14t-48.5 -37l-96 70q42 52 102 75.5t127 23.5q105 0 160 -49.5t55 -129.5q0 -12 -1.5 -24.5
t-3.5 -26.5l-49 -276h-150zM336 193q-46 19 -95 19q-37 0 -61 -15t-24 -47q0 -26 19.5 -40t48.5 -14q22 0 41.5 8.5t34 22.5t24 31.5t12.5 34.5zM122 586l136 130h138l96 -130l-2 -10h-139l-27 58h-14l-43 -58h-147z" />
    <glyph glyph-name="atilde" unicode="&#xe3;" horiz-adv-x="548" 
d="M310 44h-10q-23 -26 -53 -43t-78 -17q-38 0 -68 12t-51.5 33t-33 49t-11.5 61q0 84 61 131.5t165 47.5q35 0 65 -6t58 -14l3 13q2 10 2 14q0 27 -24 45t-63 18q-37 0 -65.5 -14t-48.5 -37l-96 70q42 52 102 75.5t127 23.5q105 0 160 -49.5t55 -129.5q0 -12 -1.5 -24.5
t-3.5 -26.5l-49 -276h-150zM336 193q-46 19 -95 19q-37 0 -61 -15t-24 -47q0 -26 19.5 -40t48.5 -14q22 0 41.5 8.5t34 22.5t24 31.5t12.5 34.5zM387 585q-22 0 -39.5 6.5t-32.5 14.5t-27 15q-12 6 -22 6q-23 0 -29 -26h-100q8 66 44 99t90 33q22 0 39.5 -6.5t32.5 -14.5
t27 -14q12 -7 22 -7q23 0 29 26h100q-8 -66 -44 -99t-90 -33z" />
    <glyph glyph-name="adieresis" unicode="&#xe4;" horiz-adv-x="548" 
d="M310 44h-10q-23 -26 -53 -43t-78 -17q-38 0 -68 12t-51.5 33t-33 49t-11.5 61q0 84 61 131.5t165 47.5q35 0 65 -6t58 -14l3 13q2 10 2 14q0 27 -24 45t-63 18q-37 0 -65.5 -14t-48.5 -37l-96 70q42 52 102 75.5t127 23.5q105 0 160 -49.5t55 -129.5q0 -12 -1.5 -24.5
t-3.5 -26.5l-49 -276h-150zM336 193q-46 19 -95 19q-37 0 -61 -15t-24 -47q0 -26 19.5 -40t48.5 -14q22 0 41.5 8.5t34 22.5t24 31.5t12.5 34.5zM146 659q0 33 23 56t56 23t56 -23t23 -56t-23 -56t-56 -23t-56 23t-23 56zM348 659q0 33 23 56t56 23t56 -23t23 -56t-23 -56
t-56 -23t-56 23t-23 56z" />
    <glyph glyph-name="aring" unicode="&#xe5;" horiz-adv-x="548" 
d="M310 44h-10q-23 -26 -53 -43t-78 -17q-38 0 -68 12t-51.5 33t-33 49t-11.5 61q0 84 61 131.5t165 47.5q35 0 65 -6t58 -14l3 13q2 10 2 14q0 27 -24 45t-63 18q-37 0 -65.5 -14t-48.5 -37l-96 70q42 52 102 75.5t127 23.5q105 0 160 -49.5t55 -129.5q0 -12 -1.5 -24.5
t-3.5 -26.5l-49 -276h-150zM336 193q-46 19 -95 19q-37 0 -61 -15t-24 -47q0 -26 19.5 -40t48.5 -14q22 0 41.5 8.5t34 22.5t24 31.5t12.5 34.5zM325 559q-23 0 -43 8.5t-35 23.5t-23.5 35t-8.5 43t8.5 43t23.5 35t35 23.5t43 8.5t43 -8.5t35 -23.5t23.5 -35t8.5 -43
t-8.5 -43t-23.5 -35t-35 -23.5t-43 -8.5zM325 639q12 0 21 9t9 21t-9 21t-21 9t-21 -9t-9 -21t9 -21t21 -9z" />
    <glyph glyph-name="ae" unicode="&#xe6;" horiz-adv-x="902" 
d="M830 122q-23 -32 -47.5 -57.5t-54.5 -43.5t-67 -27.5t-85 -9.5q-68 0 -112 25t-75 67q-46 -49 -99.5 -70.5t-120.5 -21.5q-38 0 -68 12t-51.5 33t-33 49t-11.5 61q0 84 61 131.5t165 47.5q35 0 66.5 -5.5t56.5 -14.5l3 13q1 4 1.5 7t0.5 7q0 29 -24 46t-63 17
q-32 0 -59 -12t-41 -36l-104 50q38 63 95.5 89.5t129.5 26.5q60 0 100.5 -21.5t64.5 -53.5q78 75 185 75q52 0 93 -16.5t68.5 -44.5t42 -65t14.5 -77q0 -28 -4 -50.5t-12 -44.5h-361q2 -48 33 -70t72 -22q48 0 77.5 16t50.5 48zM336 193q-46 19 -95 19q-37 0 -61 -15
t-24 -47q0 -26 19.5 -40t48.5 -14q22 0 41.5 8.5t34 22.5t24 31.5t12.5 34.5zM725 310q0 30 -25 54t-74 24q-44 0 -77.5 -23t-46.5 -55h223z" />
    <glyph glyph-name="ccedilla" unicode="&#xe7;" horiz-adv-x="556" 
d="M209 -237q-35 0 -64 19t-36 46l74 29q2 -11 10.5 -18t20.5 -7q13 0 22 8t9 22q0 28 -27 28q-8 0 -14.5 -4t-9.5 -9l-62 31l48 84q-79 20 -127 78.5t-48 146.5q0 55 21 107t60 92.5t96 65t129 24.5q82 0 139 -38t80 -107l-140 -55q-12 30 -38.5 45t-61.5 15q-31 0 -56 -11
t-42.5 -29t-27 -42t-9.5 -50q0 -27 9 -47.5t24 -34.5t34 -21t39 -7q41 0 68.5 17t44.5 47l130 -63q-41 -69 -109 -105t-139 -36h-8l-19 -31q6 1 10 1h7q35 0 57.5 -24.5t22.5 -60.5q0 -51 -33.5 -78.5t-83.5 -27.5z" />
    <glyph glyph-name="egrave" unicode="&#xe8;" horiz-adv-x="566" 
d="M494 122q-23 -32 -47.5 -57.5t-54.5 -43.5t-67 -27.5t-85 -9.5q-54 0 -97 18.5t-74 50.5t-47.5 75t-16.5 92q0 56 21.5 108t60.5 91.5t93.5 63t120.5 23.5q55 0 96.5 -16.5t70 -44.5t43 -65t14.5 -77q0 -28 -4 -50.5t-12 -44.5h-361q2 -48 33 -70t72 -22q48 0 77.5 16
t50.5 48zM389 310q0 30 -25 54t-74 24q-44 0 -77.5 -23t-46.5 -55h223zM267 588l-72 140h173l13 -140h-114z" />
    <glyph glyph-name="eacute" unicode="&#xe9;" horiz-adv-x="566" 
d="M494 122q-23 -32 -47.5 -57.5t-54.5 -43.5t-67 -27.5t-85 -9.5q-54 0 -97 18.5t-74 50.5t-47.5 75t-16.5 92q0 56 21.5 108t60.5 91.5t93.5 63t120.5 23.5q55 0 96.5 -16.5t70 -44.5t43 -65t14.5 -77q0 -28 -4 -50.5t-12 -44.5h-361q2 -48 33 -70t72 -22q48 0 77.5 16
t50.5 48zM389 310q0 30 -25 54t-74 24q-44 0 -77.5 -23t-46.5 -55h223zM259 588l62 140h179l-123 -140h-118z" />
    <glyph glyph-name="ecircumflex" unicode="&#xea;" horiz-adv-x="566" 
d="M494 122q-23 -32 -47.5 -57.5t-54.5 -43.5t-67 -27.5t-85 -9.5q-54 0 -97 18.5t-74 50.5t-47.5 75t-16.5 92q0 56 21.5 108t60.5 91.5t93.5 63t120.5 23.5q55 0 96.5 -16.5t70 -44.5t43 -65t14.5 -77q0 -28 -4 -50.5t-12 -44.5h-361q2 -48 33 -70t72 -22q48 0 77.5 16
t50.5 48zM389 310q0 30 -25 54t-74 24q-44 0 -77.5 -23t-46.5 -55h223zM141 577l136 130h138l96 -130l-2 -10h-139l-27 58h-14l-43 -58h-147z" />
    <glyph glyph-name="edieresis" unicode="&#xeb;" horiz-adv-x="566" 
d="M494 122q-23 -32 -47.5 -57.5t-54.5 -43.5t-67 -27.5t-85 -9.5q-54 0 -97 18.5t-74 50.5t-47.5 75t-16.5 92q0 56 21.5 108t60.5 91.5t93.5 63t120.5 23.5q55 0 96.5 -16.5t70 -44.5t43 -65t14.5 -77q0 -28 -4 -50.5t-12 -44.5h-361q2 -48 33 -70t72 -22q48 0 77.5 16
t50.5 48zM389 310q0 30 -25 54t-74 24q-44 0 -77.5 -23t-46.5 -55h223zM152 659q0 33 23 56t56 23t56 -23t23 -56t-23 -56t-56 -23t-56 23t-23 56zM354 659q0 33 23 56t56 23t56 -23t23 -56t-23 -56t-56 -23t-56 23t-23 56z" />
    <glyph glyph-name="igrave" unicode="&#xec;" horiz-adv-x="278" 
d="M0 0l85 490h150l-85 -490h-150zM122 588l-72 140h173l13 -140h-114z" />
    <glyph glyph-name="iacute" unicode="&#xed;" horiz-adv-x="278" 
d="M0 0l85 490h150l-85 -490h-150zM119 588l62 140h179l-123 -140h-118z" />
    <glyph glyph-name="icircumflex" unicode="&#xee;" horiz-adv-x="278" 
d="M0 0l85 490h150l-85 -490h-150zM-5 586l136 130h138l96 -130l-2 -10h-139l-27 58h-14l-43 -58h-147z" />
    <glyph glyph-name="idieresis" unicode="&#xef;" horiz-adv-x="278" 
d="M23 659q0 31 22 53t53 22t53 -22t22 -53t-22 -53t-53 -22t-53 22t-22 53zM207 659q0 31 22 53t53 22t53 -22t22 -53t-22 -53t-53 -22t-53 22t-22 53zM0 0l85 490h150l-85 -490h-150z" />
    <glyph glyph-name="eth" unicode="&#xf0;" horiz-adv-x="581" 
d="M177 571l60 24q-19 7 -38 12t-39 7l38 110q101 -18 178 -71l117 48l33 -80l-80 -33q41 -51 63.5 -119.5t22.5 -156.5q0 -66 -18.5 -125.5t-56.5 -104.5t-95.5 -71.5t-134.5 -26.5q-45 0 -84.5 16t-68 44.5t-45 67t-16.5 83.5q0 59 20 110t56 88.5t86.5 59t112.5 21.5
q32 0 57.5 -8t40.5 -21l9 7q-10 25 -26.5 47t-38.5 41l-120 -50zM250 116q26 0 48.5 11t39 29t26 41.5t9.5 49.5q0 46 -25 70.5t-63 24.5q-28 0 -51.5 -11t-40.5 -29.5t-26.5 -42t-9.5 -48.5q0 -46 27 -70.5t66 -24.5z" />
    <glyph glyph-name="ntilde" unicode="&#xf1;" 
d="M208 428h10q26 39 67 58.5t91 19.5q39 0 68 -13t48.5 -35t29 -50.5t9.5 -59.5q0 -14 -1.5 -27.5t-3.5 -28.5l-52 -292h-150l49 275q1 4 1.5 11.5t0.5 13.5q0 26 -15.5 46t-48.5 20q-29 0 -50.5 -10.5t-37 -29t-25 -44.5t-15.5 -57l-40 -225h-150l86 490h140zM410 585
q-22 0 -39.5 6.5t-32.5 14.5t-27 15q-12 6 -22 6q-23 0 -29 -26h-100q8 66 44 99t90 33q22 0 39.5 -6.5t32.5 -14.5t27 -14q12 -7 22 -7q23 0 29 26h100q-8 -66 -44 -99t-90 -33z" />
    <glyph glyph-name="ograve" unicode="&#xf2;" horiz-adv-x="584" 
d="M305 506q54 0 98 -17.5t75 -48t47.5 -71.5t16.5 -88q0 -63 -22 -117.5t-62 -94t-95 -62.5t-121 -23q-54 0 -98 17.5t-75 48t-47.5 72t-16.5 88.5q0 63 22 117t62 93.5t95 62.5t121 23zM257 124q27 0 51.5 10.5t43 29.5t29.5 44t11 55q0 45 -28.5 74t-73.5 29
q-27 0 -51.5 -10.5t-43 -29.5t-29.5 -44t-11 -55q0 -45 29 -74t73 -29zM267 588l-72 140h173l13 -140h-114z" />
    <glyph glyph-name="oacute" unicode="&#xf3;" horiz-adv-x="584" 
d="M305 506q54 0 98 -17.5t75 -48t47.5 -71.5t16.5 -88q0 -63 -22 -117.5t-62 -94t-95 -62.5t-121 -23q-54 0 -98 17.5t-75 48t-47.5 72t-16.5 88.5q0 63 22 117t62 93.5t95 62.5t121 23zM257 124q27 0 51.5 10.5t43 29.5t29.5 44t11 55q0 45 -28.5 74t-73.5 29
q-27 0 -51.5 -10.5t-43 -29.5t-29.5 -44t-11 -55q0 -45 29 -74t73 -29zM270 588l62 140h179l-123 -140h-118z" />
    <glyph glyph-name="ocircumflex" unicode="&#xf4;" horiz-adv-x="584" 
d="M305 506q54 0 98 -17.5t75 -48t47.5 -71.5t16.5 -88q0 -63 -22 -117.5t-62 -94t-95 -62.5t-121 -23q-54 0 -98 17.5t-75 48t-47.5 72t-16.5 88.5q0 63 22 117t62 93.5t95 62.5t121 23zM257 124q27 0 51.5 10.5t43 29.5t29.5 44t11 55q0 45 -28.5 74t-73.5 29
q-27 0 -51.5 -10.5t-43 -29.5t-29.5 -44t-11 -55q0 -45 29 -74t73 -29zM147 586l136 130h138l96 -130l-2 -10h-139l-27 58h-14l-43 -58h-147z" />
    <glyph glyph-name="otilde" unicode="&#xf5;" horiz-adv-x="584" 
d="M305 506q54 0 98 -17.5t75 -48t47.5 -71.5t16.5 -88q0 -63 -22 -117.5t-62 -94t-95 -62.5t-121 -23q-54 0 -98 17.5t-75 48t-47.5 72t-16.5 88.5q0 63 22 117t62 93.5t95 62.5t121 23zM257 124q27 0 51.5 10.5t43 29.5t29.5 44t11 55q0 45 -28.5 74t-73.5 29
q-27 0 -51.5 -10.5t-43 -29.5t-29.5 -44t-11 -55q0 -45 29 -74t73 -29zM401 585q-22 0 -39.5 6.5t-32.5 14.5t-27 15q-12 6 -22 6q-23 0 -29 -26h-100q8 66 44 99t90 33q22 0 39.5 -6.5t32.5 -14.5t27 -14q12 -7 22 -7q23 0 29 26h100q-8 -66 -44 -99t-90 -33z" />
    <glyph glyph-name="odieresis" unicode="&#xf6;" horiz-adv-x="584" 
d="M305 506q54 0 98 -17.5t75 -48t47.5 -71.5t16.5 -88q0 -63 -22 -117.5t-62 -94t-95 -62.5t-121 -23q-54 0 -98 17.5t-75 48t-47.5 72t-16.5 88.5q0 63 22 117t62 93.5t95 62.5t121 23zM257 124q27 0 51.5 10.5t43 29.5t29.5 44t11 55q0 45 -28.5 74t-73.5 29
q-27 0 -51.5 -10.5t-43 -29.5t-29.5 -44t-11 -55q0 -45 29 -74t73 -29zM163 659q0 33 23 56t56 23t56 -23t23 -56t-23 -56t-56 -23t-56 23t-23 56zM365 659q0 33 23 56t56 23t56 -23t23 -56t-23 -56t-56 -23t-56 23t-23 56z" />
    <glyph glyph-name="divide" unicode="&#xf7;" horiz-adv-x="578" 
d="M53 333h466l-22 -124h-466zM239 -22q-37 0 -63 26t-26 63t26 63t63 26t63 -26t26 -63t-26 -63t-63 -26zM311 386q-37 0 -63 26t-26 63t26 63t63 26t63 -26t26 -63t-26 -63t-63 -26z" />
    <glyph glyph-name="oslash" unicode="&#xf8;" horiz-adv-x="584" 
d="M305 506q27 0 51.5 -5t47.5 -13l45 56l82 -70l-40 -49q51 -60 51 -144q0 -63 -22 -117.5t-62 -94t-95 -62.5t-121 -23q-25 0 -48 4t-43 11l-42 -53l-87 65l38 48q-26 30 -40.5 68t-14.5 83q0 63 22 117t62 93.5t95 62.5t121 23zM149 227q0 -25 9 -46l155 194q-11 3 -23 3
q-27 0 -52.5 -12.5t-45 -33.5t-31.5 -48t-12 -57zM257 110q27 0 52.5 12t45 33t31.5 48.5t12 59.5q0 19 -6 37l-151 -189q5 -1 16 -1z" />
    <glyph glyph-name="ugrave" unicode="&#xf9;" 
d="M343 62h-10q-26 -39 -67 -58.5t-91 -19.5q-39 0 -68 13t-48.5 35t-29 50.5t-9.5 59.5q0 14 1.5 27.5t3.5 28.5l52 292h150l-49 -275q-1 -4 -1.5 -11.5t-0.5 -13.5q0 -26 15.5 -46t48.5 -20q58 0 87.5 39.5t40.5 101.5l40 225h150l-86 -490h-140zM282 588l-72 140h173
l13 -140h-114z" />
    <glyph glyph-name="uacute" unicode="&#xfa;" 
d="M343 62h-10q-26 -39 -67 -58.5t-91 -19.5q-39 0 -68 13t-48.5 35t-29 50.5t-9.5 59.5q0 14 1.5 27.5t3.5 28.5l52 292h150l-49 -275q-1 -4 -1.5 -11.5t-0.5 -13.5q0 -26 15.5 -46t48.5 -20q58 0 87.5 39.5t40.5 101.5l40 225h150l-86 -490h-140zM269 588l62 140h179
l-123 -140h-118z" />
    <glyph glyph-name="ucircumflex" unicode="&#xfb;" 
d="M343 62h-10q-26 -39 -67 -58.5t-91 -19.5q-39 0 -68 13t-48.5 35t-29 50.5t-9.5 59.5q0 14 1.5 27.5t3.5 28.5l52 292h150l-49 -275q-1 -4 -1.5 -11.5t-0.5 -13.5q0 -26 15.5 -46t48.5 -20q58 0 87.5 39.5t40.5 101.5l40 225h150l-86 -490h-140zM150 571l136 130h138
l96 -130l-2 -10h-139l-27 58h-14l-43 -58h-147z" />
    <glyph glyph-name="udieresis" unicode="&#xfc;" 
d="M343 62h-10q-26 -39 -67 -58.5t-91 -19.5q-39 0 -68 13t-48.5 35t-29 50.5t-9.5 59.5q0 14 1.5 27.5t3.5 28.5l52 292h150l-49 -275q-1 -4 -1.5 -11.5t-0.5 -13.5q0 -26 15.5 -46t48.5 -20q58 0 87.5 39.5t40.5 101.5l40 225h150l-86 -490h-140zM168 659q0 33 23 56
t56 23t56 -23t23 -56t-23 -56t-56 -23t-56 23t-23 56zM370 659q0 33 23 56t56 23t56 -23t23 -56t-23 -56t-56 -23t-56 23t-23 56z" />
    <glyph glyph-name="yacute" unicode="&#xfd;" horiz-adv-x="581" 
d="M271 588l62 140h179l-123 -140h-118zM157 28l-123 462h171l64 -270h10l158 270h170l-432 -706h-166z" />
    <glyph glyph-name="thorn" unicode="&#xfe;" horiz-adv-x="612" 
d="M226 436h10q18 26 53 48t93 22q44 0 81 -18t64 -49.5t42 -73.5t15 -91q0 -58 -19.5 -110.5t-55.5 -92.5t-86.5 -63.5t-111.5 -23.5q-49 0 -89 20.5t-56 49.5h-10v-70l-35 -200h-150l163 932h150l-37 -210zM322 366q-24 0 -48 -9t-42.5 -26.5t-30 -43t-11.5 -59.5
q0 -45 30.5 -74.5t80.5 -29.5q30 0 55 11.5t42 30.5t26.5 44t9.5 52q0 48 -31.5 76t-80.5 28z" />
    <glyph glyph-name="ydieresis" unicode="&#xff;" horiz-adv-x="581" 
d="M157 28l-123 462h171l64 -270h10l158 270h170l-432 -706h-166zM163 659q0 33 23 56t56 23t56 -23t23 -56t-23 -56t-56 -23t-56 23t-23 56zM365 659q0 33 23 56t56 23t56 -23t23 -56t-23 -56t-56 -23t-56 23t-23 56z" />
    <glyph glyph-name="Amacron" unicode="&#x100;" horiz-adv-x="740" 
d="M468 160h-259l-82 -160h-178l387 716h185l143 -716h-166zM282 302h160l-27 150l-8 88h-10l-38 -88zM282 786l20 114h304l-20 -114h-304z" />
    <glyph glyph-name="amacron" unicode="&#x101;" horiz-adv-x="548" 
d="M310 44h-10q-23 -26 -53 -43t-78 -17q-38 0 -68 12t-51.5 33t-33 49t-11.5 61q0 84 61 131.5t165 47.5q35 0 65 -6t58 -14l3 13q2 10 2 14q0 27 -24 45t-63 18q-37 0 -65.5 -14t-48.5 -37l-96 70q42 52 102 75.5t127 23.5q105 0 160 -49.5t55 -129.5q0 -12 -1.5 -24.5
t-3.5 -26.5l-49 -276h-150zM336 193q-46 19 -95 19q-37 0 -61 -15t-24 -47q0 -26 19.5 -40t48.5 -14q22 0 41.5 8.5t34 22.5t24 31.5t12.5 34.5zM171 602l20 114h304l-20 -114h-304z" />
    <glyph glyph-name="Abreve" unicode="&#x102;" horiz-adv-x="740" 
d="M468 160h-259l-82 -160h-178l387 716h185l143 -716h-166zM282 302h160l-27 150l-8 88h-10l-38 -88zM439 760q-25 0 -47 8.5t-38.5 23.5t-26.5 36.5t-10 47.5v11t2 13h102q-1 -4 -1 -8q0 -13 8 -22.5t25 -9.5t29.5 12t15.5 28h101q-11 -69 -52.5 -104.5t-107.5 -35.5z" />
    <glyph glyph-name="abreve" unicode="&#x103;" horiz-adv-x="548" 
d="M310 44h-10q-23 -26 -53 -43t-78 -17q-38 0 -68 12t-51.5 33t-33 49t-11.5 61q0 84 61 131.5t165 47.5q35 0 65 -6t58 -14l3 13q2 10 2 14q0 27 -24 45t-63 18q-37 0 -65.5 -14t-48.5 -37l-96 70q42 52 102 75.5t127 23.5q105 0 160 -49.5t55 -129.5q0 -12 -1.5 -24.5
t-3.5 -26.5l-49 -276h-150zM336 193q-46 19 -95 19q-37 0 -61 -15t-24 -47q0 -26 19.5 -40t48.5 -14q22 0 41.5 8.5t34 22.5t24 31.5t12.5 34.5zM319 576q-25 0 -47 8.5t-38.5 23.5t-26.5 36.5t-10 47.5v11t2 13h102q-1 -4 -1 -8q0 -13 8 -22.5t25 -9.5t29.5 12t15.5 28h101
q-11 -69 -52.5 -104.5t-107.5 -35.5z" />
    <glyph glyph-name="Aogonek" unicode="&#x104;" horiz-adv-x="740" 
d="M468 160h-259l-82 -160h-178l387 716h185l143 -716q-14 -8 -29 -18t-27 -21.5t-19.5 -24.5t-7.5 -26q0 -14 8.5 -21.5t22.5 -7.5q11 0 24 5l23 -93q-17 -8 -41 -12.5t-44 -4.5q-60 0 -92 28t-32 72q0 38 21.5 67.5t52.5 49.5l-2 7h-24zM282 302h160l-27 150l-8 88h-10
l-38 -88z" />
    <glyph glyph-name="aogonek" unicode="&#x105;" horiz-adv-x="548" 
d="M310 44h-10q-23 -26 -53 -43t-78 -17q-38 0 -68 12t-51.5 33t-33 49t-11.5 61q0 84 61 131.5t165 47.5q35 0 65 -6t58 -14l3 13q2 10 2 14q0 27 -24 45t-63 18q-37 0 -65.5 -14t-48.5 -37l-96 70q42 52 102 75.5t127 23.5q105 0 160 -49.5t55 -129.5q0 -12 -1.5 -24.5
t-3.5 -26.5l-49 -276q-14 -8 -29 -18t-27 -21.5t-19.5 -24.5t-7.5 -26q0 -14 8.5 -21.5t22.5 -7.5q11 0 24 5l23 -93q-17 -8 -41 -12.5t-44 -4.5q-60 0 -92 28t-32 72q0 37 20 66.5t51 48.5l-7 9zM336 193q-46 19 -95 19q-37 0 -61 -15t-24 -47q0 -26 19.5 -40t48.5 -14
q22 0 41.5 8.5t34 22.5t24 31.5t12.5 34.5z" />
    <glyph glyph-name="Cacute" unicode="&#x106;" horiz-adv-x="737" 
d="M671 115q-34 -36 -68 -60.5t-71.5 -40.5t-79.5 -23t-90 -7q-70 0 -130.5 23t-105.5 66.5t-70.5 106t-25.5 142.5q0 85 31.5 160t88 130.5t135.5 87.5t174 32q94 0 159.5 -32.5t107.5 -91.5l-124 -102q-27 35 -65.5 56.5t-99.5 21.5q-50 0 -95.5 -19t-80 -52.5t-55 -80.5
t-20.5 -103q0 -45 14 -81.5t39 -62t60 -39.5t76 -14q60 0 106 25t90 70zM405 772l62 140h179l-123 -140h-118z" />
    <glyph glyph-name="cacute" unicode="&#x107;" horiz-adv-x="556" 
d="M504 125q-42 -71 -109 -106t-148 -35q-52 0 -96 16.5t-76.5 47t-51 73.5t-18.5 96q0 55 21 107t60 92.5t96 65t129 24.5q82 0 139 -38t80 -107l-140 -55q-12 30 -38.5 45t-61.5 15q-31 0 -56 -11t-42.5 -29t-27 -42t-9.5 -50q0 -27 9 -47.5t24 -34.5t34 -21t39 -7
q41 0 68.5 17t44.5 47zM258 588l62 140h179l-123 -140h-118z" />
    <glyph glyph-name="Ccircumflex" unicode="&#x108;" horiz-adv-x="737" 
d="M671 115q-34 -36 -68 -60.5t-71.5 -40.5t-79.5 -23t-90 -7q-70 0 -130.5 23t-105.5 66.5t-70.5 106t-25.5 142.5q0 85 31.5 160t88 130.5t135.5 87.5t174 32q94 0 159.5 -32.5t107.5 -91.5l-124 -102q-27 35 -65.5 56.5t-99.5 21.5q-50 0 -95.5 -19t-80 -52.5t-55 -80.5
t-20.5 -103q0 -45 14 -81.5t39 -62t60 -39.5t76 -14q60 0 106 25t90 70zM285 771l136 130h138l96 -130l-2 -10h-139l-27 58h-14l-43 -58h-147z" />
    <glyph glyph-name="ccircumflex" unicode="&#x109;" horiz-adv-x="556" 
d="M504 125q-42 -71 -109 -106t-148 -35q-52 0 -96 16.5t-76.5 47t-51 73.5t-18.5 96q0 55 21 107t60 92.5t96 65t129 24.5q82 0 139 -38t80 -107l-140 -55q-12 30 -38.5 45t-61.5 15q-31 0 -56 -11t-42.5 -29t-27 -42t-9.5 -50q0 -27 9 -47.5t24 -34.5t34 -21t39 -7
q41 0 68.5 17t44.5 47zM145 586l136 130h138l96 -130l-2 -10h-139l-27 58h-14l-43 -58h-147z" />
    <glyph glyph-name="Cdotaccent" unicode="&#x10a;" horiz-adv-x="737" 
d="M671 115q-34 -36 -68 -60.5t-71.5 -40.5t-79.5 -23t-90 -7q-70 0 -130.5 23t-105.5 66.5t-70.5 106t-25.5 142.5q0 85 31.5 160t88 130.5t135.5 87.5t174 32q94 0 159.5 -32.5t107.5 -91.5l-124 -102q-27 35 -65.5 56.5t-99.5 21.5q-50 0 -95.5 -19t-80 -52.5t-55 -80.5
t-20.5 -103q0 -45 14 -81.5t39 -62t60 -39.5t76 -14q60 0 106 25t90 70zM484 776q-33 0 -56.5 23.5t-23.5 56.5t23.5 56.5t56.5 23.5t56.5 -23.5t23.5 -56.5t-23.5 -56.5t-56.5 -23.5z" />
    <glyph glyph-name="cdotaccent" unicode="&#x10b;" horiz-adv-x="556" 
d="M504 125q-42 -71 -109 -106t-148 -35q-52 0 -96 16.5t-76.5 47t-51 73.5t-18.5 96q0 55 21 107t60 92.5t96 65t129 24.5q82 0 139 -38t80 -107l-140 -55q-12 30 -38.5 45t-61.5 15q-31 0 -56 -11t-42.5 -29t-27 -42t-9.5 -50q0 -27 9 -47.5t24 -34.5t34 -21t39 -7
q41 0 68.5 17t44.5 47zM339 562q-35 0 -60 25t-25 60t25 60t60 25t60 -25t25 -60t-25 -60t-60 -25z" />
    <glyph glyph-name="Ccaron" unicode="&#x10c;" horiz-adv-x="737" 
d="M671 115q-34 -36 -68 -60.5t-71.5 -40.5t-79.5 -23t-90 -7q-70 0 -130.5 23t-105.5 66.5t-70.5 106t-25.5 142.5q0 85 31.5 160t88 130.5t135.5 87.5t174 32q94 0 159.5 -32.5t107.5 -91.5l-124 -102q-27 35 -65.5 56.5t-99.5 21.5q-50 0 -95.5 -19t-80 -52.5t-55 -80.5
t-20.5 -103q0 -45 14 -81.5t39 -62t60 -39.5t76 -14q60 0 106 25t90 70zM666 908l-136 -130h-138l-96 130l2 10h139l27 -58h14l43 58h147z" />
    <glyph glyph-name="ccaron" unicode="&#x10d;" horiz-adv-x="556" 
d="M504 125q-42 -71 -109 -106t-148 -35q-52 0 -96 16.5t-76.5 47t-51 73.5t-18.5 96q0 55 21 107t60 92.5t96 65t129 24.5q82 0 139 -38t80 -107l-140 -55q-12 30 -38.5 45t-61.5 15q-31 0 -56 -11t-42.5 -29t-27 -42t-9.5 -50q0 -27 9 -47.5t24 -34.5t34 -21t39 -7
q41 0 68.5 17t44.5 47zM540 706l-136 -130h-138l-96 130l2 10h139l27 -58h14l43 58h147z" />
    <glyph glyph-name="Dcaron" unicode="&#x10e;" horiz-adv-x="733" 
d="M135 716h232q82 0 144.5 -23t105 -64.5t64 -100t21.5 -129.5q0 -81 -30 -153t-85.5 -127t-135 -87t-178.5 -32h-265zM279 148q62 0 111.5 17t84 48t53 73.5t18.5 93.5q0 91 -46 139.5t-146 48.5h-89l-75 -420h89zM585 890l-136 -130h-138l-96 130l2 10h139l27 -58h14
l43 58h147z" />
    <glyph glyph-name="dcaron" unicode="&#x10f;" horiz-adv-x="739" 
d="M363 54h-10q-18 -26 -53 -48t-93 -22q-44 0 -81 18t-64 49.5t-42 73.5t-15 91q0 58 19.5 110.5t55.5 92.5t86 63.5t112 23.5q49 0 89 -20.5t56 -49.5h10v70l37 210h150l-126 -716h-140zM267 124q24 0 48 9t42.5 26.5t30 43t11.5 59.5q0 45 -30.5 74.5t-80.5 29.5
q-30 0 -55 -11.5t-42 -30.5t-26.5 -44t-9.5 -52q0 -48 31.5 -76t80.5 -28zM629 490l40 226h157l-89 -226h-108z" />
    <glyph glyph-name="Dcroat" unicode="&#x110;" horiz-adv-x="723" 
d="M52 308h-68l21 128h70l50 280h232q82 0 144.5 -23t105 -64.5t64 -100t21.5 -129.5q0 -81 -30 -153t-85.5 -127t-135 -87t-178.5 -32h-265zM269 148q62 0 111.5 17t84 48t53 73.5t18.5 93.5q0 91 -46 139.5t-146 48.5h-89l-24 -132h186l-22 -128h-187l-28 -160h89z" />
    <glyph glyph-name="dcroat" unicode="&#x111;" horiz-adv-x="605" 
d="M363 54h-10q-18 -26 -53 -48t-93 -22q-44 0 -81 18t-64 49.5t-42 73.5t-15 91q0 58 19.5 110.5t55.5 92.5t86 63.5t112 23.5q49 0 89 -20.5t56 -49.5h10v70l9 52h-128l18 100h127l11 58h150l-11 -58h58l-18 -100h-57l-98 -558h-140zM267 124q24 0 48 9t42.5 26.5t30 43
t11.5 59.5q0 45 -30.5 74.5t-80.5 29.5q-30 0 -55 -11.5t-42 -30.5t-26.5 -44t-9.5 -52q0 -48 31.5 -76t80.5 -28z" />
    <glyph glyph-name="Emacron" unicode="&#x112;" horiz-adv-x="596" 
d="M265 568l-24 -136h284l-27 -148h-284l-24 -136h316l-26 -148h-472l127 716h472l-26 -148h-316zM215 786l20 114h304l-20 -114h-304z" />
    <glyph glyph-name="emacron" unicode="&#x113;" horiz-adv-x="566" 
d="M494 122q-23 -32 -47.5 -57.5t-54.5 -43.5t-67 -27.5t-85 -9.5q-54 0 -97 18.5t-74 50.5t-47.5 75t-16.5 92q0 56 21.5 108t60.5 91.5t93.5 63t120.5 23.5q55 0 96.5 -16.5t70 -44.5t43 -65t14.5 -77q0 -28 -4 -50.5t-12 -44.5h-361q2 -48 33 -70t72 -22q48 0 77.5 16
t50.5 48zM389 310q0 30 -25 54t-74 24q-44 0 -77.5 -23t-46.5 -55h223zM178 602l20 114h304l-20 -114h-304z" />
    <glyph glyph-name="Ebreve" unicode="&#x114;" horiz-adv-x="596" 
d="M265 568l-24 -136h284l-27 -148h-284l-24 -136h316l-26 -148h-472l127 716h472l-26 -148h-316zM370 760q-25 0 -47 8.5t-38.5 23.5t-26.5 36.5t-10 47.5v11t2 13h102q-1 -4 -1 -8q0 -13 8 -22.5t25 -9.5t29.5 12t15.5 28h101q-11 -69 -52.5 -104.5t-107.5 -35.5z" />
    <glyph glyph-name="ebreve" unicode="&#x115;" horiz-adv-x="566" 
d="M494 122q-23 -32 -47.5 -57.5t-54.5 -43.5t-67 -27.5t-85 -9.5q-54 0 -97 18.5t-74 50.5t-47.5 75t-16.5 92q0 56 21.5 108t60.5 91.5t93.5 63t120.5 23.5q55 0 96.5 -16.5t70 -44.5t43 -65t14.5 -77q0 -28 -4 -50.5t-12 -44.5h-361q2 -48 33 -70t72 -22q48 0 77.5 16
t50.5 48zM389 310q0 30 -25 54t-74 24q-44 0 -77.5 -23t-46.5 -55h223zM329 576q-25 0 -47 8.5t-38.5 23.5t-26.5 36.5t-10 47.5v11t2 13h102q-1 -4 -1 -8q0 -13 8 -22.5t25 -9.5t29.5 12t15.5 28h101q-11 -69 -52.5 -104.5t-107.5 -35.5z" />
    <glyph glyph-name="Edotaccent" unicode="&#x116;" horiz-adv-x="596" 
d="M265 568l-24 -136h284l-27 -148h-284l-24 -136h316l-26 -148h-472l127 716h472l-26 -148h-316zM395 776q-33 0 -56.5 23.5t-23.5 56.5t23.5 56.5t56.5 23.5t56.5 -23.5t23.5 -56.5t-23.5 -56.5t-56.5 -23.5z" />
    <glyph glyph-name="edotaccent" unicode="&#x117;" horiz-adv-x="566" 
d="M494 122q-23 -32 -47.5 -57.5t-54.5 -43.5t-67 -27.5t-85 -9.5q-54 0 -97 18.5t-74 50.5t-47.5 75t-16.5 92q0 56 21.5 108t60.5 91.5t93.5 63t120.5 23.5q55 0 96.5 -16.5t70 -44.5t43 -65t14.5 -77q0 -28 -4 -50.5t-12 -44.5h-361q2 -48 33 -70t72 -22q48 0 77.5 16
t50.5 48zM389 310q0 30 -25 54t-74 24q-44 0 -77.5 -23t-46.5 -55h223zM336 562q-35 0 -60 25t-25 60t25 60t60 25t60 -25t25 -60t-25 -60t-60 -25z" />
    <glyph glyph-name="Eogonek" unicode="&#x118;" horiz-adv-x="596" 
d="M390 -224q-60 0 -92 28t-32 72q0 42 24.5 73.5t59.5 50.5h-342l127 716h472l-26 -148h-316l-24 -136h284l-27 -148h-284l-24 -136h316l-26 -148q-14 -8 -29 -18t-27 -21.5t-19.5 -24.5t-7.5 -26q0 -14 8.5 -21.5t22.5 -7.5q11 0 24 5l23 -93q-17 -8 -41 -12.5t-44 -4.5z
" />
    <glyph glyph-name="eogonek" unicode="&#x119;" horiz-adv-x="566" 
d="M266 -224q-60 0 -92 28t-32 72q0 35 17.5 62.5t44.5 47.5q-46 6 -83 26.5t-62.5 51.5t-39.5 71t-14 85q0 56 21.5 108t60.5 91.5t93.5 63t120.5 23.5q55 0 96.5 -16.5t70 -44.5t43 -65t14.5 -77q0 -28 -4 -50.5t-12 -44.5h-361q2 -48 33 -70t72 -22q48 0 77.5 16t50.5 48
l113 -58q-27 -38 -57.5 -67t-72.5 -50q-37 -18 -64 -42.5t-27 -52.5q0 -14 8.5 -21.5t22.5 -7.5q11 0 24 5l23 -93q-17 -8 -41 -12.5t-44 -4.5zM389 310q0 30 -25 54t-74 24q-44 0 -77.5 -23t-46.5 -55h223z" />
    <glyph glyph-name="Ecaron" unicode="&#x11a;" horiz-adv-x="596" 
d="M265 568l-24 -136h284l-27 -148h-284l-24 -136h316l-26 -148h-472l127 716h472l-26 -148h-316zM576 890l-136 -130h-138l-96 130l2 10h139l27 -58h14l43 58h147z" />
    <glyph glyph-name="ecaron" unicode="&#x11b;" horiz-adv-x="566" 
d="M494 122q-23 -32 -47.5 -57.5t-54.5 -43.5t-67 -27.5t-85 -9.5q-54 0 -97 18.5t-74 50.5t-47.5 75t-16.5 92q0 56 21.5 108t60.5 91.5t93.5 63t120.5 23.5q55 0 96.5 -16.5t70 -44.5t43 -65t14.5 -77q0 -28 -4 -50.5t-12 -44.5h-361q2 -48 33 -70t72 -22q48 0 77.5 16
t50.5 48zM389 310q0 30 -25 54t-74 24q-44 0 -77.5 -23t-46.5 -55h223zM528 706l-136 -130h-138l-96 130l2 10h139l27 -58h14l43 58h147z" />
    <glyph glyph-name="Gcircumflex" unicode="&#x11c;" horiz-adv-x="815" 
d="M421 398h352q2 -11 2 -18v-15q0 -91 -33.5 -164t-92.5 -124q-52 -45 -118.5 -69t-141.5 -24q-84 0 -150 26t-112.5 72.5t-71 109.5t-24.5 137q0 79 31 152t87.5 129t135.5 89t176 33q96 0 165 -32t114 -88l-123 -106q-25 32 -66.5 55t-103.5 23q-53 0 -100 -17
t-82.5 -48.5t-56.5 -77.5t-21 -104q0 -47 15 -85t42.5 -64.5t65.5 -41t84 -14.5q45 0 80.5 11t62.5 31q23 17 39 41t27 53h-205zM289 771l136 130h138l96 -130l-2 -10h-139l-27 58h-14l-43 -58h-147z" />
    <glyph glyph-name="gcircumflex" unicode="&#x11d;" horiz-adv-x="608" 
d="M216 -232q-50 0 -89.5 12.5t-68 33.5t-47 48t-26.5 57l147 53q8 -38 34.5 -55t59.5 -17q60 0 95.5 29t47.5 95l7 38h-10q-22 -32 -58.5 -47t-79.5 -15q-44 0 -81.5 16t-64.5 45t-42 69.5t-15 89.5q0 53 18 104.5t52.5 92t84.5 65t114 24.5q46 0 82 -15t57 -47h10l8 46
h144l-84 -476q-20 -116 -90.5 -181t-204.5 -65zM279 136q25 0 48.5 9.5t42 27.5t30 43t11.5 57q0 24 -9 42.5t-23.5 30.5t-33 18t-37.5 6q-27 0 -51.5 -11t-42.5 -30t-28.5 -43t-10.5 -51q0 -25 8.5 -43.5t23 -31t33 -18.5t39.5 -6zM147 586l136 130h138l96 -130l-2 -10
h-139l-27 58h-14l-43 -58h-147z" />
    <glyph glyph-name="Gbreve" unicode="&#x11e;" horiz-adv-x="815" 
d="M421 398h352q2 -11 2 -18v-15q0 -91 -33.5 -164t-92.5 -124q-52 -45 -118.5 -69t-141.5 -24q-84 0 -150 26t-112.5 72.5t-71 109.5t-24.5 137q0 79 31 152t87.5 129t135.5 89t176 33q96 0 165 -32t114 -88l-123 -106q-25 32 -66.5 55t-103.5 23q-53 0 -100 -17
t-82.5 -48.5t-56.5 -77.5t-21 -104q0 -47 15 -85t42.5 -64.5t65.5 -41t84 -14.5q45 0 80.5 11t62.5 31q23 17 39 41t27 53h-205zM475 760q-25 0 -47 8.5t-38.5 23.5t-26.5 36.5t-10 47.5v11t2 13h102q-1 -4 -1 -8q0 -13 8 -22.5t25 -9.5t29.5 12t15.5 28h101
q-11 -69 -52.5 -104.5t-107.5 -35.5z" />
    <glyph glyph-name="gbreve" unicode="&#x11f;" horiz-adv-x="608" 
d="M216 -232q-50 0 -89.5 12.5t-68 33.5t-47 48t-26.5 57l147 53q8 -38 34.5 -55t59.5 -17q60 0 95.5 29t47.5 95l7 38h-10q-22 -32 -58.5 -47t-79.5 -15q-44 0 -81.5 16t-64.5 45t-42 69.5t-15 89.5q0 53 18 104.5t52.5 92t84.5 65t114 24.5q46 0 82 -15t57 -47h10l8 46
h144l-84 -476q-20 -116 -90.5 -181t-204.5 -65zM279 136q25 0 48.5 9.5t42 27.5t30 43t11.5 57q0 24 -9 42.5t-23.5 30.5t-33 18t-37.5 6q-27 0 -51.5 -11t-42.5 -30t-28.5 -43t-10.5 -51q0 -25 8.5 -43.5t23 -31t33 -18.5t39.5 -6zM349 576q-25 0 -47 8.5t-38.5 23.5
t-26.5 36.5t-10 47.5v11t2 13h102q-1 -4 -1 -8q0 -13 8 -22.5t25 -9.5t29.5 12t15.5 28h101q-11 -69 -52.5 -104.5t-107.5 -35.5z" />
    <glyph glyph-name="Gdotaccent" unicode="&#x120;" horiz-adv-x="815" 
d="M421 398h352q2 -11 2 -18v-15q0 -91 -33.5 -164t-92.5 -124q-52 -45 -118.5 -69t-141.5 -24q-84 0 -150 26t-112.5 72.5t-71 109.5t-24.5 137q0 79 31 152t87.5 129t135.5 89t176 33q96 0 165 -32t114 -88l-123 -106q-25 32 -66.5 55t-103.5 23q-53 0 -100 -17
t-82.5 -48.5t-56.5 -77.5t-21 -104q0 -47 15 -85t42.5 -64.5t65.5 -41t84 -14.5q45 0 80.5 11t62.5 31q23 17 39 41t27 53h-205zM489 776q-33 0 -56.5 23.5t-23.5 56.5t23.5 56.5t56.5 23.5t56.5 -23.5t23.5 -56.5t-23.5 -56.5t-56.5 -23.5z" />
    <glyph glyph-name="gdotaccent" unicode="&#x121;" horiz-adv-x="608" 
d="M216 -232q-50 0 -89.5 12.5t-68 33.5t-47 48t-26.5 57l147 53q8 -38 34.5 -55t59.5 -17q60 0 95.5 29t47.5 95l7 38h-10q-22 -32 -58.5 -47t-79.5 -15q-44 0 -81.5 16t-64.5 45t-42 69.5t-15 89.5q0 53 18 104.5t52.5 92t84.5 65t114 24.5q46 0 82 -15t57 -47h10l8 46
h144l-84 -476q-20 -116 -90.5 -181t-204.5 -65zM279 136q25 0 48.5 9.5t42 27.5t30 43t11.5 57q0 24 -9 42.5t-23.5 30.5t-33 18t-37.5 6q-27 0 -51.5 -11t-42.5 -30t-28.5 -43t-10.5 -51q0 -25 8.5 -43.5t23 -31t33 -18.5t39.5 -6zM349 562q-35 0 -60 25t-25 60t25 60
t60 25t60 -25t25 -60t-25 -60t-60 -25z" />
    <glyph glyph-name="uni0122" unicode="&#x122;" horiz-adv-x="815" 
d="M421 398h352q2 -11 2 -18v-15q0 -91 -33.5 -164t-92.5 -124q-52 -45 -118.5 -69t-141.5 -24q-84 0 -150 26t-112.5 72.5t-71 109.5t-24.5 137q0 79 31 152t87.5 129t135.5 89t176 33q96 0 165 -32t114 -88l-123 -106q-25 32 -66.5 55t-103.5 23q-53 0 -100 -17
t-82.5 -48.5t-56.5 -77.5t-21 -104q0 -47 15 -85t42.5 -64.5t65.5 -41t84 -14.5q45 0 80.5 11t62.5 31q23 17 39 41t27 53h-205zM263 -265l63 71q-20 9 -31.5 27.5t-11.5 41.5q0 32 22.5 54.5t54.5 22.5t54 -22.5t22 -54.5q0 -12 -4 -25.5t-15 -26.5l-106 -129z" />
    <glyph glyph-name="uni0123" unicode="&#x123;" horiz-adv-x="608" 
d="M216 -232q-50 0 -89.5 12.5t-68 33.5t-47 48t-26.5 57l147 53q8 -38 34.5 -55t59.5 -17q60 0 95.5 29t47.5 95l7 38h-10q-22 -32 -58.5 -47t-79.5 -15q-44 0 -81.5 16t-64.5 45t-42 69.5t-15 89.5q0 53 18 104.5t52.5 92t84.5 65t114 24.5q46 0 82 -15t57 -47h10l8 46
h144l-84 -476q-20 -116 -90.5 -181t-204.5 -65zM279 136q25 0 48.5 9.5t42 27.5t30 43t11.5 57q0 24 -9 42.5t-23.5 30.5t-33 18t-37.5 6q-27 0 -51.5 -11t-42.5 -30t-28.5 -43t-10.5 -51q0 -25 8.5 -43.5t23 -31t33 -18.5t39.5 -6zM452.008 788.968l-62.9922 -70.9912
q19.9971 -8.99902 31.4961 -27.4971q11.498 -18.4971 11.498 -41.4951q0 -31.9961 -22.4971 -54.4932t-54.4932 -22.4971t-53.9932 22.4971q-21.998 22.4971 -21.998 54.4932q0 11.999 4 25.4971q3.99902 13.499 14.998 26.4971l105.987 128.984z" />
    <glyph glyph-name="Hcircumflex" unicode="&#x124;" horiz-adv-x="730" 
d="M135 716h156l-49 -276h274l49 276h156l-127 -716h-156l52 292h-274l-52 -292h-156zM249 770l136 130h138l96 -130l-2 -10h-139l-27 58h-14l-43 -58h-147z" />
    <glyph glyph-name="hcircumflex" unicode="&#x125;" 
d="M119 716h150l-34 -188l-27 -100h10q26 39 67 58.5t91 19.5q39 0 68 -13t48.5 -35t29 -50.5t9.5 -59.5q0 -14 -1.5 -27.5t-3.5 -28.5l-52 -292h-150l49 275q1 4 1.5 11.5t0.5 13.5q0 26 -15.5 46t-48.5 20q-29 0 -50.5 -10.5t-37 -29t-25 -44.5t-15.5 -57l-40 -225h-150z
M179 770l136 130h138l96 -130l-2 -10h-139l-27 58h-14l-43 -58h-147z" />
    <glyph glyph-name="Hbar" unicode="&#x126;" horiz-adv-x="730" 
d="M94 486h-62l20 112h62l21 118h156l-21 -118h274l21 118h156l-21 -118h62l-20 -112h-62l-86 -486h-156l52 292h-274l-52 -292h-156zM516 440l8 46h-274l-8 -46h274z" />
    <glyph glyph-name="hbar" unicode="&#x127;" 
d="M91 558h-55l17 100h55l11 58h150l-11 -58h130l-17 -100h-131l-5 -30l-27 -100h10q26 39 67 58.5t91 19.5q39 0 68 -13t48.5 -35t29 -50.5t9.5 -59.5q0 -14 -1.5 -27.5t-3.5 -28.5l-52 -292h-150l49 275q1 4 1.5 11.5t0.5 13.5q0 26 -15.5 46t-48.5 20q-29 0 -50.5 -10.5
t-37 -29t-25 -44.5t-15.5 -57l-40 -225h-150z" />
    <glyph glyph-name="Itilde" unicode="&#x128;" horiz-adv-x="300" 
d="M135 716h156l-127 -716h-156zM278 768q-22 0 -39.5 6.5t-32.5 14.5t-27 15q-12 6 -22 6q-23 0 -29 -26h-100q8 66 44 99t90 33q22 0 39.5 -6.5t32.5 -14.5t27 -14q12 -7 22 -7q23 0 29 26h100q-8 -66 -44 -99t-90 -33z" />
    <glyph glyph-name="itilde" unicode="&#x129;" horiz-adv-x="278" 
d="M0 0l85 490h150l-85 -490h-150zM249 584q-22 0 -39.5 6.5t-32.5 14.5t-27 15q-12 6 -22 6q-23 0 -29 -26h-100q8 66 44 99t90 33q22 0 39.5 -6.5t32.5 -14.5t27 -14q12 -7 22 -7q23 0 29 26h100q-8 -66 -44 -99t-90 -33z" />
    <glyph glyph-name="Imacron" unicode="&#x12a;" horiz-adv-x="300" 
d="M81 786l20 114h288l-20 -114h-288zM135 716h156l-127 -716h-156z" />
    <glyph glyph-name="imacron" unicode="&#x12b;" horiz-adv-x="278" 
d="M0 0l85 490h150l-85 -490h-150zM31 602l20 114h304l-20 -114h-304z" />
    <glyph glyph-name="Ibreve" unicode="&#x12c;" horiz-adv-x="300" 
d="M135 716h156l-127 -716h-156zM220 760q-25 0 -47 8.5t-38.5 23.5t-26.5 36.5t-10 47.5v11t2 13h102q-1 -4 -1 -8q0 -13 8 -22.5t25 -9.5t29.5 12t15.5 28h101q-11 -69 -52.5 -104.5t-107.5 -35.5z" />
    <glyph glyph-name="ibreve" unicode="&#x12d;" horiz-adv-x="278" 
d="M0 0l85 490h150l-85 -490h-150zM183 576q-25 0 -47 8.5t-38.5 23.5t-26.5 36.5t-10 47.5v11t2 13h102q-1 -4 -1 -8q0 -13 8 -22.5t25 -9.5t29.5 12t15.5 28h101q-11 -69 -52.5 -104.5t-107.5 -35.5z" />
    <glyph glyph-name="Iogonek" unicode="&#x12e;" horiz-adv-x="300" 
d="M135 716h156l-127 -716q-14 -8 -29 -18t-27 -21.5t-19.5 -24.5t-7.5 -26q0 -14 8.5 -21.5t22.5 -7.5q11 0 24 5l23 -93q-17 -8 -41 -12.5t-44 -4.5q-60 0 -92 28t-32 72q0 38 21.5 67.5t52.5 49.5l-2 7h-14z" />
    <glyph glyph-name="iogonek" unicode="&#x12f;" horiz-adv-x="278" 
d="M60 -224q-60 0 -92 28t-32 72q0 37 19 65.5t50 48.5l-5 10l85 490h150l-85 -490q-14 -8 -29 -18t-27 -21.5t-19.5 -24.5t-7.5 -26q0 -14 8.5 -21.5t22.5 -7.5q11 0 24 5l23 -93q-17 -8 -41 -12.5t-44 -4.5zM186 544q-20 0 -37 7.5t-29.5 20t-20 29.5t-7.5 37
q0 19 7.5 36.5t20 30t29.5 20t37 7.5q19 0 36.5 -7.5t30 -20t20 -30t7.5 -36.5q0 -20 -7.5 -37t-20 -29.5t-30 -20t-36.5 -7.5z" />
    <glyph glyph-name="Idotaccent" unicode="&#x130;" horiz-adv-x="300" 
d="M135 716h156l-127 -716h-156zM236 776q-33 0 -56.5 23.5t-23.5 56.5t23.5 56.5t56.5 23.5t56.5 -23.5t23.5 -56.5t-23.5 -56.5t-56.5 -23.5z" />
    <glyph glyph-name="dotlessi" unicode="&#x131;" horiz-adv-x="278" 
d="M0 0l85 490h150l-85 -490h-150z" />
    <glyph glyph-name="Jcircumflex" unicode="&#x134;" horiz-adv-x="571" 
d="M219 -16q-42 0 -81 13t-70 36.5t-51.5 56t-25.5 71.5l149 57q5 -38 30.5 -62t64.5 -24q81 0 99 100l85 484h156l-86 -486q-12 -66 -37 -113t-60 -76.5t-79 -43t-94 -13.5zM314 770l136 130h138l96 -130l-2 -10h-139l-27 58h-14l-43 -58h-147z" />
    <glyph glyph-name="jcircumflex" unicode="&#x135;" horiz-adv-x="278" 
d="M-90 -78q16 -10 35 -10q39 0 48 50l92 528h151l-93 -532q-9 -54 -26 -89.5t-40.5 -56.5t-54.5 -29.5t-69 -8.5q-23 0 -50 4t-46 12zM-15 586l136 130h138l96 -130l-2 -10h-139l-27 58h-14l-43 -58h-147z" />
    <glyph glyph-name="uni0136" unicode="&#x136;" horiz-adv-x="692" 
d="M135 716h156l-48 -272h10l279 272h190l-2 -10l-308 -294l212 -402l-2 -10h-182l-154 294l-84 -82l-38 -212h-156zM200 -265l63 71q-20 9 -31.5 27.5t-11.5 41.5q0 32 22.5 54.5t54.5 22.5t54 -22.5t22 -54.5q0 -12 -4 -25.5t-15 -26.5l-106 -129z" />
    <glyph glyph-name="uni0137" unicode="&#x137;" horiz-adv-x="553" 
d="M119 716h150l-63 -360h10l157 134h189l-2 -10l-211 -175l147 -295l-2 -10h-169l-96 207l-58 -48l-28 -159h-150zM129 -265l63 71q-20 9 -31.5 27.5t-11.5 41.5q0 32 22.5 54.5t54.5 22.5t54 -22.5t22 -54.5q0 -12 -4 -25.5t-15 -26.5l-106 -129z" />
    <glyph glyph-name="kgreenlandic" unicode="&#x138;" horiz-adv-x="534" 
d="M229 490l-36 -204h10l172 204h175l-2 -10l-199 -230l122 -240l-2 -10h-166l-110 228h-10l-41 -228h-149l86 490h150z" />
    <glyph glyph-name="Lacute" unicode="&#x139;" horiz-adv-x="552" 
d="M135 716h156l-101 -568h300l-26 -148h-456zM148 772l62 140h179l-123 -140h-118z" />
    <glyph glyph-name="lacute" unicode="&#x13a;" horiz-adv-x="262" 
d="M-7 0l126 716h150l-126 -716h-150zM133 772l62 140h179l-123 -140h-118z" />
    <glyph glyph-name="uni013B" unicode="&#x13b;" horiz-adv-x="552" 
d="M135 716h156l-101 -568h300l-26 -148h-456zM143 -265l63 71q-20 9 -31.5 27.5t-11.5 41.5q0 32 22.5 54.5t54.5 22.5t54 -22.5t22 -54.5q0 -12 -4 -25.5t-15 -26.5l-106 -129z" />
    <glyph glyph-name="uni013C" unicode="&#x13c;" horiz-adv-x="262" 
d="M-7 0l126 716h150l-126 -716h-150zM-48 -265l63 71q-20 9 -31.5 27.5t-11.5 41.5q0 32 22.5 54.5t54.5 22.5t54 -22.5t22 -54.5q0 -12 -4 -25.5t-15 -26.5l-106 -129z" />
    <glyph glyph-name="Lcaron" unicode="&#x13d;" horiz-adv-x="552" 
d="M135 716h156l-101 -568h300l-26 -148h-456zM382 490l40 226h157l-89 -226h-108z" />
    <glyph glyph-name="lcaron" unicode="&#x13e;" horiz-adv-x="421" 
d="M13 0l126 716h150l-126 -716h-150zM311 490l40 226h157l-89 -226h-108z" />
    <glyph glyph-name="Ldot" unicode="&#x13f;" horiz-adv-x="552" 
d="M135 716h156l-101 -568h300l-26 -148h-456zM403 248q-40 0 -68 28t-28 68t28 68t68 28t68 -28t28 -68t-28 -68t-68 -28z" />
    <glyph glyph-name="Lslash" unicode="&#x141;" horiz-adv-x="638" 
d="M135 232l-54 -30l-55 103l136 77l59 334h156l-42 -236l115 65l55 -99l-195 -110l-34 -188h300l-26 -148h-456z" />
    <glyph glyph-name="lslash" unicode="&#x142;" horiz-adv-x="447" 
d="M82 0l43 240l-48 -30l-62 93l136 88l58 325h150l-39 -219l63 41l62 -94l-152 -99l-61 -345h-150z" />
    <glyph glyph-name="Nacute" unicode="&#x143;" horiz-adv-x="736" 
d="M135 716h172l188 -442h10l14 138l54 304h154l-127 -716h-156l-199 468h-10l-14 -138l-59 -330h-154zM372 772l62 140h179l-123 -140h-118z" />
    <glyph glyph-name="nacute" unicode="&#x144;" 
d="M208 428h10q26 39 67 58.5t91 19.5q39 0 68 -13t48.5 -35t29 -50.5t9.5 -59.5q0 -14 -1.5 -27.5t-3.5 -28.5l-52 -292h-150l49 275q1 4 1.5 11.5t0.5 13.5q0 26 -15.5 46t-48.5 20q-29 0 -50.5 -10.5t-37 -29t-25 -44.5t-15.5 -57l-40 -225h-150l86 490h140zM284 588
l62 140h179l-123 -140h-118z" />
    <glyph glyph-name="uni0145" unicode="&#x145;" horiz-adv-x="736" 
d="M135 716h172l188 -442h10l14 138l54 304h154l-127 -716h-156l-199 468h-10l-14 -138l-59 -330h-154zM204 -265l63 71q-20 9 -31.5 27.5t-11.5 41.5q0 32 22.5 54.5t54.5 22.5t54 -22.5t22 -54.5q0 -12 -4 -25.5t-15 -26.5l-106 -129z" />
    <glyph glyph-name="uni0146" unicode="&#x146;" 
d="M208 428h10q26 39 67 58.5t91 19.5q39 0 68 -13t48.5 -35t29 -50.5t9.5 -59.5q0 -14 -1.5 -27.5t-3.5 -28.5l-52 -292h-150l49 275q1 4 1.5 11.5t0.5 13.5q0 26 -15.5 46t-48.5 20q-29 0 -50.5 -10.5t-37 -29t-25 -44.5t-15.5 -57l-40 -225h-150l86 490h140zM118 -265
l63 71q-20 9 -31.5 27.5t-11.5 41.5q0 32 22.5 54.5t54.5 22.5t54 -22.5t22 -54.5q0 -12 -4 -25.5t-15 -26.5l-106 -129z" />
    <glyph glyph-name="Ncaron" unicode="&#x147;" horiz-adv-x="736" 
d="M135 716h172l188 -442h10l14 138l54 304h154l-127 -716h-156l-199 468h-10l-14 -138l-59 -330h-154zM638 890l-136 -130h-138l-96 130l2 10h139l27 -58h14l43 58h147z" />
    <glyph glyph-name="ncaron" unicode="&#x148;" 
d="M208 428h10q26 39 67 58.5t91 19.5q39 0 68 -13t48.5 -35t29 -50.5t9.5 -59.5q0 -14 -1.5 -27.5t-3.5 -28.5l-52 -292h-150l49 275q1 4 1.5 11.5t0.5 13.5q0 26 -15.5 46t-48.5 20q-29 0 -50.5 -10.5t-37 -29t-25 -44.5t-15.5 -57l-40 -225h-150l86 490h140zM544 706
l-136 -130h-138l-96 130l2 10h139l27 -58h14l43 58h147z" />
    <glyph glyph-name="Eng" unicode="&#x14a;" horiz-adv-x="736" 
d="M135 716h174l188 -427h10l15 138l51 289h154l-131 -742q-11 -60 -29 -99t-43.5 -61.5t-59 -31t-75.5 -8.5q-28 0 -49.5 4t-41.5 12l59 132q14 -10 35 -10q18 0 30.5 11.5t17.5 38.5l6 38l-201 468h-10l-14 -138l-59 -330h-154z" />
    <glyph glyph-name="eng" unicode="&#x14b;" 
d="M208 428h10q26 39 67 58.5t91 19.5q39 0 68 -13t48.5 -35t29 -50.5t9.5 -59.5q0 -14 -1.5 -27.5t-3.5 -28.5l-58 -334q-9 -54 -26 -89.5t-40.5 -56.5t-54.5 -29.5t-69 -8.5q-23 0 -50 4t-46 12l53 132q16 -10 35 -10q39 0 48 50l55 313q1 4 1.5 11.5t0.5 13.5
q0 26 -15.5 46t-48.5 20q-29 0 -50.5 -10.5t-37 -29t-25 -44.5t-15.5 -57l-40 -225h-150l86 490h140z" />
    <glyph glyph-name="Omacron" unicode="&#x14c;" horiz-adv-x="828" 
d="M374 -16q-74 0 -137 24t-109 68.5t-72 106.5t-26 138q0 85 30.5 159.5t86 130.5t134 88.5t173.5 32.5q78 0 141.5 -25.5t108.5 -71t69.5 -107t24.5 -133.5q0 -85 -30.5 -159.5t-86 -130.5t-134 -88.5t-173.5 -32.5zM387 132q54 0 100.5 19.5t81 54.5t54 83t19.5 106
q0 40 -15 74.5t-42 60t-64 40t-80 14.5q-54 0 -100.5 -19.5t-81 -54t-54 -82t-19.5 -103.5q0 -42 15 -77t42 -61t64 -40.5t80 -14.5zM319 786l20 114h304l-20 -114h-304z" />
    <glyph glyph-name="omacron" unicode="&#x14d;" horiz-adv-x="584" 
d="M305 506q54 0 98 -17.5t75 -48t47.5 -71.5t16.5 -88q0 -63 -22 -117.5t-62 -94t-95 -62.5t-121 -23q-54 0 -98 17.5t-75 48t-47.5 72t-16.5 88.5q0 63 22 117t62 93.5t95 62.5t121 23zM257 124q27 0 51.5 10.5t43 29.5t29.5 44t11 55q0 45 -28.5 74t-73.5 29
q-27 0 -51.5 -10.5t-43 -29.5t-29.5 -44t-11 -55q0 -45 29 -74t73 -29zM183 602l20 114h304l-20 -114h-304z" />
    <glyph glyph-name="Obreve" unicode="&#x14e;" horiz-adv-x="828" 
d="M374 -16q-74 0 -137 24t-109 68.5t-72 106.5t-26 138q0 85 30.5 159.5t86 130.5t134 88.5t173.5 32.5q78 0 141.5 -25.5t108.5 -71t69.5 -107t24.5 -133.5q0 -85 -30.5 -159.5t-86 -130.5t-134 -88.5t-173.5 -32.5zM387 132q54 0 100.5 19.5t81 54.5t54 83t19.5 106
q0 40 -15 74.5t-42 60t-64 40t-80 14.5q-54 0 -100.5 -19.5t-81 -54t-54 -82t-19.5 -103.5q0 -42 15 -77t42 -61t64 -40.5t80 -14.5zM475 760q-25 0 -47 8.5t-38.5 23.5t-26.5 36.5t-10 47.5v11t2 13h102q-1 -4 -1 -8q0 -13 8 -22.5t25 -9.5t29.5 12t15.5 28h101
q-11 -69 -52.5 -104.5t-107.5 -35.5z" />
    <glyph glyph-name="obreve" unicode="&#x14f;" horiz-adv-x="584" 
d="M305 506q54 0 98 -17.5t75 -48t47.5 -71.5t16.5 -88q0 -63 -22 -117.5t-62 -94t-95 -62.5t-121 -23q-54 0 -98 17.5t-75 48t-47.5 72t-16.5 88.5q0 63 22 117t62 93.5t95 62.5t121 23zM257 124q27 0 51.5 10.5t43 29.5t29.5 44t11 55q0 45 -28.5 74t-73.5 29
q-27 0 -51.5 -10.5t-43 -29.5t-29.5 -44t-11 -55q0 -45 29 -74t73 -29zM335 576q-25 0 -47 8.5t-38.5 23.5t-26.5 36.5t-10 47.5v11t2 13h102q-1 -4 -1 -8q0 -13 8 -22.5t25 -9.5t29.5 12t15.5 28h101q-11 -69 -52.5 -104.5t-107.5 -35.5z" />
    <glyph glyph-name="Ohungarumlaut" unicode="&#x150;" horiz-adv-x="828" 
d="M374 -16q-74 0 -137 24t-109 68.5t-72 106.5t-26 138q0 85 30.5 159.5t86 130.5t134 88.5t173.5 32.5q78 0 141.5 -25.5t108.5 -71t69.5 -107t24.5 -133.5q0 -85 -30.5 -159.5t-86 -130.5t-134 -88.5t-173.5 -32.5zM387 132q54 0 100.5 19.5t81 54.5t54 83t19.5 106
q0 40 -15 74.5t-42 60t-64 40t-80 14.5q-54 0 -100.5 -19.5t-81 -54t-54 -82t-19.5 -103.5q0 -42 15 -77t42 -61t64 -40.5t80 -14.5zM521 772l62 140h179l-123 -140h-118zM306 772l62 140h179l-123 -140h-118z" />
    <glyph glyph-name="ohungarumlaut" unicode="&#x151;" horiz-adv-x="584" 
d="M305 506q54 0 98 -17.5t75 -48t47.5 -71.5t16.5 -88q0 -63 -22 -117.5t-62 -94t-95 -62.5t-121 -23q-54 0 -98 17.5t-75 48t-47.5 72t-16.5 88.5q0 63 22 117t62 93.5t95 62.5t121 23zM257 124q27 0 51.5 10.5t43 29.5t29.5 44t11 55q0 45 -28.5 74t-73.5 29
q-27 0 -51.5 -10.5t-43 -29.5t-29.5 -44t-11 -55q0 -45 29 -74t73 -29zM166 588l62 140h179l-123 -140h-118zM380 588l62 140h179l-123 -140h-118z" />
    <glyph glyph-name="OE" unicode="&#x152;" horiz-adv-x="1144" 
d="M557 58q-32 -35 -83 -54.5t-117 -19.5q-68 0 -127.5 24.5t-104 68.5t-70 106.5t-25.5 137.5q0 85 31.5 159.5t87 130.5t132.5 88.5t169 32.5q75 0 127 -19.5t85 -54.5h10l11 58h472l-26 -148h-316l-24 -136h284l-27 -148h-284l-24 -136h316l-26 -148h-472l11 58h-10z
M384 132q56 0 102 18.5t78.5 52t50.5 79.5t18 101q0 45 -14 82t-39.5 63.5t-62 41t-80.5 14.5q-54 0 -99.5 -19t-79.5 -53t-53 -82.5t-19 -106.5q0 -41 15.5 -76t42.5 -60.5t63 -40t77 -14.5z" />
    <glyph glyph-name="oe" unicode="&#x153;" horiz-adv-x="946" 
d="M874 122q-23 -32 -47.5 -57.5t-54.5 -43.5t-67 -27.5t-85 -9.5q-58 0 -102.5 21t-73.5 56q-38 -36 -88.5 -56.5t-113.5 -20.5q-54 0 -98 17.5t-75 48t-47.5 72t-16.5 88.5q0 63 22 117t62 93.5t95 62.5t121 23q55 0 99 -21.5t74 -57.5q38 36 89 57.5t114 21.5
q55 0 96.5 -16.5t70 -44.5t43 -65t14.5 -77q0 -28 -4 -50.5t-12 -44.5h-361q2 -48 33 -70t72 -22q48 0 77.5 16t50.5 48zM257 124q27 0 51.5 10.5t43 29.5t29.5 44t11 55q0 45 -28.5 74t-73.5 29q-27 0 -51.5 -10.5t-43 -29.5t-29.5 -44t-11 -55q0 -45 29 -74t73 -29z
M769 310q0 30 -25 54t-74 24q-44 0 -77.5 -23t-46.5 -55h223z" />
    <glyph glyph-name="Racute" unicode="&#x154;" horiz-adv-x="641" 
d="M135 716h235q56 0 101 -16.5t76.5 -44t48.5 -64.5t17 -78q0 -47 -15 -85.5t-40 -68.5t-57 -50.5t-66 -29.5l-2 -9l136 -260l-2 -10h-168l-135 258h-54l-46 -258h-156zM349 402q48 0 78 22t30 70q0 37 -24 57.5t-63 20.5h-105l-30 -170h114zM311 772l62 140h179l-123 -140
h-118z" />
    <glyph glyph-name="racute" unicode="&#x155;" horiz-adv-x="429" 
d="M79 490h140l-11 -62h10q26 32 61 54t86 22q27 0 45.5 -6.5t30.5 -14.5l-54 -132q-10 5 -26 10t-39 5q-57 0 -93 -39t-47 -102l-39 -225h-150zM214 588l62 140h179l-123 -140h-118z" />
    <glyph glyph-name="uni0156" unicode="&#x156;" horiz-adv-x="641" 
d="M135 716h235q56 0 101 -16.5t76.5 -44t48.5 -64.5t17 -78q0 -47 -15 -85.5t-40 -68.5t-57 -50.5t-66 -29.5l-2 -9l136 -260l-2 -10h-168l-135 258h-54l-46 -258h-156zM349 402q48 0 78 22t30 70q0 37 -24 57.5t-63 20.5h-105l-30 -170h114zM174 -265l63 71
q-20 9 -31.5 27.5t-11.5 41.5q0 32 22.5 54.5t54.5 22.5t54 -22.5t22 -54.5q0 -12 -4 -25.5t-15 -26.5l-106 -129z" />
    <glyph glyph-name="uni0157" unicode="&#x157;" horiz-adv-x="429" 
d="M79 490h140l-11 -62h10q26 32 61 54t86 22q27 0 45.5 -6.5t30.5 -14.5l-54 -132q-10 5 -26 10t-39 5q-57 0 -93 -39t-47 -102l-39 -225h-150zM-48 -265l63 71q-20 9 -31.5 27.5t-11.5 41.5q0 32 22.5 54.5t54.5 22.5t54 -22.5t22 -54.5q0 -12 -4 -25.5t-15 -26.5
l-106 -129z" />
    <glyph glyph-name="Rcaron" unicode="&#x158;" horiz-adv-x="641" 
d="M135 716h235q56 0 101 -16.5t76.5 -44t48.5 -64.5t17 -78q0 -47 -15 -85.5t-40 -68.5t-57 -50.5t-66 -29.5l-2 -9l136 -260l-2 -10h-168l-135 258h-54l-46 -258h-156zM349 402q48 0 78 22t30 70q0 37 -24 57.5t-63 20.5h-105l-30 -170h114zM568 890l-136 -130h-138
l-96 130l2 10h139l27 -58h14l43 58h147z" />
    <glyph glyph-name="rcaron" unicode="&#x159;" horiz-adv-x="429" 
d="M79 490h140l-11 -62h10q26 32 61 54t86 22q27 0 45.5 -6.5t30.5 -14.5l-54 -132q-10 5 -26 10t-39 5q-57 0 -93 -39t-47 -102l-39 -225h-150zM472 706l-136 -130h-138l-96 130l2 10h139l27 -58h14l43 58h147z" />
    <glyph glyph-name="Sacute" unicode="&#x15a;" horiz-adv-x="586" 
d="M243 -16q-45 0 -86 13t-74 38.5t-56 64.5t-32 91l149 60q4 -51 33 -85t82 -34q48 0 77.5 20.5t29.5 55.5q0 33 -23.5 56.5t-86.5 48.5l-31 12q-30 12 -57 29t-47 41t-32 55t-12 71q0 45 19.5 84t54 67t82 44t104.5 16q56 0 95.5 -15t65.5 -38t40.5 -50.5t20.5 -52.5
l-141 -54q-18 68 -98 68q-17 0 -32.5 -4.5t-28.5 -12.5t-20.5 -20t-7.5 -28q0 -29 22 -48.5t73 -38.5l41 -15q75 -28 115 -74.5t40 -125.5q0 -50 -19.5 -93.5t-56 -76t-88 -51t-115.5 -18.5zM290 772l62 140h179l-123 -140h-118z" />
    <glyph glyph-name="sacute" unicode="&#x15b;" horiz-adv-x="497" 
d="M207 -16q-46 0 -83.5 11t-65 30t-46 44.5t-27.5 54.5l137 56q8 -34 34 -49t62 -15q26 0 47.5 8.5t21.5 28.5q0 17 -15 26.5t-46 17.5l-52 13q-21 5 -44.5 16.5t-42.5 28.5t-31.5 41t-12.5 54q0 38 17 67.5t46.5 49t70.5 29.5t89 10q76 0 124.5 -28t75.5 -91l-136 -49
q-8 26 -30.5 38t-46.5 12q-32 0 -47 -9t-15 -22q0 -15 14 -24.5t35 -14.5l73 -18q63 -16 94 -53t31 -82q0 -42 -18 -76t-49.5 -57t-73.5 -35.5t-90 -12.5zM226 588l62 140h179l-123 -140h-118z" />
    <glyph glyph-name="Scircumflex" unicode="&#x15c;" horiz-adv-x="586" 
d="M243 -16q-45 0 -86 13t-74 38.5t-56 64.5t-32 91l149 60q4 -51 33 -85t82 -34q48 0 77.5 20.5t29.5 55.5q0 33 -23.5 56.5t-86.5 48.5l-31 12q-30 12 -57 29t-47 41t-32 55t-12 71q0 45 19.5 84t54 67t82 44t104.5 16q56 0 95.5 -15t65.5 -38t40.5 -50.5t20.5 -52.5
l-141 -54q-18 68 -98 68q-17 0 -32.5 -4.5t-28.5 -12.5t-20.5 -20t-7.5 -28q0 -29 22 -48.5t73 -38.5l41 -15q75 -28 115 -74.5t40 -125.5q0 -50 -19.5 -93.5t-56 -76t-88 -51t-115.5 -18.5zM157 771l136 130h138l96 -130l-2 -10h-139l-27 58h-14l-43 -58h-147z" />
    <glyph glyph-name="scircumflex" unicode="&#x15d;" horiz-adv-x="497" 
d="M207 -16q-46 0 -83.5 11t-65 30t-46 44.5t-27.5 54.5l137 56q8 -34 34 -49t62 -15q26 0 47.5 8.5t21.5 28.5q0 17 -15 26.5t-46 17.5l-52 13q-21 5 -44.5 16.5t-42.5 28.5t-31.5 41t-12.5 54q0 38 17 67.5t46.5 49t70.5 29.5t89 10q76 0 124.5 -28t75.5 -91l-136 -49
q-8 26 -30.5 38t-46.5 12q-32 0 -47 -9t-15 -22q0 -15 14 -24.5t35 -14.5l73 -18q63 -16 94 -53t31 -82q0 -42 -18 -76t-49.5 -57t-73.5 -35.5t-90 -12.5zM107 586l136 130h138l96 -130l-2 -10h-139l-27 58h-14l-43 -58h-147z" />
    <glyph glyph-name="uni015E" unicode="&#x15e;" horiz-adv-x="586" 
d="M206 -237q-35 0 -64 19t-36 46l74 29q2 -11 10.5 -18t20.5 -7q13 0 22 8t9 22q0 28 -27 28q-8 0 -14.5 -4t-9.5 -9l-62 31l47 84q-69 15 -117.5 64.5t-63.5 134.5l149 60q4 -51 33 -85t82 -34q48 0 77.5 20.5t29.5 55.5q0 33 -23.5 56.5t-86.5 48.5l-31 12q-30 12 -57 29
t-47 41t-32 55t-12 71q0 45 19.5 84t54 67t82 44t104.5 16q56 0 95.5 -15t65.5 -38t40.5 -50.5t20.5 -52.5l-141 -54q-18 68 -98 68q-17 0 -32.5 -4.5t-28.5 -12.5t-20.5 -20t-7.5 -28q0 -29 22 -48.5t73 -38.5l41 -15q75 -28 115 -74.5t40 -125.5q0 -50 -19.5 -93.5
t-55.5 -75.5t-87 -51t-115 -19l-19 -31q6 1 10 1h7q35 0 57.5 -24.5t22.5 -60.5q0 -51 -33.5 -78.5t-83.5 -27.5z" />
    <glyph glyph-name="uni015F" unicode="&#x15f;" horiz-adv-x="497" 
d="M178 -237q-35 0 -64 19t-36 46l74 29q2 -11 10.5 -18t20.5 -7q13 0 22 8t9 22q0 28 -27 28q-8 0 -14.5 -4t-9.5 -9l-62 31l46 82q-66 12 -107 49t-55 85l137 56q8 -34 34 -49t62 -15q26 0 47.5 8.5t21.5 28.5q0 17 -15 26.5t-46 17.5l-52 13q-21 5 -44.5 16.5t-42.5 28.5
t-31.5 41t-12.5 54q0 38 17 67.5t46.5 49t70.5 29.5t89 10q76 0 124.5 -28t75.5 -91l-136 -49q-8 26 -30.5 38t-46.5 12q-32 0 -47 -9t-15 -22q0 -15 14 -24.5t35 -14.5l73 -18q63 -16 94 -53t31 -82q0 -41 -17 -74t-47 -56.5t-70.5 -36.5t-86.5 -14l-19 -31q6 1 10 1h7
q35 0 57.5 -24.5t22.5 -60.5q0 -51 -33.5 -78.5t-83.5 -27.5z" />
    <glyph glyph-name="Scaron" unicode="&#x160;" horiz-adv-x="586" 
d="M243 -16q-45 0 -86 13t-74 38.5t-56 64.5t-32 91l149 60q4 -51 33 -85t82 -34q48 0 77.5 20.5t29.5 55.5q0 33 -23.5 56.5t-86.5 48.5l-31 12q-30 12 -57 29t-47 41t-32 55t-12 71q0 45 19.5 84t54 67t82 44t104.5 16q56 0 95.5 -15t65.5 -38t40.5 -50.5t20.5 -52.5
l-141 -54q-18 68 -98 68q-17 0 -32.5 -4.5t-28.5 -12.5t-20.5 -20t-7.5 -28q0 -29 22 -48.5t73 -38.5l41 -15q75 -28 115 -74.5t40 -125.5q0 -50 -19.5 -93.5t-56 -76t-88 -51t-115.5 -18.5zM554 890l-136 -130h-138l-96 130l2 10h139l27 -58h14l43 58h147z" />
    <glyph glyph-name="scaron" unicode="&#x161;" horiz-adv-x="497" 
d="M207 -16q-46 0 -83.5 11t-65 30t-46 44.5t-27.5 54.5l137 56q8 -34 34 -49t62 -15q26 0 47.5 8.5t21.5 28.5q0 17 -15 26.5t-46 17.5l-52 13q-21 5 -44.5 16.5t-42.5 28.5t-31.5 41t-12.5 54q0 38 17 67.5t46.5 49t70.5 29.5t89 10q76 0 124.5 -28t75.5 -91l-136 -49
q-8 26 -30.5 38t-46.5 12q-32 0 -47 -9t-15 -22q0 -15 14 -24.5t35 -14.5l73 -18q63 -16 94 -53t31 -82q0 -42 -18 -76t-49.5 -57t-73.5 -35.5t-90 -12.5zM493 706l-136 -130h-138l-96 130l2 10h139l27 -58h14l43 58h147z" />
    <glyph glyph-name="uni0162" unicode="&#x162;" horiz-adv-x="604" 
d="M223 -237q-35 0 -64 19t-36 46l74 29q2 -11 10.5 -18t20.5 -7q13 0 22 8t9 22q0 28 -27 28q-8 0 -14.5 -4t-9.5 -9l-62 31l52 92h-38l101 568h-200l26 148h556l-26 -148h-200l-101 -568h-44l-29 -47q6 1 10 1h7q35 0 57.5 -24.5t22.5 -60.5q0 -51 -33.5 -78.5
t-83.5 -27.5z" />
    <glyph glyph-name="uni0163" unicode="&#x163;" horiz-adv-x="425" 
d="M111 364h-86l22 126h86l27 150h150l-27 -150h121l-22 -126h-121l-29 -165q-1 -6 -1 -9v-7q0 -20 10.5 -34.5t36.5 -14.5q16 0 27.5 4t20.5 10l22 -135q-39 -21 -113 -21h-12q-6 1 -11 1l-25 -40q6 1 10 1h7q35 0 57.5 -24.5t22.5 -60.5q0 -51 -33.5 -78.5t-83.5 -27.5
q-35 0 -64 19t-36 46l74 29q2 -11 10.5 -18t20.5 -7q13 0 22 8t9 22q0 28 -27 28q-8 0 -14.5 -4t-9.5 -9l-62 31l57 102q-33 17 -51.5 49.5t-18.5 83.5q0 13 1.5 26.5t3.5 27.5z" />
    <glyph glyph-name="Tcaron" unicode="&#x164;" horiz-adv-x="604" 
d="M160 0l101 568h-200l26 148h556l-26 -148h-200l-101 -568h-156zM580 908l-136 -130h-138l-96 130l2 10h139l27 -58h14l43 58h147z" />
    <glyph glyph-name="tcaron" unicode="&#x165;" horiz-adv-x="425" 
d="M342 540l31 176h131l-63 -176h-99zM111 364h-86l22 126h86l27 150h150l-27 -150h121l-22 -126h-121l-29 -165q-1 -6 -1 -9v-7q0 -20 10.5 -34.5t36.5 -14.5q16 0 27.5 4t20.5 10l22 -135q-39 -21 -113 -21q-71 0 -114.5 37t-43.5 114q0 13 1.5 26.5t3.5 27.5z" />
    <glyph glyph-name="Tbar" unicode="&#x166;" horiz-adv-x="604" 
d="M160 0l55 312h-126l22 124h126l24 132h-200l26 148h556l-26 -148h-200l-24 -132h126l-22 -124h-126l-55 -312h-156z" />
    <glyph glyph-name="tbar" unicode="&#x167;" horiz-adv-x="425" 
d="M84 210h-85l18 108h86l8 46h-86l22 126h86l27 150h150l-27 -150h121l-22 -126h-121l-8 -46h100l-19 -108h-100l-2 -11q-1 -6 -1 -9v-7q0 -20 10.5 -34.5t36.5 -14.5q16 0 27.5 4t20.5 10l22 -135q-39 -21 -113 -21q-71 0 -114.5 37t-43.5 114q0 13 1.5 26.5t3.5 27.5z
" />
    <glyph glyph-name="Utilde" unicode="&#x168;" horiz-adv-x="682" 
d="M288 -16q-57 0 -103 18t-78.5 50.5t-49.5 77.5t-17 100q0 31 8 77l72 409h156l-76 -432q-4 -19 -4 -40q0 -51 27 -81.5t84 -30.5q60 0 99.5 40.5t51.5 111.5l76 432h156l-77 -438q-14 -77 -42.5 -132.5t-70 -91.5t-95.5 -53t-117 -17zM472 768q-22 0 -39.5 6.5
t-32.5 14.5t-27 15q-12 6 -22 6q-23 0 -29 -26h-100q8 66 44 99t90 33q22 0 39.5 -6.5t32.5 -14.5t27 -14q12 -7 22 -7q23 0 29 26h100q-8 -66 -44 -99t-90 -33z" />
    <glyph glyph-name="utilde" unicode="&#x169;" 
d="M343 62h-10q-26 -39 -67 -58.5t-91 -19.5q-39 0 -68 13t-48.5 35t-29 50.5t-9.5 59.5q0 14 1.5 27.5t3.5 28.5l52 292h150l-49 -275q-1 -4 -1.5 -11.5t-0.5 -13.5q0 -26 15.5 -46t48.5 -20q58 0 87.5 39.5t40.5 101.5l40 225h150l-86 -490h-140zM406 584q-22 0 -39.5 6.5
t-32.5 14.5t-27 15q-12 6 -22 6q-23 0 -29 -26h-100q8 66 44 99t90 33q22 0 39.5 -6.5t32.5 -14.5t27 -14q12 -7 22 -7q23 0 29 26h100q-8 -66 -44 -99t-90 -33z" />
    <glyph glyph-name="Umacron" unicode="&#x16a;" horiz-adv-x="682" 
d="M288 -16q-57 0 -103 18t-78.5 50.5t-49.5 77.5t-17 100q0 31 8 77l72 409h156l-76 -432q-4 -19 -4 -40q0 -51 27 -81.5t84 -30.5q60 0 99.5 40.5t51.5 111.5l76 432h156l-77 -438q-14 -77 -42.5 -132.5t-70 -91.5t-95.5 -53t-117 -17zM260 786l20 114h304l-20 -114h-304z
" />
    <glyph glyph-name="umacron" unicode="&#x16b;" 
d="M343 62h-10q-26 -39 -67 -58.5t-91 -19.5q-39 0 -68 13t-48.5 35t-29 50.5t-9.5 59.5q0 14 1.5 27.5t3.5 28.5l52 292h150l-49 -275q-1 -4 -1.5 -11.5t-0.5 -13.5q0 -26 15.5 -46t48.5 -20q58 0 87.5 39.5t40.5 101.5l40 225h150l-86 -490h-140zM186 602l20 114h304
l-20 -114h-304z" />
    <glyph glyph-name="Ubreve" unicode="&#x16c;" horiz-adv-x="682" 
d="M288 -16q-57 0 -103 18t-78.5 50.5t-49.5 77.5t-17 100q0 31 8 77l72 409h156l-76 -432q-4 -19 -4 -40q0 -51 27 -81.5t84 -30.5q60 0 99.5 40.5t51.5 111.5l76 432h156l-77 -438q-14 -77 -42.5 -132.5t-70 -91.5t-95.5 -53t-117 -17zM410 760q-25 0 -47 8.5t-38.5 23.5
t-26.5 36.5t-10 47.5v11t2 13h102q-1 -4 -1 -8q0 -13 8 -22.5t25 -9.5t29.5 12t15.5 28h101q-11 -69 -52.5 -104.5t-107.5 -35.5z" />
    <glyph glyph-name="ubreve" unicode="&#x16d;" 
d="M343 62h-10q-26 -39 -67 -58.5t-91 -19.5q-39 0 -68 13t-48.5 35t-29 50.5t-9.5 59.5q0 14 1.5 27.5t3.5 28.5l52 292h150l-49 -275q-1 -4 -1.5 -11.5t-0.5 -13.5q0 -26 15.5 -46t48.5 -20q58 0 87.5 39.5t40.5 101.5l40 225h150l-86 -490h-140zM339 561q-25 0 -47 8.5
t-38.5 23.5t-26.5 36.5t-10 47.5v11t2 13h102q-1 -4 -1 -8q0 -13 8 -22.5t25 -9.5t29.5 12t15.5 28h101q-11 -69 -52.5 -104.5t-107.5 -35.5z" />
    <glyph glyph-name="Uring" unicode="&#x16e;" horiz-adv-x="682" 
d="M288 -16q-57 0 -103 18t-78.5 50.5t-49.5 77.5t-17 100q0 31 8 77l72 409h156l-76 -432q-4 -19 -4 -40q0 -51 27 -81.5t84 -30.5q60 0 99.5 40.5t51.5 111.5l76 432h156l-77 -438q-14 -77 -42.5 -132.5t-70 -91.5t-95.5 -53t-117 -17zM424 746q-23 0 -43 8.5t-35 23.5
t-23.5 35t-8.5 43t8.5 43t23.5 35t35 23.5t43 8.5t43 -8.5t35 -23.5t23.5 -35t8.5 -43t-8.5 -43t-23.5 -35t-35 -23.5t-43 -8.5zM424 826q12 0 21 9t9 21t-9 21t-21 9t-21 -9t-9 -21t9 -21t21 -9z" />
    <glyph glyph-name="uring" unicode="&#x16f;" 
d="M343 62h-10q-26 -39 -67 -58.5t-91 -19.5q-39 0 -68 13t-48.5 35t-29 50.5t-9.5 59.5q0 14 1.5 27.5t3.5 28.5l52 292h150l-49 -275q-1 -4 -1.5 -11.5t-0.5 -13.5q0 -26 15.5 -46t48.5 -20q58 0 87.5 39.5t40.5 101.5l40 225h150l-86 -490h-140zM344 562q-23 0 -43 8.5
t-35 23.5t-23.5 35t-8.5 43t8.5 43t23.5 35t35 23.5t43 8.5t43 -8.5t35 -23.5t23.5 -35t8.5 -43t-8.5 -43t-23.5 -35t-35 -23.5t-43 -8.5zM344 642q12 0 21 9t9 21t-9 21t-21 9t-21 -9t-9 -21t9 -21t21 -9z" />
    <glyph glyph-name="Uhungarumlaut" unicode="&#x170;" horiz-adv-x="682" 
d="M288 -16q-57 0 -103 18t-78.5 50.5t-49.5 77.5t-17 100q0 31 8 77l72 409h156l-76 -432q-4 -19 -4 -40q0 -51 27 -81.5t84 -30.5q60 0 99.5 40.5t51.5 111.5l76 432h156l-77 -438q-14 -77 -42.5 -132.5t-70 -91.5t-95.5 -53t-117 -17zM454 772l62 140h179l-123 -140h-118
zM239 772l62 140h179l-123 -140h-118z" />
    <glyph glyph-name="uhungarumlaut" unicode="&#x171;" 
d="M343 62h-10q-26 -39 -67 -58.5t-91 -19.5q-39 0 -68 13t-48.5 35t-29 50.5t-9.5 59.5q0 14 1.5 27.5t3.5 28.5l52 292h150l-49 -275q-1 -4 -1.5 -11.5t-0.5 -13.5q0 -26 15.5 -46t48.5 -20q58 0 87.5 39.5t40.5 101.5l40 225h150l-86 -490h-140zM164 588l62 140h179
l-123 -140h-118zM378 588l62 140h179l-123 -140h-118z" />
    <glyph glyph-name="Uogonek" unicode="&#x172;" horiz-adv-x="682" 
d="M304 -224q-60 0 -92 28t-32 72q0 35 18 63t45 48q-96 14 -149.5 79t-53.5 164q0 31 8 77l72 409h156l-76 -432q-4 -19 -4 -40q0 -51 27 -81.5t84 -30.5q60 0 99.5 40.5t51.5 111.5l76 432h156l-77 -438q-11 -62 -30 -107.5t-45.5 -78.5t-60.5 -55t-75 -37
q-16 -6 -32.5 -16t-29.5 -22.5t-21 -26t-8 -25.5q0 -14 8.5 -21.5t22.5 -7.5q11 0 24 5l23 -93q-17 -8 -41 -12.5t-44 -4.5z" />
    <glyph glyph-name="uogonek" unicode="&#x173;" 
d="M343 62h-10q-26 -39 -67 -58.5t-91 -19.5q-39 0 -68 13t-48.5 35t-29 50.5t-9.5 59.5q0 14 1.5 27.5t3.5 28.5l52 292h150l-49 -275q-1 -4 -1.5 -11.5t-0.5 -13.5q0 -26 15.5 -46t48.5 -20q58 0 87.5 39.5t40.5 101.5l40 225h150l-86 -490q-14 -8 -29 -18t-27 -21.5
t-19.5 -24.5t-7.5 -26q0 -14 8.5 -21.5t22.5 -7.5q11 0 24 5l23 -93q-17 -8 -41 -12.5t-44 -4.5q-60 0 -92 28t-32 72q0 39 22.5 68t54.5 46l-3 10z" />
    <glyph glyph-name="Wcircumflex" unicode="&#x174;" horiz-adv-x="970" 
d="M79 716h165l31 -375l1 -86h10l37 86l134 279h148l39 -279l5 -84h10l30 84l159 375h169l-314 -716h-149l-47 314l-6 86h-10l-36 -86l-154 -314h-152zM362 770l136 130h138l96 -130l-2 -10h-139l-27 58h-14l-43 -58h-147z" />
    <glyph glyph-name="wcircumflex" unicode="&#x175;" horiz-adv-x="830" 
d="M28 490h164l25 -276h10l134 276h156l40 -276h10l112 276h170l-238 -490h-165l-38 276h-10l-135 -276h-162zM264 586l136 130h138l96 -130l-2 -10h-139l-27 58h-14l-43 -58h-147z" />
    <glyph glyph-name="Ycircumflex" unicode="&#x176;" horiz-adv-x="658" 
d="M248 333l-173 383h181l90 -210h10l158 210h195l-305 -383l-59 -333h-156zM201 770l136 130h138l96 -130l-2 -10h-139l-27 58h-14l-43 -58h-147z" />
    <glyph glyph-name="ycircumflex" unicode="&#x177;" horiz-adv-x="581" 
d="M157 28l-123 462h171l64 -270h10l158 270h170l-432 -706h-166zM147 586l136 130h138l96 -130l-2 -10h-139l-27 58h-14l-43 -58h-147z" />
    <glyph glyph-name="Ydieresis" unicode="&#x178;" horiz-adv-x="658" 
d="M248 333l-173 383h181l90 -210h10l158 210h195l-305 -383l-59 -333h-156zM220 843q0 33 23 56t56 23t56 -23t23 -56t-23 -56t-56 -23t-56 23t-23 56zM422 843q0 33 23 56t56 23t56 -23t23 -56t-23 -56t-56 -23t-56 23t-23 56z" />
    <glyph glyph-name="Zacute" unicode="&#x179;" horiz-adv-x="612" 
d="M-3 156l418 412h-330l26 148h520l-28 -156l-413 -412h344l-26 -148h-539zM299 772l62 140h179l-123 -140h-118z" />
    <glyph glyph-name="zacute" unicode="&#x17a;" horiz-adv-x="488" 
d="M-9 120l273 246h-223l22 124h412l-21 -120l-275 -246h235l-22 -124h-423zM211 588l62 140h179l-123 -140h-118z" />
    <glyph glyph-name="Zdotaccent" unicode="&#x17b;" horiz-adv-x="612" 
d="M-3 156l418 412h-330l26 148h520l-28 -156l-413 -412h344l-26 -148h-539zM386 776q-33 0 -56.5 23.5t-23.5 56.5t23.5 56.5t56.5 23.5t56.5 -23.5t23.5 -56.5t-23.5 -56.5t-56.5 -23.5z" />
    <glyph glyph-name="zdotaccent" unicode="&#x17c;" horiz-adv-x="488" 
d="M-9 120l273 246h-223l22 124h412l-21 -120l-275 -246h235l-22 -124h-423zM299 562q-35 0 -60 25t-25 60t25 60t60 25t60 -25t25 -60t-25 -60t-60 -25z" />
    <glyph glyph-name="Zcaron" unicode="&#x17d;" horiz-adv-x="612" 
d="M-3 156l418 412h-330l26 148h520l-28 -156l-413 -412h344l-26 -148h-539zM577 890l-136 -130h-138l-96 130l2 10h139l27 -58h14l43 58h147z" />
    <glyph glyph-name="zcaron" unicode="&#x17e;" horiz-adv-x="488" 
d="M-9 120l273 246h-223l22 124h412l-21 -120l-275 -246h235l-22 -124h-423zM489 706l-136 -130h-138l-96 130l2 10h139l27 -58h14l43 58h147z" />
    <glyph glyph-name="uni0192" unicode="&#x192;" horiz-adv-x="640" 
d="M173 427h112l15 73q21 108 78 164t154 56q25 0 50.5 -5t45.5 -13l-50 -136q-17 12 -45 12q-30 0 -53 -20.5t-31 -59.5l-14 -71h106v-126h-130l-68 -344q-8 -38 -22.5 -70t-38.5 -56t-57.5 -37.5t-78.5 -13.5q-25 0 -56 5t-51 13l42 136q17 -12 45 -12q29 0 48.5 18
t27.5 62l59 299h-88v126z" />
    <glyph glyph-name="Aringacute" unicode="&#x1fa;" horiz-adv-x="740" 
d="M468 160h-259l-82 -160h-178l367 679q-22 35 -22 77q0 29 11 55t29.5 45t44 30.5t55.5 12.5l38 65h129l-75 -96q25 -20 39.5 -49t14.5 -63q0 -31 -12.5 -58t-33.5 -47l130 -651h-166zM282 302h160l-27 150l-8 88h-10l-38 -88zM437 716q17 0 28.5 11.5t11.5 28.5
t-11.5 28.5t-28.5 11.5t-28.5 -11.5t-11.5 -28.5t11.5 -28.5t28.5 -11.5z" />
    <glyph glyph-name="aringacute" unicode="&#x1fb;" horiz-adv-x="548" 
d="M495 932l-96 -119h-108l48 119h156zM310 44h-10q-23 -26 -53 -43t-78 -17q-38 0 -68 12t-51.5 33t-33 49t-11.5 61q0 84 61 131.5t165 47.5q35 0 65 -6t58 -14l3 13q2 10 2 14q0 27 -24 45t-63 18q-37 0 -65.5 -14t-48.5 -37l-96 70q42 52 102 75.5t127 23.5
q105 0 160 -49.5t55 -129.5q0 -12 -1.5 -24.5t-3.5 -26.5l-49 -276h-150zM336 193q-46 19 -95 19q-37 0 -61 -15t-24 -47q0 -26 19.5 -40t48.5 -14q22 0 41.5 8.5t34 22.5t24 31.5t12.5 34.5zM325 562q-23 0 -43 8.5t-35 23.5t-23.5 35t-8.5 43t8.5 43t23.5 35t35 23.5
t43 8.5t43 -8.5t35 -23.5t23.5 -35t8.5 -43t-8.5 -43t-23.5 -35t-35 -23.5t-43 -8.5zM325 642q12 0 21 9t9 21t-9 21t-21 9t-21 -9t-9 -21t9 -21t21 -9z" />
    <glyph glyph-name="AEacute" unicode="&#x1fc;" horiz-adv-x="1027" 
d="M696 568l-24 -136h284l-27 -148h-284l-24 -136h316l-26 -148h-472l29 163h-219l-118 -163h-195l537 716h565l-26 -148h-316zM353 311h141l46 257h-13l-45 -79zM701 772l62 140h179l-123 -140h-118z" />
    <glyph glyph-name="aeacute" unicode="&#x1fd;" horiz-adv-x="902" 
d="M416 588l62 140h179l-123 -140h-118zM830 122q-23 -32 -47.5 -57.5t-54.5 -43.5t-67 -27.5t-85 -9.5q-68 0 -112 25t-75 67q-46 -49 -99.5 -70.5t-120.5 -21.5q-38 0 -68 12t-51.5 33t-33 49t-11.5 61q0 84 61 131.5t165 47.5q35 0 66.5 -5.5t56.5 -14.5l3 13q1 4 1.5 7
t0.5 7q0 29 -24 46t-63 17q-32 0 -59 -12t-41 -36l-104 50q38 63 95.5 89.5t129.5 26.5q60 0 100.5 -21.5t64.5 -53.5q78 75 185 75q52 0 93 -16.5t68.5 -44.5t42 -65t14.5 -77q0 -28 -4 -50.5t-12 -44.5h-361q2 -48 33 -70t72 -22q48 0 77.5 16t50.5 48zM336 193
q-46 19 -95 19q-37 0 -61 -15t-24 -47q0 -26 19.5 -40t48.5 -14q22 0 41.5 8.5t34 22.5t24 31.5t12.5 34.5zM725 310q0 30 -25 54t-74 24q-44 0 -77.5 -23t-46.5 -55h223z" />
    <glyph glyph-name="Oslashacute" unicode="&#x1fe;" horiz-adv-x="828" 
d="M63 20l54 67q-42 44 -64.5 103t-22.5 131q0 85 30.5 159.5t86 130.5t134 88.5t173.5 32.5q85 0 155 -31l56 70l95 -78l-51 -63q43 -45 66 -105t23 -130q0 -85 -30.5 -159.5t-86 -130.5t-134 -88.5t-173.5 -32.5q-44 0 -83 8.5t-74 23.5l-59 -74zM387 132q54 0 100.5 19.5
t81 54.5t54 83t19.5 106q0 30 -9 57.5t-25 50.5l-290 -361q30 -10 69 -10zM186 325q0 -63 33 -110l288 359q-16 5 -32.5 7.5t-33.5 2.5q-54 0 -100.5 -19.5t-81 -54t-54 -82t-19.5 -103.5zM427 772l62 140h179l-123 -140h-118z" />
    <glyph glyph-name="oslashacute" unicode="&#x1ff;" horiz-adv-x="584" 
d="M305 506q27 0 51.5 -5t47.5 -13l45 56l82 -70l-40 -49q51 -60 51 -144q0 -63 -22 -117.5t-62 -94t-95 -62.5t-121 -23q-25 0 -48 4t-43 11l-42 -53l-87 65l38 48q-26 30 -40.5 68t-14.5 83q0 63 22 117t62 93.5t95 62.5t121 23zM149 227q0 -25 9 -46l155 194q-11 3 -23 3
q-27 0 -52.5 -12.5t-45 -33.5t-31.5 -48t-12 -57zM257 110q27 0 52.5 12t45 33t31.5 48.5t12 59.5q0 19 -6 37l-151 -189q5 -1 16 -1zM271 588l62 140h179l-123 -140h-118z" />
    <glyph glyph-name="uni0218" unicode="&#x218;" horiz-adv-x="586" 
d="M243 -16q-45 0 -86 13t-74 38.5t-56 64.5t-32 91l149 60q4 -51 33 -85t82 -34q48 0 77.5 20.5t29.5 55.5q0 33 -23.5 56.5t-86.5 48.5l-31 12q-30 12 -57 29t-47 41t-32 55t-12 71q0 45 19.5 84t54 67t82 44t104.5 16q56 0 95.5 -15t65.5 -38t40.5 -50.5t20.5 -52.5
l-141 -54q-18 68 -98 68q-17 0 -32.5 -4.5t-28.5 -12.5t-20.5 -20t-7.5 -28q0 -29 22 -48.5t73 -38.5l41 -15q75 -28 115 -74.5t40 -125.5q0 -50 -19.5 -93.5t-56 -76t-88 -51t-115.5 -18.5zM121 -265l63 71q-20 9 -31.5 27.5t-11.5 41.5q0 32 22.5 54.5t54.5 22.5t54 -22.5
t22 -54.5q0 -12 -4 -25.5t-15 -26.5l-106 -129z" />
    <glyph glyph-name="uni0219" unicode="&#x219;" horiz-adv-x="497" 
d="M207 -16q-46 0 -83.5 11t-65 30t-46 44.5t-27.5 54.5l137 56q8 -34 34 -49t62 -15q26 0 47.5 8.5t21.5 28.5q0 17 -15 26.5t-46 17.5l-52 13q-21 5 -44.5 16.5t-42.5 28.5t-31.5 41t-12.5 54q0 38 17 67.5t46.5 49t70.5 29.5t89 10q76 0 124.5 -28t75.5 -91l-136 -49
q-8 26 -30.5 38t-46.5 12q-32 0 -47 -9t-15 -22q0 -15 14 -24.5t35 -14.5l73 -18q63 -16 94 -53t31 -82q0 -42 -18 -76t-49.5 -57t-73.5 -35.5t-90 -12.5zM91 -265l63 71q-20 9 -31.5 27.5t-11.5 41.5q0 32 22.5 54.5t54.5 22.5t54 -22.5t22 -54.5q0 -12 -4 -25.5t-15 -26.5
l-106 -129z" />
    <glyph glyph-name="uni021A" unicode="&#x21a;" horiz-adv-x="604" 
d="M160 0l101 568h-200l26 148h556l-26 -148h-200l-101 -568h-156zM116 -265l63 71q-20 9 -31.5 27.5t-11.5 41.5q0 32 22.5 54.5t54.5 22.5t54 -22.5t22 -54.5q0 -12 -4 -25.5t-15 -26.5l-106 -129z" />
    <glyph glyph-name="uni021B" unicode="&#x21b;" horiz-adv-x="425" 
d="M111 364h-86l22 126h86l27 150h150l-27 -150h121l-22 -126h-121l-29 -165q-1 -6 -1 -9v-7q0 -20 10.5 -34.5t36.5 -14.5q16 0 27.5 4t20.5 10l22 -135q-39 -21 -113 -21q-71 0 -114.5 37t-43.5 114q0 13 1.5 26.5t3.5 27.5zM89 -265l63 71q-20 9 -31.5 27.5t-11.5 41.5
q0 32 22.5 54.5t54.5 22.5t54 -22.5t22 -54.5q0 -12 -4 -25.5t-15 -26.5l-106 -129z" />
    <glyph glyph-name="uni0237" unicode="&#x237;" horiz-adv-x="278" 
d="M-90 -78q16 -10 35 -10q39 0 48 50l92 528h151l-93 -532q-9 -54 -26 -89.5t-40.5 -56.5t-54.5 -29.5t-69 -8.5q-23 0 -50 4t-46 12z" />
    <glyph glyph-name="circumflex" unicode="&#x2c6;" horiz-adv-x="484" 
d="M97 586l136 130h138l96 -130l-2 -10h-139l-27 58h-14l-43 -58h-147z" />
    <glyph glyph-name="caron" unicode="&#x2c7;" horiz-adv-x="484" 
d="M487 706l-136 -130h-138l-96 130l2 10h139l27 -58h14l43 58h147z" />
    <glyph glyph-name="breve" unicode="&#x2d8;" horiz-adv-x="424" 
d="M255 576q-25 0 -47 8.5t-38.5 23.5t-26.5 36.5t-10 47.5v11t2 13h102q-1 -4 -1 -8q0 -13 8 -22.5t25 -9.5t29.5 12t15.5 28h101q-11 -69 -52.5 -104.5t-107.5 -35.5z" />
    <glyph glyph-name="dotaccent" unicode="&#x2d9;" horiz-adv-x="288" 
d="M193 562q-35 0 -60 25t-25 60t25 60t60 25t60 -25t25 -60t-25 -60t-60 -25z" />
    <glyph glyph-name="ring" unicode="&#x2da;" horiz-adv-x="412" 
d="M255 562q-23 0 -43 8.5t-35 23.5t-23.5 35t-8.5 43t8.5 43t23.5 35t35 23.5t43 8.5t43 -8.5t35 -23.5t23.5 -35t8.5 -43t-8.5 -43t-23.5 -35t-35 -23.5t-43 -8.5zM255 642q12 0 21 9t9 21t-9 21t-21 9t-21 -9t-9 -21t9 -21t21 -9z" />
    <glyph glyph-name="tilde" unicode="&#x2dc;" horiz-adv-x="428" 
d="M323 584q-22 0 -39.5 6.5t-32.5 14.5t-27 15q-12 6 -22 6q-23 0 -29 -26h-100q8 66 44 99t90 33q22 0 39.5 -6.5t32.5 -14.5t27 -14q12 -7 22 -7q23 0 29 26h100q-8 -66 -44 -99t-90 -33z" />
    <glyph glyph-name="uni0374" unicode="&#x374;" horiz-adv-x="333" 
d="M179 716h177l-177 -226h-116z" />
    <glyph glyph-name="uni0375" unicode="&#x375;" horiz-adv-x="333" 
d="M144 -104h-176l169 226h123z" />
    <glyph glyph-name="uni037E" unicode="&#x37e;" horiz-adv-x="291" 
d="M147 314q-40 0 -68 28t-28 68t28 68t68 28t68 -28t28 -68t-28 -68t-68 -28zM-36 -92l80 98q-20 14 -31.5 33t-11.5 51q0 40 28 68t68 28t68 -28t28 -68q0 -18 -6 -34.5t-23 -36.5l-135 -162z" />
    <glyph glyph-name="tonos" unicode="&#x384;" horiz-adv-x="463" 
d="M167 576l60 140h179l-119 -140h-120z" />
    <glyph glyph-name="dieresistonos" unicode="&#x385;" horiz-adv-x="496" 
d="M272 732h80l-25 -144h-80zM83 659q0 30 21.5 51.5t51.5 21.5t51.5 -21.5t21.5 -51.5t-21.5 -51.5t-51.5 -21.5t-51.5 21.5t-21.5 51.5zM369 659q0 30 21.5 51.5t51.5 21.5t51.5 -21.5t21.5 -51.5t-21.5 -51.5t-51.5 -21.5t-51.5 21.5t-21.5 51.5z" />
    <glyph glyph-name="Alphatonos" unicode="&#x386;" horiz-adv-x="740" 
d="M468 160h-259l-82 -160h-178l387 716h185l143 -716h-166zM282 302h160l-27 150l-8 88h-10l-38 -88zM58 588l62 140h179l-123 -140h-118z" />
    <glyph glyph-name="anoteleia" unicode="&#x387;" horiz-adv-x="232" 
d="M110 228q-40 0 -68 28t-28 68t28 68t68 28t68 -28t28 -68t-28 -68t-68 -28z" />
    <glyph glyph-name="Epsilontonos" unicode="&#x388;" horiz-adv-x="695" 
d="M364 568l-24 -136h284l-27 -148h-284l-24 -136h316l-26 -148h-472l127 716h472l-26 -148h-316zM-40 588l62 140h179l-123 -140h-118z" />
    <glyph glyph-name="Etatonos" unicode="&#x389;" horiz-adv-x="829" 
d="M234 716h156l-49 -276h274l49 276h156l-127 -716h-156l52 292h-274l-52 -292h-156zM-40 588l62 140h179l-123 -140h-118z" />
    <glyph glyph-name="Iotatonos" unicode="&#x38a;" horiz-adv-x="399" 
d="M234 716h156l-127 -716h-156zM-40 588l62 140h179l-123 -140h-118z" />
    <glyph glyph-name="Omicrontonos" unicode="&#x38c;" horiz-adv-x="813" 
d="M360 -16q-74 0 -137 24t-109 68.5t-72 106.5t-26 138q0 85 30.5 159.5t86 130.5t134 88.5t173.5 32.5q78 0 141.5 -25.5t108.5 -71t69.5 -107t24.5 -133.5q0 -85 -30.5 -159.5t-86 -130.5t-134 -88.5t-173.5 -32.5zM373 132q54 0 100.5 19.5t81 54.5t54 83t19.5 106
q0 40 -15 74.5t-42 60t-64 40t-80 14.5q-54 0 -100.5 -19.5t-81 -54t-54 -82t-19.5 -103.5q0 -42 15 -77t42 -61t64 -40.5t80 -14.5zM-56 588l62 140h179l-123 -140h-118z" />
    <glyph glyph-name="Upsilontonos" unicode="&#x38e;" horiz-adv-x="818" 
d="M392 333l-173 383h181l90 -210h10l158 210h195l-305 -383l-59 -333h-156zM-40 588l62 140h179l-123 -140h-118z" />
    <glyph glyph-name="Omegatonos" unicode="&#x38f;" horiz-adv-x="804" 
d="M-56 588l62 140h179l-123 -140h-118zM448 732q73 0 133 -20.5t103 -58t66.5 -90t23.5 -116.5q0 -105 -51 -179t-136 -126l-2 -10h125l-23 -132h-310l32 182q43 11 80.5 32.5t65 51.5t43 67.5t15.5 81.5q0 39 -14 70.5t-38 53.5t-56.5 33.5t-70.5 11.5q-55 0 -98.5 -18
t-74 -47.5t-47 -68t-16.5 -79.5q0 -37 10.5 -67.5t28 -54.5t41.5 -41t51 -26l-32 -182h-309l22 132h132l2 10q-17 15 -34.5 37t-32.5 50.5t-24.5 64t-9.5 79.5q0 70 28.5 134.5t81 114.5t127.5 80t168 30z" />
    <glyph glyph-name="iotadieresistonos" unicode="&#x390;" horiz-adv-x="278" 
d="M0 0l85 490h150l-85 -490h-150zM164 732h80l-25 -144h-80zM-25 659q0 30 21.5 51.5t51.5 21.5t51.5 -21.5t21.5 -51.5t-21.5 -51.5t-51.5 -21.5t-51.5 21.5t-21.5 51.5zM261 659q0 30 21.5 51.5t51.5 21.5t51.5 -21.5t21.5 -51.5t-21.5 -51.5t-51.5 -21.5t-51.5 21.5
t-21.5 51.5z" />
    <glyph glyph-name="Alpha" unicode="&#x391;" horiz-adv-x="740" 
d="M468 160h-259l-82 -160h-178l387 716h185l143 -716h-166zM282 302h160l-27 150l-8 88h-10l-38 -88z" />
    <glyph glyph-name="Beta" unicode="&#x392;" horiz-adv-x="646" 
d="M135 716h259q56 0 98 -14.5t70.5 -38.5t43 -56t14.5 -67q0 -36 -10.5 -63.5t-27.5 -47.5t-40 -32.5t-47 -19.5l-2 -10q38 -17 66.5 -52.5t28.5 -91.5q0 -53 -21.5 -94.5t-59.5 -70t-89 -43.5t-111 -15h-299zM361 432q47 0 75 19.5t28 58.5q0 32 -20 50t-54 18h-124
l-25 -146h120zM322 140q49 0 79.5 22.5t30.5 62.5q0 32 -20.5 53.5t-65.5 21.5h-129l-28 -160h133z" />
    <glyph glyph-name="Gamma" unicode="&#x393;" horiz-adv-x="552" 
d="M135 716h456l-26 -148h-300l-101 -568h-156z" />
    <glyph glyph-name="uni0394" unicode="&#x394;" horiz-adv-x="732" 
d="M-51 0l390 716h180l137 -716h-707zM200 142h267l-64 380h-10z" />
    <glyph glyph-name="Epsilon" unicode="&#x395;" horiz-adv-x="596" 
d="M265 568l-24 -136h284l-27 -148h-284l-24 -136h316l-26 -148h-472l127 716h472l-26 -148h-316z" />
    <glyph glyph-name="Zeta" unicode="&#x396;" horiz-adv-x="612" 
d="M-3 156l418 412h-330l26 148h520l-28 -156l-413 -412h344l-26 -148h-539z" />
    <glyph glyph-name="Eta" unicode="&#x397;" horiz-adv-x="730" 
d="M135 716h156l-49 -276h274l49 276h156l-127 -716h-156l52 292h-274l-52 -292h-156z" />
    <glyph glyph-name="Theta" unicode="&#x398;" horiz-adv-x="842" 
d="M257 291l23 134h302l-23 -134h-302zM374 -16q-74 0 -137 24t-109 68.5t-72 106.5t-26 138q0 85 30.5 159.5t86 130.5t134 88.5t173.5 32.5q78 0 141.5 -25.5t108.5 -71t69.5 -107t24.5 -133.5q0 -85 -30.5 -159.5t-86 -130.5t-134 -88.5t-173.5 -32.5zM387 132
q54 0 100.5 19.5t81 54.5t54 83t19.5 106q0 40 -15 74.5t-42 60t-64 40t-80 14.5q-54 0 -100.5 -19.5t-81 -54t-54 -82t-19.5 -103.5q0 -42 15 -77t42 -61t64 -40.5t80 -14.5z" />
    <glyph glyph-name="Iota" unicode="&#x399;" horiz-adv-x="300" 
d="M135 716h156l-127 -716h-156z" />
    <glyph glyph-name="Kappa" unicode="&#x39a;" horiz-adv-x="678" 
d="M135 716h156l-58 -326h10l283 326h196l-2 -10l-321 -356l211 -340l-2 -10h-186l-193 310h-10l-55 -310h-156z" />
    <glyph glyph-name="Lambda" unicode="&#x39b;" horiz-adv-x="724" 
d="M408 452l-6 88h-10l-38 -88l-226 -452h-179l385 716h183l131 -716h-170z" />
    <glyph glyph-name="Mu" unicode="&#x39c;" horiz-adv-x="870" 
d="M135 716h150l141 -350h10l265 350h160l-127 -716h-154l56 317l31 120h-10l-211 -285h-91l-116 285h-10l-11 -120l-56 -317h-154z" />
    <glyph glyph-name="Nu" unicode="&#x39d;" horiz-adv-x="736" 
d="M135 716h172l188 -442h10l14 138l54 304h154l-127 -716h-156l-199 468h-10l-14 -138l-59 -330h-154z" />
    <glyph glyph-name="Xi" unicode="&#x39e;" horiz-adv-x="570" 
d="M504 148l-26 -148h-513l26 148h513zM47 285l25 146h450l-25 -146h-450zM65 568l26 148h514l-26 -148h-514z" />
    <glyph glyph-name="Omicron" unicode="&#x39f;" horiz-adv-x="828" 
d="M374 -16q-74 0 -137 24t-109 68.5t-72 106.5t-26 138q0 85 30.5 159.5t86 130.5t134 88.5t173.5 32.5q78 0 141.5 -25.5t108.5 -71t69.5 -107t24.5 -133.5q0 -85 -30.5 -159.5t-86 -130.5t-134 -88.5t-173.5 -32.5zM387 132q54 0 100.5 19.5t81 54.5t54 83t19.5 106
q0 40 -15 74.5t-42 60t-64 40t-80 14.5q-54 0 -100.5 -19.5t-81 -54t-54 -82t-19.5 -103.5q0 -42 15 -77t42 -61t64 -40.5t80 -14.5z" />
    <glyph glyph-name="Pi" unicode="&#x3a0;" horiz-adv-x="710" 
d="M8 0l127 716h566l-127 -716h-156l101 568h-254l-101 -568h-156z" />
    <glyph glyph-name="Rho" unicode="&#x3a1;" horiz-adv-x="606" 
d="M8 0l127 716h241q50 0 92.5 -15.5t73.5 -44t48.5 -68.5t17.5 -88q0 -60 -21 -107t-59 -78.5t-90.5 -48t-115.5 -16.5h-114l-44 -250h-156zM340 398q51 0 82 23.5t31 69.5q0 34 -20 55.5t-63 21.5h-105l-30 -170h105z" />
    <glyph glyph-name="Sigma" unicode="&#x3a3;" horiz-adv-x="538" 
d="M265 572l137 -206l-211 -222h281l-26 -144h-469l26 152l216 214l-143 198l27 152h470l-26 -144h-282z" />
    <glyph glyph-name="Tau" unicode="&#x3a4;" horiz-adv-x="604" 
d="M160 0l101 568h-200l26 148h556l-26 -148h-200l-101 -568h-156z" />
    <glyph glyph-name="Upsilon" unicode="&#x3a5;" horiz-adv-x="658" 
d="M248 333l-173 383h181l90 -210h10l158 210h195l-305 -383l-59 -333h-156z" />
    <glyph glyph-name="Phi" unicode="&#x3a6;" horiz-adv-x="824" 
d="M262 -48l19 109q-56 9 -102 33.5t-78.5 60t-50.5 79t-18 91.5q0 72 29 130.5t77.5 101t112.5 67.5t135 31l19 109h156l-19 -109q57 -11 103.5 -35.5t78.5 -59.5t49.5 -78t17.5 -91q0 -72 -28.5 -131t-77.5 -101.5t-113 -67.5t-135 -30l-19 -109h-156zM462 204
q35 5 66.5 17.5t55 33.5t37.5 51t14 72q0 54 -32.5 88.5t-85.5 45.5zM361 512q-35 -5 -66.5 -17.5t-55 -33.5t-37.5 -51t-14 -72q0 -54 32.5 -88.5t85.5 -45.5z" />
    <glyph glyph-name="Chi" unicode="&#x3a7;" horiz-adv-x="716" 
d="M258 378l-173 338h200l93 -210h10l163 210h204l-293 -352l184 -364h-193l-111 230h-10l-181 -230h-207z" />
    <glyph glyph-name="Psi" unicode="&#x3a8;" horiz-adv-x="794" 
d="M283 156q-41 0 -80 16.5t-69 47t-48.5 74.5t-18.5 99q0 14 1 27t4 31l47 265h156l-49 -274q-3 -21 -3 -35q0 -43 21 -73t65 -30l73 412h156l-73 -412q53 0 86.5 37.5t44.5 100.5l49 274h156l-51 -288q-12 -68 -43 -118.5t-74 -85t-93 -51.5t-101 -17l-28 -156h-156z" />
    <glyph glyph-name="uni03A9" unicode="&#x3a9;" horiz-adv-x="804" 
d="M448 732q73 0 133 -20.5t103 -58t66.5 -90t23.5 -116.5q0 -105 -51 -179t-136 -126l-2 -10h125l-23 -132h-310l32 182q43 11 80.5 32.5t65 51.5t43 67.5t15.5 81.5q0 39 -14 70.5t-38 53.5t-56.5 33.5t-70.5 11.5q-55 0 -98.5 -18t-74 -47.5t-47 -68t-16.5 -79.5
q0 -37 10.5 -67.5t28 -54.5t41.5 -41t51 -26l-32 -182h-309l22 132h132l2 10q-17 15 -34.5 37t-32.5 50.5t-24.5 64t-9.5 79.5q0 70 28.5 134.5t81 114.5t127.5 80t168 30z" />
    <glyph glyph-name="Iotadieresis" unicode="&#x3aa;" horiz-adv-x="300" 
d="M64 856q0 31 22 53t53 22t53 -22t22 -53t-22 -53t-53 -22t-53 22t-22 53zM256 856q0 31 22 53t53 22t53 -22t22 -53t-22 -53t-53 -22t-53 22t-22 53zM135 716h156l-127 -716h-156z" />
    <glyph glyph-name="Upsilondieresis" unicode="&#x3ab;" horiz-adv-x="658" 
d="M248 333l-173 383h181l90 -210h10l158 210h195l-305 -383l-59 -333h-156zM218 843q0 33 23 56t56 23t56 -23t23 -56t-23 -56t-56 -23t-56 23t-23 56zM420 843q0 33 23 56t56 23t56 -23t23 -56t-23 -56t-56 -23t-56 23t-23 56z" />
    <glyph glyph-name="alphatonos" unicode="&#x3ac;" horiz-adv-x="608" 
d="M354 0l9 54h-10q-19 -30 -51 -50t-93 -20q-38 0 -74.5 15.5t-65.5 44.5t-46.5 70.5t-17.5 94.5q0 61 20.5 115t57 94.5t87.5 64t112 23.5q30 0 52.5 -6t39 -15.5t28 -22.5t19.5 -26h10l9 54h140l-86 -490h-140zM294 366q-30 0 -55.5 -11t-44 -29.5t-29 -44t-10.5 -53.5
q0 -48 30.5 -76t75.5 -28q27 0 52 10.5t44 29t30.5 44t11.5 56.5q0 45 -30 73.5t-75 28.5zM270 588l62 140h179l-123 -140h-118z" />
    <glyph glyph-name="epsilontonos" unicode="&#x3ad;" horiz-adv-x="526" 
d="M282 506q62 0 104 -21t74 -66l-95 -75q-14 22 -39.5 35t-60.5 13q-29 0 -52.5 -12t-23.5 -38q0 -19 16 -29.5t44 -10.5h75l-18 -104h-80q-31 0 -56 -10.5t-25 -38.5q0 -23 19.5 -33t51.5 -10q42 0 72 15t61 45l84 -80q-48 -52 -103.5 -77t-134.5 -25q-94 0 -144.5 39
t-50.5 100q0 46 25.5 78.5t73.5 51.5l2 10q-16 14 -28.5 33t-12.5 51q0 37 17.5 66.5t47.5 50t70.5 31.5t86.5 11zM234 588l62 140h179l-123 -140h-118z" />
    <glyph glyph-name="etatonos" unicode="&#x3ae;" 
d="M284 588l62 140h179l-123 -140h-118zM208 428h10q26 39 67 58.5t91 19.5q39 0 68 -13t48.5 -35t29 -50.5t9.5 -59.5q0 -14 -1.5 -27.5t-3.5 -28.5l-91 -508h-150l88 491q1 4 1.5 11.5t0.5 13.5q0 26 -15.5 46t-48.5 20q-29 0 -50.5 -10.5t-37 -29t-25 -44.5t-15.5 -57
l-40 -225h-150l86 490h140z" />
    <glyph glyph-name="iotatonos" unicode="&#x3af;" horiz-adv-x="278" 
d="M0 0l85 490h150l-85 -490h-150zM111 588l62 140h179l-123 -140h-118z" />
    <glyph glyph-name="upsilondieresistonos" unicode="&#x3b0;" horiz-adv-x="582" 
d="M246 -16q-49 0 -89.5 14t-69.5 39t-45 60.5t-16 78.5q0 12 1 27t6 40l43 247h150l-44 -248q-3 -18 -3 -29q0 -44 22.5 -66.5t57.5 -22.5q33 0 57.5 14.5t41 38.5t24.5 53.5t8 59.5q0 53 -11.5 100.5t-31.5 99.5h161q14 -39 23.5 -89t9.5 -109q0 -61 -19 -116.5t-56.5 -98
t-92.5 -68t-127 -25.5zM299 732h80l-25 -144h-80zM110 659q0 30 21.5 51.5t51.5 21.5t51.5 -21.5t21.5 -51.5t-21.5 -51.5t-51.5 -21.5t-51.5 21.5t-21.5 51.5zM396 659q0 30 21.5 51.5t51.5 21.5t51.5 -21.5t21.5 -51.5t-21.5 -51.5t-51.5 -21.5t-51.5 21.5t-21.5 51.5z
" />
    <glyph glyph-name="alpha" unicode="&#x3b1;" horiz-adv-x="608" 
d="M354 0l9 54h-10q-19 -30 -51 -50t-93 -20q-38 0 -74.5 15.5t-65.5 44.5t-46.5 70.5t-17.5 94.5q0 61 20.5 115t57 94.5t87.5 64t112 23.5q30 0 52.5 -6t39 -15.5t28 -22.5t19.5 -26h10l9 54h140l-86 -490h-140zM294 366q-30 0 -55.5 -11t-44 -29.5t-29 -44t-10.5 -53.5
q0 -48 30.5 -76t75.5 -28q27 0 52 10.5t44 29t30.5 44t11.5 56.5q0 45 -30 73.5t-75 28.5z" />
    <glyph glyph-name="beta" unicode="&#x3b2;" horiz-adv-x="597" 
d="M154 38l-4 -80l-31 -174h-149l126 718q9 50 29.5 92t53 73t77 48t100.5 17q43 0 81 -13.5t66.5 -36.5t44.5 -55t16 -69q0 -34 -9.5 -61t-24.5 -47t-34.5 -34.5t-39.5 -23.5l-2 -10q38 -20 62 -60t24 -103q0 -42 -17.5 -83.5t-49.5 -75.5t-77 -55t-100 -21
q-43 0 -73.5 12.5t-58.5 41.5h-10zM198 233q-3 -15 -3 -35q0 -36 24 -58t64 -22q22 0 42 8t34.5 22.5t23 34.5t8.5 43q0 43 -29.5 66.5t-72.5 23.5h-15l23 130h18q41 0 71 19t30 58q0 36 -21 53.5t-53 17.5q-42 0 -65.5 -26.5t-30.5 -64.5z" />
    <glyph glyph-name="gamma" unicode="&#x3b3;" horiz-adv-x="602" 
d="M162 2l-135 488h167l71 -281h10l167 281h179l-309 -488l-39 -218h-150z" />
    <glyph glyph-name="delta" unicode="&#x3b4;" horiz-adv-x="584" 
d="M131 716h438l-22 -124h-219l122 -117q47 -46 68 -91.5t21 -107.5q0 -58 -21.5 -111t-61.5 -93t-95.5 -64t-122.5 -24q-53 0 -95.5 17.5t-73.5 47.5t-47.5 70.5t-16.5 87.5q0 50 15.5 95t45 82t71 64.5t93.5 42.5l-119 111zM256 124q27 0 51.5 11t42.5 30t28.5 44.5
t10.5 53.5q0 45 -27 74t-72 29q-27 0 -51 -11t-42 -30.5t-28.5 -46t-10.5 -56.5q0 -47 29.5 -72.5t68.5 -25.5z" />
    <glyph glyph-name="epsilon" unicode="&#x3b5;" horiz-adv-x="508" 
d="M282 506q62 0 104 -21t74 -66l-95 -75q-14 22 -39.5 35t-60.5 13q-29 0 -52.5 -12t-23.5 -38q0 -19 16 -29.5t44 -10.5h75l-18 -104h-80q-31 0 -56 -10.5t-25 -38.5q0 -23 19.5 -33t51.5 -10q42 0 72 15t61 45l84 -80q-48 -52 -103.5 -77t-134.5 -25q-94 0 -144.5 39
t-50.5 100q0 46 25.5 78.5t73.5 51.5l2 10q-16 14 -28.5 33t-12.5 51q0 37 17.5 66.5t47.5 50t70.5 31.5t86.5 11z" />
    <glyph glyph-name="zeta" unicode="&#x3b6;" horiz-adv-x="507" 
d="M153 0q-69 0 -110 37t-41 93q0 42 19.5 73.5t67.5 62.5q18 11 45 29q27 17 53 33q30 18 62 38h-192l22 124h412l-21 -118q-71 -43 -128 -77q-24 -15 -48 -29t-43.5 -25.5t-31.5 -19.5q-13 -8 -16 -9q-21 -12 -30.5 -23t-9.5 -27q0 -20 15.5 -29t32.5 -9h80q32 0 59 -9.5
t46.5 -26t30.5 -40.5t11 -52q0 -82 -54.5 -123t-145.5 -41l20 114q14 0 25 7t11 23q0 11 -8 17.5t-22 6.5h-111z" />
    <glyph glyph-name="eta" unicode="&#x3b7;" 
d="M208 428h10q26 39 67 58.5t91 19.5q39 0 68 -13t48.5 -35t29 -50.5t9.5 -59.5q0 -14 -1.5 -27.5t-3.5 -28.5l-91 -508h-150l88 491q1 4 1.5 11.5t0.5 13.5q0 26 -15.5 46t-48.5 20q-29 0 -50.5 -10.5t-37 -29t-25 -44.5t-15.5 -57l-40 -225h-150l86 490h140z" />
    <glyph glyph-name="theta" unicode="&#x3b8;" horiz-adv-x="691" 
d="M289 -16q-57 0 -103.5 21.5t-80.5 60.5t-52.5 93.5t-18.5 119.5q0 81 24.5 157t69.5 134.5t109 94t144 35.5q57 0 103.5 -21.5t80.5 -60.5t52.5 -93.5t18.5 -119.5q0 -81 -24.5 -157t-69.5 -134.5t-109 -94t-144 -35.5zM304 124q32 0 59 13t48 36t36.5 54t24.5 67h-286
q0 -37 8 -68.5t23.5 -54t37.5 -35t49 -12.5zM366 560q-57 0 -96.5 -38t-61.5 -96h274q-8 60 -38 97t-78 37z" />
    <glyph glyph-name="iota" unicode="&#x3b9;" horiz-adv-x="278" 
d="M0 0l85 490h150l-85 -490h-150z" />
    <glyph glyph-name="kappa" unicode="&#x3ba;" horiz-adv-x="534" 
d="M229 490l-36 -204h10l172 204h175l-2 -10l-199 -230l122 -240l-2 -10h-166l-110 228h-10l-41 -228h-149l86 490h150z" />
    <glyph glyph-name="lambda" unicode="&#x3bb;" horiz-adv-x="581" 
d="M169 706h166l178 -706h-169l-60 268h-10l-157 -268h-176l289 471z" />
    <glyph glyph-name="nu" unicode="&#x3bd;" horiz-adv-x="586" 
d="M31 490h173l54 -278h10l161 278h176l-301 -490h-150z" />
    <glyph glyph-name="xi" unicode="&#x3be;" horiz-adv-x="545" 
d="M289 140q36 0 67 -8.5t53.5 -25.5t35.5 -43t13 -62q0 -86 -54 -127.5t-148 -41.5l20 114q17 0 27 8t10 22q0 11 -8 17.5t-22 6.5h-73q-53 0 -93.5 15t-68 39.5t-41.5 57.5t-14 69q0 67 36 118t105 82l2 10q-22 18 -41 48.5t-19 78.5q0 45 20 84t55 68t83 45.5t104 16.5
q42 0 76 -9.5t60 -25t44.5 -36t30.5 -41.5l-128 -85q-14 34 -38.5 49.5t-57.5 15.5q-18 0 -36.5 -5.5t-33 -16.5t-23.5 -27.5t-9 -37.5q0 -37 27 -57t60 -20h102l-23 -126h-111q-24 0 -47 -4.5t-41.5 -15.5t-30 -29t-11.5 -44q0 -35 31 -56t80 -21h30z" />
    <glyph glyph-name="omicron" unicode="&#x3bf;" horiz-adv-x="584" 
d="M305 506q54 0 98 -17.5t75 -48t47.5 -71.5t16.5 -88q0 -63 -22 -117.5t-62 -94t-95 -62.5t-121 -23q-54 0 -98 17.5t-75 48t-47.5 72t-16.5 88.5q0 63 22 117t62 93.5t95 62.5t121 23zM257 124q27 0 51.5 10.5t43 29.5t29.5 44t11 55q0 45 -28.5 74t-73.5 29
q-27 0 -51.5 -10.5t-43 -29.5t-29.5 -44t-11 -55q0 -45 29 -74t73 -29z" />
    <glyph glyph-name="pi" unicode="&#x3c0;" horiz-adv-x="759" 
d="M138 364h-113l22 126h687l-22 -126h-121l-29 -164q-1 -5 -1 -8v-8q0 -23 11 -39t35 -16q15 0 26 4t20 10l35 -120q-27 -17 -57 -24t-74 -7q-73 0 -111.5 42.5t-38.5 108.5q0 16 1.5 28.5t3.5 25.5l29 167h-153l-64 -364h-150z" />
    <glyph glyph-name="rho" unicode="&#x3c1;" horiz-adv-x="612" 
d="M312 366q-28 0 -53 -11t-43.5 -30.5t-29.5 -45t-11 -55.5q0 -45 30 -72.5t72 -27.5q28 0 53.5 10t44.5 28.5t30.5 44.5t11.5 57q0 49 -31.5 75.5t-73.5 26.5zM335 506q58 0 102 -17.5t73.5 -48.5t44.5 -73t15 -90q0 -53 -19 -105t-54.5 -94t-85.5 -68t-113 -26
q-56 0 -91.5 21.5t-55.5 48.5h-10v-70l-36 -200h-149l77 440q11 62 35 114t61.5 89.5t89 58t116.5 20.5z" />
    <glyph glyph-name="uni03C2" unicode="&#x3c2;" horiz-adv-x="550" 
d="M249 -16q-55 0 -100 17.5t-77 49t-49.5 74.5t-17.5 95q0 54 20.5 105.5t60 91.5t96.5 64.5t129 24.5q85 0 142 -37.5t81 -106.5l-144 -56q-12 32 -39 46t-62 14q-29 0 -53.5 -11t-42.5 -29t-28 -42t-10 -50q0 -51 33 -80.5t91 -29.5h20q35 0 64 -10.5t49.5 -29
t31.5 -43.5t11 -55q0 -87 -52 -128t-149 -42l20 114q14 0 25.5 7t11.5 22q0 25 -35 25h-27z" />
    <glyph glyph-name="sigma" unicode="&#x3c3;" horiz-adv-x="614" 
d="M494 366q17 -19 26.5 -46.5t9.5 -62.5q0 -59 -22 -109t-60 -86.5t-90 -57t-113 -20.5q-54 0 -98.5 17t-76 46.5t-48.5 70t-17 87.5q0 57 21.5 108.5t60 91t92.5 62.5t120 23h327l-22 -124h-32l-76 10zM253 124q27 0 50 10t40.5 27.5t27 41.5t9.5 52q0 42 -27.5 68.5
t-68.5 26.5q-27 0 -50 -9.5t-40 -27t-27 -41.5t-10 -52q0 -42 28 -69t68 -27z" />
    <glyph glyph-name="tau" unicode="&#x3c4;" horiz-adv-x="496" 
d="M109 0l62 350h-149l25 140h448l-25 -140h-149l-62 -350h-150z" />
    <glyph glyph-name="upsilon" unicode="&#x3c5;" horiz-adv-x="582" 
d="M246 -16q-49 0 -89.5 14t-69.5 39t-45 60.5t-16 78.5q0 12 1 27t6 40l43 247h150l-44 -248q-3 -18 -3 -29q0 -44 22.5 -66.5t57.5 -22.5q33 0 57.5 14.5t41 38.5t24.5 53.5t8 59.5q0 53 -11.5 100.5t-31.5 99.5h161q14 -39 23.5 -89t9.5 -109q0 -61 -19 -116.5t-56.5 -98
t-92.5 -68t-127 -25.5z" />
    <glyph glyph-name="phi" unicode="&#x3c6;" horiz-adv-x="748" 
d="M194 -216l37 206q-50 7 -89 26.5t-66 48.5t-41 67t-14 82q0 52 15.5 96t42.5 80t65 65t83 51l52 -123q-47 -25 -77 -61t-30 -89q0 -38 21.5 -66t61.5 -40l37 209q6 36 25 67t46.5 54t61.5 36t71 13q100 0 148 -54t48 -148q0 -68 -23.5 -124.5t-65 -98t-98 -65
t-122.5 -26.5l-37 -206h-152zM407 127q66 13 101.5 56t35.5 109q0 82 -50 82q-17 0 -32.5 -13.5t-20.5 -40.5z" />
    <glyph glyph-name="chi" unicode="&#x3c7;" horiz-adv-x="535" 
d="M159 259l-127 231h180l52 -118h10l90 118h186l-211 -241l126 -249h-176l-54 124h-10l-95 -124h-185z" />
    <glyph glyph-name="psi" unicode="&#x3c8;" horiz-adv-x="738" 
d="M330 490h152l-65 -365q40 1 65.5 16t40.5 39t21 54t6 60q0 34 -2 61t-5.5 50t-8 43.5t-9.5 41.5h150q10 -30 17.5 -75t7.5 -105q0 -66 -19.5 -125t-57.5 -103.5t-96 -70.5t-134 -27l-36 -200h-152l36 200q-40 0 -78 13.5t-67 40t-47 66.5t-18 93q0 14 1 28t4 30l41 235
h150l-45 -256q-3 -17 -3 -30q0 -23 7 -38.5t19 -24.5t27.5 -13t32.5 -4z" />
    <glyph glyph-name="omega" unicode="&#x3c9;" horiz-adv-x="810" 
d="M202 -16q-39 0 -72.5 13.5t-58.5 39.5t-39 63.5t-14 85.5q0 83 31 158.5t87 145.5h170q-22 -29 -44.5 -61.5t-40.5 -67.5t-29.5 -73t-11.5 -78q0 -35 15 -55.5t42 -20.5q30 0 57 24.5t38 86.5l22 125h140l-22 -125q-2 -14 -3 -23t-1 -18q0 -35 16 -52.5t43 -17.5
q25 0 44 14t31.5 36.5t18.5 50.5t6 57q0 60 -11.5 105.5t-31.5 92.5h166q35 -75 35 -194q0 -60 -16.5 -116t-49.5 -99.5t-83 -70t-116 -26.5q-32 0 -57 8t-43 21t-29.5 29.5t-18.5 34.5q-27 -45 -70 -69t-100 -24z" />
    <glyph glyph-name="iotadieresis" unicode="&#x3ca;" horiz-adv-x="278" 
d="M23 659q0 31 22 53t53 22t53 -22t22 -53t-22 -53t-53 -22t-53 22t-22 53zM207 659q0 31 22 53t53 22t53 -22t22 -53t-22 -53t-53 -22t-53 22t-22 53zM0 0l85 490h150l-85 -490h-150z" />
    <glyph glyph-name="upsilondieresis" unicode="&#x3cb;" horiz-adv-x="582" 
d="M246 -16q-49 0 -89.5 14t-69.5 39t-45 60.5t-16 78.5q0 12 1 27t6 40l43 247h150l-44 -248q-3 -18 -3 -29q0 -44 22.5 -66.5t57.5 -22.5q33 0 57.5 14.5t41 38.5t24.5 53.5t8 59.5q0 53 -11.5 100.5t-31.5 99.5h161q14 -39 23.5 -89t9.5 -109q0 -61 -19 -116.5t-56.5 -98
t-92.5 -68t-127 -25.5zM141 659q0 33 23 56t56 23t56 -23t23 -56t-23 -56t-56 -23t-56 23t-23 56zM343 659q0 33 23 56t56 23t56 -23t23 -56t-23 -56t-56 -23t-56 23t-23 56z" />
    <glyph glyph-name="omicrontonos" unicode="&#x3cc;" horiz-adv-x="584" 
d="M305 506q54 0 98 -17.5t75 -48t47.5 -71.5t16.5 -88q0 -63 -22 -117.5t-62 -94t-95 -62.5t-121 -23q-54 0 -98 17.5t-75 48t-47.5 72t-16.5 88.5q0 63 22 117t62 93.5t95 62.5t121 23zM257 124q27 0 51.5 10.5t43 29.5t29.5 44t11 55q0 45 -28.5 74t-73.5 29
q-27 0 -51.5 -10.5t-43 -29.5t-29.5 -44t-11 -55q0 -45 29 -74t73 -29zM270 588l62 140h179l-123 -140h-118z" />
    <glyph glyph-name="upsilontonos" unicode="&#x3cd;" horiz-adv-x="582" 
d="M246 -16q-49 0 -89.5 14t-69.5 39t-45 60.5t-16 78.5q0 12 1 27t6 40l43 247h150l-44 -248q-3 -18 -3 -29q0 -44 22.5 -66.5t57.5 -22.5q33 0 57.5 14.5t41 38.5t24.5 53.5t8 59.5q0 53 -11.5 100.5t-31.5 99.5h161q14 -39 23.5 -89t9.5 -109q0 -61 -19 -116.5t-56.5 -98
t-92.5 -68t-127 -25.5zM252 588l62 140h179l-123 -140h-118z" />
    <glyph glyph-name="omegatonos" unicode="&#x3ce;" horiz-adv-x="810" 
d="M202 -16q-39 0 -72.5 13.5t-58.5 39.5t-39 63.5t-14 85.5q0 83 31 158.5t87 145.5h170q-22 -29 -44.5 -61.5t-40.5 -67.5t-29.5 -73t-11.5 -78q0 -35 15 -55.5t42 -20.5q30 0 57 24.5t38 86.5l22 125h140l-22 -125q-2 -14 -3 -23t-1 -18q0 -35 16 -52.5t43 -17.5
q25 0 44 14t31.5 36.5t18.5 50.5t6 57q0 60 -11.5 105.5t-31.5 92.5h166q35 -75 35 -194q0 -60 -16.5 -116t-49.5 -99.5t-83 -70t-116 -26.5q-32 0 -57 8t-43 21t-29.5 29.5t-18.5 34.5q-27 -45 -70 -69t-100 -24zM386 588l62 140h179l-123 -140h-118z" />
    <glyph glyph-name="uni03D1" unicode="&#x3d1;" horiz-adv-x="663" 
d="M240 -16q-46 0 -85 14t-67.5 40.5t-44.5 65t-16 88.5q0 14 1.5 27.5t3.5 28.5l43 242h140l-45 -254q-2 -10 -2 -15v-12q0 -46 27.5 -68.5t67.5 -22.5q51 0 83 29.5t43 88.5l6 36q-34 12 -62.5 33t-49.5 51t-32.5 68t-11.5 83t12 86t36 71.5t60.5 49t86.5 18.5
q73 0 113 -40t40 -109q0 -10 -1 -20t-3 -21l-29 -160h89l-21 -119h-89l-5 -30q-23 -128 -96.5 -188.5t-191.5 -60.5zM448 568q1 6 1 9v5q0 32 -27 32q-13 0 -22.5 -9t-15.5 -23t-8.5 -32t-2.5 -36q0 -35 10.5 -64.5t34.5 -48.5z" />
    <glyph glyph-name="uni03D2" unicode="&#x3d2;" horiz-adv-x="688" 
d="M638 724q35 0 61 -9t43 -24l-65 -113q-5 5 -15 8.5t-21 3.5q-17 0 -31.5 -8t-28.5 -28l-169 -244l-54 -310h-156l54 310l-83 244q-7 20 -19 28t-29 8q-10 0 -20 -2.5t-15 -5.5l-37 109q23 14 53.5 23.5t65.5 9.5q18 0 37.5 -4t37.5 -15t33.5 -30.5t26.5 -50.5l49 -145h10
l104 150q21 30 42 48.5t42.5 29t42.5 14t41 3.5z" />
    <glyph glyph-name="uni03D3" unicode="&#x3d3;" horiz-adv-x="830" 
d="M780 724q35 0 61 -9t43 -24l-65 -113q-5 5 -15 8.5t-21 3.5q-17 0 -31.5 -8t-28.5 -28l-169 -244l-54 -310h-156l54 310l-83 244q-7 20 -19 28t-29 8q-10 0 -20 -2.5t-15 -5.5l-37 109q23 14 53.5 23.5t65.5 9.5q18 0 37.5 -4t37.5 -15t33.5 -30.5t26.5 -50.5l49 -145h10
l104 150q21 30 42 48.5t42.5 29t42.5 14t41 3.5zM-40 588l62 140h179l-123 -140h-118z" />
    <glyph glyph-name="uni03D4" unicode="&#x3d4;" horiz-adv-x="688" 
d="M638 724q35 0 61 -9t43 -24l-65 -113q-5 5 -15 8.5t-21 3.5q-17 0 -31.5 -8t-28.5 -28l-169 -244l-54 -310h-156l54 310l-83 244q-7 20 -19 28t-29 8q-10 0 -20 -2.5t-15 -5.5l-37 109q23 14 53.5 23.5t65.5 9.5q18 0 37.5 -4t37.5 -15t33.5 -30.5t26.5 -50.5l49 -145h10
l104 150q21 30 42 48.5t42.5 29t42.5 14t41 3.5zM233 843q0 33 23 56t56 23t56 -23t23 -56t-23 -56t-56 -23t-56 23t-23 56zM435 843q0 33 23 56t56 23t56 -23t23 -56t-23 -56t-56 -23t-56 23t-23 56z" />
    <glyph glyph-name="uni03D6" unicode="&#x3d6;" horiz-adv-x="928" 
d="M245 -16q-39 0 -72.5 13.5t-58.5 39.5t-39 63.5t-14 85.5q0 64 15.5 112.5t33.5 83.5h-65l19 108h848l-19 -108h-71q3 -18 4.5 -38.5t1.5 -47.5q0 -60 -16.5 -116t-49.5 -99.5t-83 -70t-116 -26.5q-32 0 -57 8t-43 21t-29.5 29.5t-18.5 34.5q-27 -45 -70 -69t-100 -24z
M570 134q25 0 44 14t31.5 36.5t18.5 50.5t6 57q0 30 -2.5 50.5t-5.5 39.5h-387q-20 -36 -36 -80.5t-16 -91.5q0 -35 15 -55.5t42 -20.5q30 0 57 24.5t38 86.5l15 85h140l-15 -85q-2 -14 -3 -23t-1 -18q0 -35 16 -52.5t43 -17.5z" />
    <glyph glyph-name="uni0400" unicode="&#x400;" horiz-adv-x="596" 
d="M265 568l-24 -136h284l-27 -148h-284l-24 -136h316l-26 -148h-472l127 716h472l-26 -148h-316zM314 772l-72 140h173l13 -140h-114z" />
    <glyph glyph-name="uni0401" unicode="&#x401;" horiz-adv-x="596" 
d="M265 568l-24 -136h284l-27 -148h-284l-24 -136h316l-26 -148h-472l127 716h472l-26 -148h-316zM193 843q0 33 23 56t56 23t56 -23t23 -56t-23 -56t-56 -23t-56 23t-23 56zM395 843q0 33 23 56t56 23t56 -23t23 -56t-23 -56t-56 -23t-56 23t-23 56z" />
    <glyph glyph-name="uni0402" unicode="&#x402;" horiz-adv-x="807" 
d="M753 244q0 -57 -21 -102t-59 -76.5t-90 -48.5t-115 -17h-32l24 136h19q23 0 44 5t37 15.5t25.5 27.5t9.5 40q0 36 -25.5 54t-64.5 18q-45 0 -87.5 -22.5t-67.5 -53.5l-39 -220h-156l101 568h-195l26 148h550l-26 -148h-199l-23 -126l-23 -78h10q35 32 76.5 53t106.5 21
q39 0 74.5 -13.5t62 -39t42 -61t15.5 -80.5z" />
    <glyph glyph-name="uni0403" unicode="&#x403;" horiz-adv-x="566" 
d="M135 716h456l-26 -148h-300l-101 -568h-156zM302 772l62 140h179l-123 -140h-118z" />
    <glyph glyph-name="uni0404" unicode="&#x404;" horiz-adv-x="737" 
d="M661 118q-66 -69 -140.5 -101.5t-165.5 -32.5q-74 0 -134 25t-102 69t-65 105t-23 132q0 79 30.5 154t87.5 133.5t138 94t182 35.5q91 0 154.5 -33t106.5 -93l-130 -100q-26 35 -65 56.5t-93 21.5q-43 0 -81 -11t-69 -32t-54.5 -50.5t-36.5 -65.5h312l-23 -134h-302
q11 -75 59 -117t122 -42q64 0 109.5 24t86.5 67z" />
    <glyph glyph-name="uni0405" unicode="&#x405;" horiz-adv-x="586" 
d="M243 -16q-45 0 -86 13t-74 38.5t-56 64.5t-32 91l149 60q4 -51 33 -85t82 -34q48 0 77.5 20.5t29.5 55.5q0 33 -23.5 56.5t-86.5 48.5l-31 12q-30 12 -57 29t-47 41t-32 55t-12 71q0 45 19.5 84t54 67t82 44t104.5 16q56 0 95.5 -15t65.5 -38t40.5 -50.5t20.5 -52.5
l-141 -54q-18 68 -98 68q-17 0 -32.5 -4.5t-28.5 -12.5t-20.5 -20t-7.5 -28q0 -29 22 -48.5t73 -38.5l41 -15q75 -28 115 -74.5t40 -125.5q0 -50 -19.5 -93.5t-56 -76t-88 -51t-115.5 -18.5z" />
    <glyph glyph-name="uni0406" unicode="&#x406;" horiz-adv-x="300" 
d="M135 716h156l-127 -716h-156z" />
    <glyph glyph-name="uni0407" unicode="&#x407;" horiz-adv-x="300" 
d="M62 843q0 31 22 53t53 22t53 -22t22 -53t-22 -53t-53 -22t-53 22t-22 53zM254 843q0 31 22 53t53 22t53 -22t22 -53t-22 -53t-53 -22t-53 22t-22 53zM135 716h156l-127 -716h-156z" />
    <glyph glyph-name="uni0408" unicode="&#x408;" horiz-adv-x="571" 
d="M219 -16q-42 0 -81 13t-70 36.5t-51.5 56t-25.5 71.5l149 57q5 -38 30.5 -62t64.5 -24q81 0 99 100l85 484h156l-86 -486q-12 -66 -37 -113t-60 -76.5t-79 -43t-94 -13.5z" />
    <glyph glyph-name="uni0409" unicode="&#x409;" horiz-adv-x="1111" 
d="M19 138q23 0 39 6.5t28 18.5q23 23 33 61.5t19 88.5l71 403h522l-48 -276h132q50 0 94.5 -13t77.5 -38t52.5 -63t19.5 -87q0 -54 -21 -98t-59.5 -75.5t-93.5 -48.5t-123 -17h-313l100 568h-210l-56 -319q-12 -69 -35.5 -121t-61.5 -84q-59 -52 -162 -52q-20 0 -37.5 2
t-24.5 4l25 146q6 -3 15 -4.5t17 -1.5zM657 296l-27 -152h154q48 0 78.5 21t30.5 61q0 34 -22.5 52t-61.5 18h-152z" />
    <glyph glyph-name="uni040A" unicode="&#x40a;" horiz-adv-x="1102" 
d="M135 716h156l-49 -276h274l49 276h156l-49 -276h132q50 0 94.5 -13t77.5 -38t52.5 -63t19.5 -87q0 -54 -21 -98t-59.5 -75.5t-93.5 -48.5t-123 -17h-313l53 296h-274l-53 -296h-156zM646 296l-27 -152h154q48 0 78.5 21t30.5 61q0 34 -22.5 52t-61.5 18h-152z" />
    <glyph glyph-name="uni040B" unicode="&#x40b;" horiz-adv-x="803" 
d="M541 0l34 193q3 13 3 33q0 32 -23.5 51t-66.5 19q-45 0 -79 -22.5t-59 -53.5l-39 -220h-156l101 568h-195l26 148h550l-26 -148h-199l-23 -126l-23 -78h10q35 32 79 53t105 21q39 0 70.5 -12.5t53.5 -35.5t34 -55t12 -71q0 -11 -1 -22t-3 -23l-39 -219h-146z" />
    <glyph glyph-name="uni040C" unicode="&#x40c;" horiz-adv-x="678" 
d="M135 716h156l-58 -326h10l283 326h196l-2 -10l-321 -356l211 -340l-2 -10h-186l-193 310h-10l-55 -310h-156zM347 772l62 140h179l-123 -140h-118z" />
    <glyph glyph-name="uni040D" unicode="&#x40d;" horiz-adv-x="728" 
d="M135 716h154l-59 -330l-34 -138h10l343 468h170l-127 -716h-154l54 304l34 138h-10l-322 -442h-186zM366 772l-72 140h173l13 -140h-114z" />
    <glyph glyph-name="uni040E" unicode="&#x40e;" horiz-adv-x="644" 
d="M321 119q-25 -39 -49 -65t-49.5 -41.5t-53 -22t-58.5 -6.5q-30 0 -54 6t-44 16l63 130q9 -6 21 -10t25 -4q15 0 31.5 8.5t29.5 28.5l34 50l-141 507h161l81 -330h10l200 330h168zM386 760q-25 0 -47 8.5t-38.5 23.5t-26.5 36.5t-10 47.5v11t2 13h102q-1 -4 -1 -8
q0 -13 8 -22.5t25 -9.5t29.5 12t15.5 28h101q-11 -69 -52.5 -104.5t-107.5 -35.5z" />
    <glyph glyph-name="uni040F" unicode="&#x40f;" horiz-adv-x="710" 
d="M202 -168l29 168h-208l126 716h156l-100 -568h254l100 568h156l-126 -716h-208l-29 -168h-150z" />
    <glyph glyph-name="uni0410" unicode="&#x410;" horiz-adv-x="740" 
d="M468 160h-259l-82 -160h-178l387 716h185l143 -716h-166zM282 302h160l-27 150l-8 88h-10l-38 -88z" />
    <glyph glyph-name="uni0411" unicode="&#x411;" horiz-adv-x="644" 
d="M370 444q45 0 85 -14.5t70 -40t47.5 -61.5t17.5 -79q0 -60 -22 -106.5t-60 -78t-89.5 -48t-111.5 -16.5h-299l127 716h467l-25 -142h-311l-23 -130h127zM323 144q48 0 79.5 23t31.5 65q0 35 -22 53.5t-61 18.5h-133l-28 -160h133z" />
    <glyph glyph-name="uni0412" unicode="&#x412;" horiz-adv-x="646" 
d="M135 716h259q56 0 98 -14.5t70.5 -38.5t43 -56t14.5 -67q0 -36 -10.5 -63.5t-27.5 -47.5t-40 -32.5t-47 -19.5l-2 -10q38 -17 66.5 -52.5t28.5 -91.5q0 -53 -21.5 -94.5t-59.5 -70t-89 -43.5t-111 -15h-299zM361 432q47 0 75 19.5t28 58.5q0 32 -20 50t-54 18h-124
l-25 -146h120zM322 140q49 0 79.5 22.5t30.5 62.5q0 32 -20.5 53.5t-65.5 21.5h-129l-28 -160h133z" />
    <glyph glyph-name="uni0413" unicode="&#x413;" horiz-adv-x="552" 
d="M135 716h456l-26 -148h-300l-101 -568h-156z" />
    <glyph glyph-name="uni0414" unicode="&#x414;" horiz-adv-x="811" 
d="M-36 -152l52 300h96q21 33 38.5 74t32.5 87t27 95.5t21 97.5l37 214h501l-100 -568h78l-53 -300h-150l27 152h-431l-27 -152h-149zM384 490q-11 -58 -21.5 -105.5t-23.5 -88.5t-28.5 -77t-35.5 -71h238l74 420h-189z" />
    <glyph glyph-name="uni0415" unicode="&#x415;" horiz-adv-x="596" 
d="M265 568l-24 -136h284l-27 -148h-284l-24 -136h316l-26 -148h-472l127 716h472l-26 -148h-316z" />
    <glyph glyph-name="uni0416" unicode="&#x416;" horiz-adv-x="990" 
d="M509 0h-156l54 305h-10l-258 -305h-200l2 10l309 351l-166 345l2 10h185l143 -317h10l56 317h156l-56 -317h10l249 317h195l-2 -10l-291 -358l185 -338l-2 -10h-186l-165 305h-10z" />
    <glyph glyph-name="uni0417" unicode="&#x417;" horiz-adv-x="584" 
d="M244 -16q-47 0 -88 12.5t-72.5 36.5t-53 58.5t-28.5 77.5l138 55q9 -51 37.5 -75.5t73.5 -24.5q49 0 83.5 24t34.5 75q0 37 -28 61t-79 24h-55l22 126h43q27 0 51 5.5t41.5 17t28 29.5t10.5 42q0 33 -19 52.5t-57 19.5q-42 0 -70.5 -21.5t-42.5 -51.5l-119 53
q12 31 33.5 59t52 48.5t71 32.5t91.5 12q49 0 88 -13.5t66.5 -37t42 -55.5t14.5 -70q0 -68 -31 -108.5t-77 -63.5l-2 -10q30 -19 53 -54t23 -94q0 -56 -22 -100.5t-59.5 -76t-87.5 -48.5t-107 -17z" />
    <glyph glyph-name="uni0418" unicode="&#x418;" horiz-adv-x="728" 
d="M135 716h154l-59 -330l-34 -138h10l343 468h170l-127 -716h-154l54 304l34 138h-10l-322 -442h-186z" />
    <glyph glyph-name="uni0419" unicode="&#x419;" horiz-adv-x="728" 
d="M426 760q-25 0 -47 8.5t-38.5 23.5t-26.5 36.5t-10 47.5v11t2 13h102q-1 -4 -1 -8q0 -13 8 -22.5t25 -9.5t29.5 12t15.5 28h101q-11 -69 -52.5 -104.5t-107.5 -35.5zM135 716h154l-59 -330l-34 -138h10l343 468h170l-127 -716h-154l54 304l34 138h-10l-322 -442h-186z
" />
    <glyph glyph-name="uni041A" unicode="&#x41a;" horiz-adv-x="678" 
d="M135 716h156l-58 -326h10l283 326h196l-2 -10l-321 -356l211 -340l-2 -10h-186l-193 310h-10l-55 -310h-156z" />
    <glyph glyph-name="uni041B" unicode="&#x41b;" horiz-adv-x="740" 
d="M19 138q23 0 39 6.5t28 18.5q23 23 33 61.5t19 88.5l71 403h522l-126 -716h-156l100 568h-210l-56 -319q-12 -69 -35.5 -121t-61.5 -84q-59 -52 -162 -52q-20 0 -37.5 2t-24.5 4l25 146q6 -3 15 -4.5t17 -1.5z" />
    <glyph glyph-name="uni041C" unicode="&#x41c;" horiz-adv-x="894" 
d="M135 716h150l141 -350h10l265 350h160l-127 -716h-154l56 317l31 120h-10l-211 -285h-91l-116 285h-10l-11 -120l-56 -317h-154z" />
    <glyph glyph-name="uni041D" unicode="&#x41d;" horiz-adv-x="730" 
d="M135 716h156l-49 -276h274l49 276h156l-127 -716h-156l52 292h-274l-52 -292h-156z" />
    <glyph glyph-name="uni041E" unicode="&#x41e;" horiz-adv-x="835" 
d="M374 -16q-74 0 -137 24t-109 68.5t-72 106.5t-26 138q0 85 30.5 159.5t86 130.5t134 88.5t173.5 32.5q78 0 141.5 -25.5t108.5 -71t69.5 -107t24.5 -133.5q0 -85 -30.5 -159.5t-86 -130.5t-134 -88.5t-173.5 -32.5zM387 132q54 0 100.5 19.5t81 54.5t54 83t19.5 106
q0 40 -15 74.5t-42 60t-64 40t-80 14.5q-54 0 -100.5 -19.5t-81 -54t-54 -82t-19.5 -103.5q0 -42 15 -77t42 -61t64 -40.5t80 -14.5z" />
    <glyph glyph-name="uni041F" unicode="&#x41f;" horiz-adv-x="710" 
d="M8 0l127 716h566l-127 -716h-156l101 568h-254l-101 -568h-156z" />
    <glyph glyph-name="uni0420" unicode="&#x420;" horiz-adv-x="606" 
d="M8 0l127 716h241q50 0 92.5 -15.5t73.5 -44t48.5 -68.5t17.5 -88q0 -60 -21 -107t-59 -78.5t-90.5 -48t-115.5 -16.5h-114l-44 -250h-156zM340 398q51 0 82 23.5t31 69.5q0 34 -20 55.5t-63 21.5h-105l-30 -170h105z" />
    <glyph glyph-name="uni0421" unicode="&#x421;" horiz-adv-x="737" 
d="M671 115q-34 -36 -68 -60.5t-71.5 -40.5t-79.5 -23t-90 -7q-70 0 -130.5 23t-105.5 66.5t-70.5 106t-25.5 142.5q0 85 31.5 160t88 130.5t135.5 87.5t174 32q94 0 159.5 -32.5t107.5 -91.5l-124 -102q-27 35 -65.5 56.5t-99.5 21.5q-50 0 -95.5 -19t-80 -52.5t-55 -80.5
t-20.5 -103q0 -45 14 -81.5t39 -62t60 -39.5t76 -14q60 0 106 25t90 70z" />
    <glyph glyph-name="uni0422" unicode="&#x422;" horiz-adv-x="610" 
d="M160 0l101 568h-200l26 148h556l-26 -148h-200l-101 -568h-156z" />
    <glyph glyph-name="uni0423" unicode="&#x423;" horiz-adv-x="644" 
d="M321 119q-25 -39 -49 -65t-49.5 -41.5t-53 -22t-58.5 -6.5q-30 0 -54 6t-44 16l63 130q9 -6 21 -10t25 -4q15 0 31.5 8.5t29.5 28.5l34 50l-141 507h161l81 -330h10l200 330h168z" />
    <glyph glyph-name="uni0424" unicode="&#x424;" horiz-adv-x="840" 
d="M270 -48l19 110q-61 9 -108.5 33t-80.5 59.5t-50 80t-17 94.5q0 71 28 127.5t76.5 98t114.5 66.5t142 34l19 109h156l-20 -110q61 -10 109 -34t81 -59t50 -79.5t17 -94.5q0 -71 -28 -128t-77 -98t-114.5 -66.5t-141.5 -34.5l-19 -108h-156zM189 342q0 -53 32.5 -89.5
t92.5 -50.5l55 313q-40 -7 -73 -21t-57 -35.5t-37 -50.5t-13 -66zM650 374q0 53 -32.5 89.5t-92.5 50.5l-56 -314q40 7 73.5 21t57.5 35.5t37 51t13 66.5z" />
    <glyph glyph-name="uni0425" unicode="&#x425;" horiz-adv-x="716" 
d="M258 378l-173 338h200l93 -210h10l163 210h204l-293 -352l184 -364h-193l-111 230h-10l-181 -230h-207z" />
    <glyph glyph-name="uni0426" unicode="&#x426;" horiz-adv-x="786" 
d="M149 716h156l-100 -568h270l100 568h156l-100 -568h92l-55 -316h-150l29 168h-524z" />
    <glyph glyph-name="uni0427" unicode="&#x427;" horiz-adv-x="622" 
d="M477 716h156l-127 -716h-156l54 302q-32 -22 -64 -32t-75 -10q-42 0 -78.5 13.5t-64 39t-43.5 63t-16 86.5q0 28 6 61l34 193h156l-35 -194q-2 -11 -2 -15v-13q0 -43 27.5 -64.5t63.5 -21.5q35 0 61.5 10t55.5 32z" />
    <glyph glyph-name="uni0428" unicode="&#x428;" horiz-adv-x="952" 
d="M135 716h156l-101 -568h170l101 568h156l-101 -568h170l101 568h156l-127 -716h-808z" />
    <glyph glyph-name="uni0429" unicode="&#x429;" horiz-adv-x="998" 
d="M135 716h156l-101 -568h170l101 568h156l-101 -568h170l101 568h156l-101 -568h79l-55 -316h-150l29 168h-737z" />
    <glyph glyph-name="uni042A" unicode="&#x42a;" horiz-adv-x="793" 
d="M87 716h348l-42 -236h98q51 0 96.5 -14t80 -41t55 -66.5t20.5 -89.5q0 -64 -23 -114t-64 -84.5t-97.5 -52.5t-123.5 -18h-283l102 576h-192zM465 144q52 0 87 27t35 82q0 42 -28 64.5t-76 22.5h-115l-34 -196h131z" />
    <glyph glyph-name="uni042B" unicode="&#x42b;" horiz-adv-x="902" 
d="M737 716h156l-127 -716h-156zM291 716l-42 -236h98q51 0 96.5 -14t80 -41t55 -66.5t20.5 -89.5q0 -64 -23 -114t-64 -84.5t-97.5 -52.5t-123.5 -18h-283l127 716h156zM321 144q52 0 87 27t35 82q0 42 -28 64.5t-76 22.5h-115l-34 -196h131z" />
    <glyph glyph-name="uni042C" unicode="&#x42c;" horiz-adv-x="649" 
d="M291 716l-42 -236h98q51 0 96.5 -14t80 -41t55 -66.5t20.5 -89.5q0 -64 -23 -114t-64 -84.5t-97.5 -52.5t-123.5 -18h-283l127 716h156zM321 144q52 0 87 27t35 82q0 42 -28 64.5t-76 22.5h-115l-34 -196h131z" />
    <glyph glyph-name="uni042D" unicode="&#x42d;" horiz-adv-x="737" 
d="M246 425h301q-11 75 -58.5 117t-121.5 42q-54 0 -94 -19.5t-74 -51.5l-101 102q55 57 126 87t156 30q73 0 133 -25.5t103 -70.5t66.5 -106t23.5 -132q0 -86 -31.5 -161.5t-87.5 -131.5t-132.5 -88.5t-166.5 -32.5q-98 0 -174 34.5t-119 101.5l121 99q28 -42 73.5 -64.5
t105.5 -22.5q85 0 148.5 43t89.5 116h-310z" />
    <glyph glyph-name="uni042E" unicode="&#x42e;" horiz-adv-x="1102" 
d="M648 -16q-71 0 -131.5 22t-106 62t-73 97t-32.5 127h-89l-52 -292h-156l127 716h156l-49 -276h79q18 63 54.5 116.5t89 92.5t119.5 61t144 22q78 0 141.5 -25.5t108.5 -71t69.5 -107t24.5 -133.5q0 -85 -30.5 -159.5t-86 -130.5t-134 -88.5t-173.5 -32.5zM661 132
q54 0 100.5 19.5t81 54.5t54 83t19.5 106q0 40 -15 74.5t-42 60t-64 40t-80 14.5q-54 0 -100.5 -19.5t-81 -54t-54 -82t-19.5 -103.5q0 -42 15 -77t42 -61t64 -40.5t80 -14.5z" />
    <glyph glyph-name="uni042F" unicode="&#x42f;" horiz-adv-x="664" 
d="M528 0h-156l46 258h-40l-223 -258h-185l2 10l233 267l2 9q-48 25 -80 71t-32 113q0 54 20.5 99.5t57.5 78t89 50.5t115 18h278zM443 402l30 170h-114q-26 0 -46.5 -7.5t-34 -20t-20.5 -28.5t-7 -34q0 -36 24.5 -58t62.5 -22h105z" />
    <glyph glyph-name="uni0430" unicode="&#x430;" horiz-adv-x="548" 
d="M310 44h-10q-23 -26 -53 -43t-78 -17q-38 0 -68 12t-51.5 33t-33 49t-11.5 61q0 84 61 131.5t165 47.5q35 0 65 -6t58 -14l3 13q2 10 2 14q0 27 -24 45t-63 18q-37 0 -65.5 -14t-48.5 -37l-96 70q42 52 102 75.5t127 23.5q105 0 160 -49.5t55 -129.5q0 -12 -1.5 -24.5
t-3.5 -26.5l-49 -276h-150zM336 193q-46 19 -95 19q-37 0 -61 -15t-24 -47q0 -26 19.5 -40t48.5 -14q22 0 41.5 8.5t34 22.5t24 31.5t12.5 34.5z" />
    <glyph glyph-name="uni0431" unicode="&#x431;" horiz-adv-x="616" 
d="M225 442q23 26 59 45t93 19q41 0 76.5 -17.5t62 -47.5t41.5 -69.5t15 -83.5q0 -67 -22 -122.5t-61 -96t-92.5 -63t-116.5 -22.5q-56 0 -100.5 20t-76 57t-48 89.5t-16.5 117.5q0 50 10 101t30.5 98t50.5 88.5t69 73.5q43 35 96.5 55t118.5 20q27 0 44.5 1.5t28.5 5.5
t17 9t9 13h123q-8 -42 -25.5 -70.5t-46 -45.5t-68.5 -24t-92 -7q-59 0 -103 -26q-63 -38 -86 -118h10zM292 124q28 0 52 10t41.5 28t27 43.5t9.5 55.5q0 48 -29 76.5t-73 28.5q-30 0 -54.5 -11t-42 -30t-27 -43t-9.5 -51q0 -51 31 -79t74 -28z" />
    <glyph glyph-name="uni0432" unicode="&#x432;" horiz-adv-x="526" 
d="M-7 0l86 490h250q75 0 113.5 -34t38.5 -88q0 -21 -7 -38.5t-18 -31.5t-25 -24t-28 -16l-2 -10q27 -14 45 -36.5t18 -65.5q0 -66 -53 -106t-147 -40h-271zM168 202l-16 -90h123q23 0 41 12t18 37q0 20 -13.5 30.5t-36.5 10.5h-116zM200 384l-14 -80h109q22 0 37 10.5
t15 32.5q0 18 -12 27.5t-30 9.5h-105z" />
    <glyph glyph-name="uni0433" unicode="&#x433;" horiz-adv-x="452" 
d="M451 490l-22 -126h-222l-64 -364h-150l86 490h372z" />
    <glyph glyph-name="uni0434" unicode="&#x434;" horiz-adv-x="664" 
d="M-48 -152l49 282h64q25 37 43.5 86.5t29.5 112.5l28 161h434l-63 -360h72l-50 -282h-132l27 152h-344l-27 -152h-131zM272 292q-5 -28 -10.5 -49.5t-12.5 -40.5t-15 -36t-19 -36h180l40 230h-150z" />
    <glyph glyph-name="uni0435" unicode="&#x435;" horiz-adv-x="566" 
d="M494 122q-23 -32 -47.5 -57.5t-54.5 -43.5t-67 -27.5t-85 -9.5q-54 0 -97 18.5t-74 50.5t-47.5 75t-16.5 92q0 56 21.5 108t60.5 91.5t93.5 63t120.5 23.5q55 0 96.5 -16.5t70 -44.5t43 -65t14.5 -77q0 -28 -4 -50.5t-12 -44.5h-361q2 -48 33 -70t72 -22q48 0 77.5 16
t50.5 48zM389 310q0 30 -25 54t-74 24q-44 0 -77.5 -23t-46.5 -55h223z" />
    <glyph glyph-name="uni0436" unicode="&#x436;" horiz-adv-x="782" 
d="M489 490l-35 -200h10l170 200h166l-2 -10l-196 -225l119 -245l-2 -10h-159l-108 224h-10l-40 -224h-150l40 224h-10l-179 -224h-170l2 10l214 257l-119 213l2 10h162l100 -200h10l35 200h150z" />
    <glyph glyph-name="uni0437" unicode="&#x437;" horiz-adv-x="508" 
d="M274 506q39 0 72.5 -10t57.5 -28t37.5 -42.5t13.5 -54.5q0 -42 -22 -69.5t-54 -41.5l-2 -10q23 -14 41 -38.5t18 -60.5q0 -43 -19.5 -74.5t-53 -52t-77.5 -30.5t-92 -10q-73 0 -123 27t-79 68l106 84q20 -30 47.5 -43.5t62.5 -13.5t62 13t27 36q0 20 -23 31.5t-58 11.5
h-58l18 104h69q30 0 53 12t23 33q0 23 -19 34t-45 11q-34 0 -59.5 -12t-43.5 -32l-85 74q46 48 97 66t108 18z" />
    <glyph glyph-name="uni0438" unicode="&#x438;" horiz-adv-x="582" 
d="M462 0h-150l30 170l27 96h-10l-211 -266h-155l86 490h150l-30 -170l-27 -96h10l211 266h156z" />
    <glyph glyph-name="uni0439" unicode="&#x439;" horiz-adv-x="582" 
d="M462 0h-150l30 170l27 96h-10l-211 -266h-155l86 490h150l-30 -170l-27 -96h10l211 266h156zM336 561q-25 0 -47 8.5t-38.5 23.5t-26.5 36.5t-10 47.5v11t2 13h102q-1 -4 -1 -8q0 -13 8 -22.5t25 -9.5t29.5 12t15.5 28h101q-11 -69 -52.5 -104.5t-107.5 -35.5z" />
    <glyph glyph-name="uni043A" unicode="&#x43a;" horiz-adv-x="534" 
d="M229 490l-36 -204h10l172 204h175l-2 -10l-199 -230l122 -240l-2 -10h-166l-110 228h-10l-41 -228h-149l86 490h150z" />
    <glyph glyph-name="uni043B" unicode="&#x43b;" horiz-adv-x="638" 
d="M43 -8q-18 0 -36 2t-28 6l24 131q9 -3 17.5 -4t13.5 -1q15 0 26.5 7t21 23.5t17.5 43.5t15 68l39 222h452l-86 -490h-142l63 356h-170l-21 -120q-12 -71 -32 -118t-46.5 -75t-58.5 -39.5t-69 -11.5z" />
    <glyph glyph-name="uni043C" unicode="&#x43c;" horiz-adv-x="701" 
d="M-11 0l86 490h175l74 -230h10l155 230h183l-87 -490h-142l31 172l27 96h-10l-138 -204h-106l-69 204h-10l-7 -96l-31 -172h-141z" />
    <glyph glyph-name="uni043D" unicode="&#x43d;" horiz-adv-x="594" 
d="M324 0l32 181h-181l-32 -181h-150l87 490h150l-30 -169h181l30 169h150l-87 -490h-150z" />
    <glyph glyph-name="uni043E" unicode="&#x43e;" horiz-adv-x="584" 
d="M305 506q54 0 98 -17.5t75 -48t47.5 -71.5t16.5 -88q0 -63 -22 -117.5t-62 -94t-95 -62.5t-121 -23q-54 0 -98 17.5t-75 48t-47.5 72t-16.5 88.5q0 63 22 117t62 93.5t95 62.5t121 23zM257 124q27 0 51.5 10.5t43 29.5t29.5 44t11 55q0 45 -28.5 74t-73.5 29
q-27 0 -51.5 -10.5t-43 -29.5t-29.5 -44t-11 -55q0 -45 29 -74t73 -29z" />
    <glyph glyph-name="uni043F" unicode="&#x43f;" horiz-adv-x="584" 
d="M551 490l-87 -490h-150l62 350h-172l-62 -350h-149l86 490h472z" />
    <glyph glyph-name="uni0440" unicode="&#x440;" horiz-adv-x="608" 
d="M226 436h10q18 26 53 48t93 22q44 0 81 -18t64 -49.5t42 -73.5t15 -91q0 -58 -19.5 -110.5t-55.5 -92.5t-86.5 -63.5t-111.5 -23.5q-49 0 -89 20.5t-56 49.5h-10v-70l-35 -200h-150l124 706h140zM322 366q-24 0 -48 -9t-42.5 -26.5t-30 -43t-11.5 -59.5q0 -45 30.5 -74.5
t80.5 -29.5q30 0 55 11.5t42 30.5t26.5 44t9.5 52q0 48 -31.5 76t-80.5 28z" />
    <glyph glyph-name="uni0441" unicode="&#x441;" horiz-adv-x="556" 
d="M504 125q-42 -71 -109 -106t-148 -35q-52 0 -96 16.5t-76.5 47t-51 73.5t-18.5 96q0 55 21 107t60 92.5t96 65t129 24.5q82 0 139 -38t80 -107l-140 -55q-12 30 -38.5 45t-61.5 15q-31 0 -56 -11t-42.5 -29t-27 -42t-9.5 -50q0 -27 9 -47.5t24 -34.5t34 -21t39 -7
q41 0 68.5 17t44.5 47z" />
    <glyph glyph-name="uni0442" unicode="&#x442;" horiz-adv-x="472" 
d="M109 0l62 350h-149l25 140h448l-25 -140h-149l-62 -350h-150z" />
    <glyph glyph-name="uni0443" unicode="&#x443;" horiz-adv-x="581" 
d="M157 28l-123 462h171l64 -270h10l158 270h170l-432 -706h-166z" />
    <glyph glyph-name="uni0444" unicode="&#x444;" horiz-adv-x="770" 
d="M736 269q0 -62 -23 -111t-65.5 -84.5t-102 -57t-132.5 -28.5l-36 -204h-150l36 207q-52 9 -95 30.5t-73.5 52t-47 68t-16.5 79.5q0 61 23 110t65 84.5t101.5 57.5t133.5 29l38 214h150l-39 -217q52 -10 95 -31.5t73.5 -51.5t47.5 -67.5t17 -79.5zM179 238q0 -45 27 -75.5
t80 -43.5l45 253q-32 -5 -60 -15t-48.5 -26.5t-32 -39.5t-11.5 -53zM588 252q0 45 -27 75t-80 43l-45 -253q32 5 60 15.5t48.5 27t32 39.5t11.5 53z" />
    <glyph glyph-name="uni0445" unicode="&#x445;" horiz-adv-x="535" 
d="M159 259l-127 231h180l52 -118h10l90 118h186l-211 -241l126 -249h-176l-54 124h-10l-95 -124h-185z" />
    <glyph glyph-name="uni0446" unicode="&#x446;" horiz-adv-x="624" 
d="M374 -152l27 152h-408l86 490h150l-63 -356h172l63 356h150l-63 -356h68l-50 -286h-132z" />
    <glyph glyph-name="uni0447" unicode="&#x447;" horiz-adv-x="543" 
d="M256 294q37 0 72 15l32 181h150l-87 -490h-150l31 171q-20 -6 -42 -9.5t-57 -3.5q-38 0 -70 10.5t-55.5 31t-37 51t-13.5 69.5q0 11 1 20.5t3 23.5l22 126h152l-20 -111q-1 -5 -1.5 -10t-0.5 -12q0 -33 19.5 -48t51.5 -15z" />
    <glyph glyph-name="uni0448" unicode="&#x448;" horiz-adv-x="826" 
d="M-7 0l86 490h146l-63 -356h128l63 356h146l-63 -356h128l63 356h146l-87 -490h-693z" />
    <glyph glyph-name="uni0449" unicode="&#x449;" horiz-adv-x="866" 
d="M596 -152l27 152h-630l86 490h146l-63 -356h128l63 356h146l-63 -356h128l63 356h146l-63 -356h68l-50 -286h-132z" />
    <glyph glyph-name="uni044A" unicode="&#x44a;" horiz-adv-x="620" 
d="M47 490h266l-28 -156h97q41 0 74.5 -12t57.5 -32t37.5 -47.5t13.5 -58.5q0 -85 -56.5 -134.5t-165.5 -49.5h-257l67 378h-126zM266 222l-20 -110h111q30 0 51.5 15.5t21.5 44.5q0 25 -17 37.5t-46 12.5h-101z" />
    <glyph glyph-name="uni044B" unicode="&#x44b;" horiz-adv-x="750" 
d="M490 0l87 490h140l-87 -490h-140zM220 490l-28 -156h97q41 0 74.5 -12t57.5 -32t37.5 -47.5t13.5 -58.5q0 -85 -56.5 -134.5t-165.5 -49.5h-257l87 490h140zM173 222l-20 -110h111q30 0 51.5 15.5t21.5 44.5q0 25 -17 37.5t-46 12.5h-101z" />
    <glyph glyph-name="uni044C" unicode="&#x44c;" horiz-adv-x="526" 
d="M220 490l-28 -156h97q41 0 74.5 -12t57.5 -32t37.5 -47.5t13.5 -58.5q0 -85 -56.5 -134.5t-165.5 -49.5h-257l87 490h140zM173 222l-20 -110h111q30 0 51.5 15.5t21.5 44.5q0 25 -17 37.5t-46 12.5h-101z" />
    <glyph glyph-name="uni044D" unicode="&#x44d;" horiz-adv-x="544" 
d="M109 172q11 -30 38 -49t69 -19q106 0 140 89h-198l18 103h189q-7 42 -33.5 66t-71.5 24q-42 0 -73.5 -20.5t-50.5 -51.5l-108 54q39 69 100.5 103.5t140.5 34.5q52 0 95 -16.5t74 -46.5t47.5 -71t16.5 -90q0 -60 -19.5 -114t-57.5 -95t-93 -65t-125 -24q-40 0 -76 10
t-65 28t-50 44.5t-31 59.5z" />
    <glyph glyph-name="uni044E" unicode="&#x44e;" horiz-adv-x="835" 
d="M557 506q54 0 98 -17.5t75 -48t47.5 -71.5t16.5 -88q0 -63 -22 -117.5t-62 -94t-95 -62.5t-121 -23q-50 0 -91.5 15t-72 41.5t-49 62.5t-23.5 78h-74l-32 -181h-150l86 490h150l-30 -169h69q16 41 42.5 75t62.5 58.5t80 38t95 13.5zM509 124q27 0 51.5 10.5t43 29.5
t29.5 44t11 55q0 45 -28.5 74t-73.5 29q-27 0 -51.5 -10.5t-43 -29.5t-29.5 -44t-11 -55q0 -45 29 -74t73 -29z" />
    <glyph glyph-name="uni044F" unicode="&#x44f;" horiz-adv-x="516" 
d="M-63 0l2 10l142 159l-1 9q-13 7 -26.5 19t-24 28.5t-17.5 37t-7 44.5q0 38 15.5 71.5t44.5 58t70 39t91 14.5h257l-87 -490h-140l28 158h-49l-138 -158h-160zM221 378q-29 0 -51.5 -15.5t-22.5 -43.5q0 -26 18.5 -37.5t40.5 -11.5h98l19 108h-102z" />
    <glyph glyph-name="uni0450" unicode="&#x450;" horiz-adv-x="562" 
d="M494 122q-23 -32 -47.5 -57.5t-54.5 -43.5t-67 -27.5t-85 -9.5q-54 0 -97 18.5t-74 50.5t-47.5 75t-16.5 92q0 56 21.5 108t60.5 91.5t93.5 63t120.5 23.5q55 0 96.5 -16.5t70 -44.5t43 -65t14.5 -77q0 -28 -4 -50.5t-12 -44.5h-361q2 -48 33 -70t72 -22q48 0 77.5 16
t50.5 48zM389 310q0 30 -25 54t-74 24q-44 0 -77.5 -23t-46.5 -55h223zM267 588l-72 140h173l13 -140h-114z" />
    <glyph glyph-name="uni0451" unicode="&#x451;" horiz-adv-x="562" 
d="M494 122q-23 -32 -47.5 -57.5t-54.5 -43.5t-67 -27.5t-85 -9.5q-54 0 -97 18.5t-74 50.5t-47.5 75t-16.5 92q0 56 21.5 108t60.5 91.5t93.5 63t120.5 23.5q55 0 96.5 -16.5t70 -44.5t43 -65t14.5 -77q0 -28 -4 -50.5t-12 -44.5h-361q2 -48 33 -70t72 -22q48 0 77.5 16
t50.5 48zM389 310q0 30 -25 54t-74 24q-44 0 -77.5 -23t-46.5 -55h223zM152 659q0 33 23 56t56 23t56 -23t23 -56t-23 -56t-56 -23t-56 23t-23 56zM354 659q0 33 23 56t56 23t56 -23t23 -56t-23 -56t-56 -23t-56 23t-23 56z" />
    <glyph glyph-name="uni0452" unicode="&#x452;" 
d="M91 558h-55l17 100h55l11 58h150l-11 -58h130l-17 -100h-131l-5 -30l-27 -100h10q26 39 67 58.5t91 19.5q39 0 68 -13t48.5 -35t29 -50.5t9.5 -59.5q0 -14 -1.5 -27.5t-3.5 -28.5l-59 -334q-9 -54 -26 -89.5t-40.5 -56.5t-54.5 -29.5t-69 -8.5q-23 0 -50 4t-46 12l53 132
q16 -10 35 -10q39 0 48 50l56 313q1 4 1.5 11.5t0.5 13.5q0 26 -15.5 46t-48.5 20q-29 0 -50.5 -10.5t-37 -29t-25 -44.5t-15.5 -57l-40 -225h-150z" />
    <glyph glyph-name="uni0453" unicode="&#x453;" horiz-adv-x="432" 
d="M451 490l-22 -126h-222l-64 -364h-150l86 490h372zM205 588l62 140h179l-123 -140h-118z" />
    <glyph glyph-name="uni0454" unicode="&#x454;" horiz-adv-x="544" 
d="M480 126q-40 -68 -99.5 -105t-151.5 -37q-51 0 -92 16.5t-70.5 46.5t-45.5 72t-16 92q0 59 21.5 112.5t60.5 94t95 64.5t125 24q86 0 134.5 -36.5t74.5 -103.5l-122 -49q-10 29 -36.5 49t-64.5 20q-50 0 -86 -25.5t-53 -64.5h194l-18 -103h-189q8 -42 35 -65.5t73 -23.5
q44 0 73 18.5t51 55.5z" />
    <glyph glyph-name="uni0455" unicode="&#x455;" horiz-adv-x="497" 
d="M207 -16q-46 0 -83.5 11t-65 30t-46 44.5t-27.5 54.5l137 56q8 -34 34 -49t62 -15q26 0 47.5 8.5t21.5 28.5q0 17 -15 26.5t-46 17.5l-52 13q-21 5 -44.5 16.5t-42.5 28.5t-31.5 41t-12.5 54q0 38 17 67.5t46.5 49t70.5 29.5t89 10q76 0 124.5 -28t75.5 -91l-136 -49
q-8 26 -30.5 38t-46.5 12q-32 0 -47 -9t-15 -22q0 -15 14 -24.5t35 -14.5l73 -18q63 -16 94 -53t31 -82q0 -42 -18 -76t-49.5 -57t-73.5 -35.5t-90 -12.5z" />
    <glyph glyph-name="uni0456" unicode="&#x456;" horiz-adv-x="278" 
d="M0 0l85 490h150l-85 -490h-150zM186 544q-20 0 -37 7.5t-29.5 20t-20 29.5t-7.5 37q0 19 7.5 36.5t20 30t29.5 20t37 7.5q19 0 36.5 -7.5t30 -20t20 -30t7.5 -36.5q0 -20 -7.5 -37t-20 -29.5t-30 -20t-36.5 -7.5z" />
    <glyph glyph-name="uni0457" unicode="&#x457;" horiz-adv-x="278" 
d="M23 659q0 31 22 53t53 22t53 -22t22 -53t-22 -53t-53 -22t-53 22t-22 53zM207 659q0 31 22 53t53 22t53 -22t22 -53t-22 -53t-53 -22t-53 22t-22 53zM0 0l85 490h150l-85 -490h-150z" />
    <glyph glyph-name="uni0458" unicode="&#x458;" horiz-adv-x="278" 
d="M-90 -78q16 -10 35 -10q39 0 48 50l92 528h150l-92 -532q-9 -54 -26 -89.5t-40.5 -56.5t-54.5 -29.5t-69 -8.5q-23 0 -50 4t-46 12zM186 544q-20 0 -37 7.5t-29.5 20t-20 29.5t-7.5 37q0 19 7.5 36.5t20 30t29.5 20t37 7.5q19 0 36.5 -7.5t30 -20t20 -30t7.5 -36.5
q0 -20 -7.5 -37t-20 -29.5t-30 -20t-36.5 -7.5z" />
    <glyph glyph-name="uni0459" unicode="&#x459;" horiz-adv-x="906" 
d="M43 -8q-18 0 -36 2t-28 6l24 131q9 -3 17.5 -4t13.5 -1q15 0 26.5 7t21 23.5t17.5 43.5t15 68l39 222h452l-28 -164h93q36 0 68.5 -10t57 -28.5t39.5 -45.5t15 -61q0 -85 -55.5 -133t-160.5 -48h-257l63 356h-170l-21 -120q-12 -71 -32 -118t-46.5 -75t-58.5 -39.5
t-69 -11.5zM557 214l-18 -102h105q12 0 25 3t23.5 9.5t17 17.5t6.5 26q0 23 -15.5 34.5t-38.5 11.5h-105z" />
    <glyph glyph-name="uni045A" unicode="&#x45a;" horiz-adv-x="902" 
d="M324 0l38 214h-181l-38 -214h-150l87 490h150l-29 -164h181l29 164h150l-29 -164h133q36 0 68.5 -10t57 -28.5t39.5 -45.5t15 -61q0 -85 -55.5 -133t-160.5 -48h-305zM512 214l-18 -102h145q12 0 25 3t23.5 9.5t17 17.5t6.5 26q0 23 -15.5 34.5t-38.5 11.5h-145z" />
    <glyph glyph-name="uni045B" unicode="&#x45b;" 
d="M91 558h-55l17 100h55l11 58h150l-11 -58h130l-17 -100h-131l-5 -30l-27 -100h10q26 39 67 58.5t91 19.5q39 0 68 -13t48.5 -35t29 -50.5t9.5 -59.5q0 -14 -1.5 -27.5t-3.5 -28.5l-52 -292h-150l49 275q1 4 1.5 11.5t0.5 13.5q0 26 -15.5 46t-48.5 20q-29 0 -50.5 -10.5
t-37 -29t-25 -44.5t-15.5 -57l-40 -225h-150z" />
    <glyph glyph-name="uni045C" unicode="&#x45c;" horiz-adv-x="534" 
d="M229 490l-36 -204h10l172 204h175l-2 -10l-199 -230l122 -240l-2 -10h-166l-110 228h-10l-41 -228h-149l86 490h150zM251 588l62 140h179l-123 -140h-118z" />
    <glyph glyph-name="uni045D" unicode="&#x45d;" horiz-adv-x="582" 
d="M462 0h-150l30 170l27 96h-10l-211 -266h-155l86 490h150l-30 -170l-27 -96h10l211 266h156zM282 588l-72 140h173l13 -140h-114z" />
    <glyph glyph-name="uni045E" unicode="&#x45e;" horiz-adv-x="581" 
d="M157 28l-123 462h171l64 -270h10l158 270h170l-432 -706h-166zM336 576q-25 0 -47 8.5t-38.5 23.5t-26.5 36.5t-10 47.5v11t2 13h102q-1 -4 -1 -8q0 -13 8 -22.5t25 -9.5t29.5 12t15.5 28h101q-11 -69 -52.5 -104.5t-107.5 -35.5z" />
    <glyph glyph-name="uni045F" unicode="&#x45f;" horiz-adv-x="584" 
d="M136 -152l27 152h-170l86 490h150l-62 -350h172l62 350h150l-86 -490h-170l-27 -152h-132z" />
    <glyph glyph-name="uni0490" unicode="&#x490;" horiz-adv-x="568" 
d="M135 716h316l23 129h156l-49 -277h-316l-101 -568h-156z" />
    <glyph glyph-name="uni0491" unicode="&#x491;" horiz-adv-x="452" 
d="M325 490l20 112h126l-42 -238h-222l-64 -364h-150l86 490h246z" />
    <glyph glyph-name="uni04B0" unicode="&#x4b0;" horiz-adv-x="658" 
d="M235 256h-171l19 112h149l-157 348h186l88 -210h10l156 210h194l-278 -348h150l-19 -112h-171l-46 -256h-156z" />
    <glyph glyph-name="uni04B1" unicode="&#x4b1;" horiz-adv-x="562" 
d="M291 0l-38 -216h-150l38 216h-140l18 100h99l-8 37l-83 353h166l57 -292l161 292h170l-209 -353l-22 -37h99l-18 -100h-140z" />
    <glyph glyph-name="Wgrave" unicode="&#x1e80;" horiz-adv-x="970" 
d="M79 716h165l31 -375l1 -86h10l37 86l134 279h148l39 -279l5 -84h10l30 84l159 375h169l-314 -716h-149l-47 314l-6 86h-10l-36 -86l-154 -314h-152zM488 772l-72 140h173l13 -140h-114z" />
    <glyph glyph-name="wgrave" unicode="&#x1e81;" horiz-adv-x="830" 
d="M28 490h164l25 -276h10l134 276h156l40 -276h10l112 276h170l-238 -490h-165l-38 276h-10l-135 -276h-162zM393 588l-72 140h173l13 -140h-114z" />
    <glyph glyph-name="Wacute" unicode="&#x1e82;" horiz-adv-x="970" 
d="M79 716h165l31 -375l1 -86h10l37 86l134 279h148l39 -279l5 -84h10l30 84l159 375h169l-314 -716h-149l-47 314l-6 86h-10l-36 -86l-154 -314h-152zM494 772l62 140h179l-123 -140h-118z" />
    <glyph glyph-name="wacute" unicode="&#x1e83;" horiz-adv-x="830" 
d="M28 490h164l25 -276h10l134 276h156l40 -276h10l112 276h170l-238 -490h-165l-38 276h-10l-135 -276h-162zM400 588l62 140h179l-123 -140h-118z" />
    <glyph glyph-name="Wdieresis" unicode="&#x1e84;" horiz-adv-x="970" 
d="M79 716h165l31 -375l1 -86h10l37 86l134 279h148l39 -279l5 -84h10l30 84l159 375h169l-314 -716h-149l-47 314l-6 86h-10l-36 -86l-154 -314h-152zM378 843q0 33 23 56t56 23t56 -23t23 -56t-23 -56t-56 -23t-56 23t-23 56zM580 843q0 33 23 56t56 23t56 -23t23 -56
t-23 -56t-56 -23t-56 23t-23 56z" />
    <glyph glyph-name="wdieresis" unicode="&#x1e85;" horiz-adv-x="830" 
d="M28 490h164l25 -276h10l134 276h156l40 -276h10l112 276h170l-238 -490h-165l-38 276h-10l-135 -276h-162zM285 659q0 33 23 56t56 23t56 -23t23 -56t-23 -56t-56 -23t-56 23t-23 56zM487 659q0 33 23 56t56 23t56 -23t23 -56t-23 -56t-56 -23t-56 23t-23 56z" />
    <glyph glyph-name="Ygrave" unicode="&#x1ef2;" horiz-adv-x="658" 
d="M248 333l-173 383h181l90 -210h10l158 210h195l-305 -383l-59 -333h-156zM344 772l-72 140h173l13 -140h-114z" />
    <glyph glyph-name="ygrave" unicode="&#x1ef3;" horiz-adv-x="581" 
d="M157 28l-123 462h171l64 -270h10l158 270h170l-432 -706h-166zM271 588l-72 140h173l13 -140h-114z" />
    <glyph glyph-name="endash" unicode="&#x2013;" horiz-adv-x="620" 
d="M59 378h508l-24 -136h-508z" />
    <glyph glyph-name="emdash" unicode="&#x2014;" horiz-adv-x="930" 
d="M59 378h818l-24 -136h-818z" />
    <glyph glyph-name="quoteleft" unicode="&#x2018;" horiz-adv-x="288" 
d="M281 683l-69 -79q25 -11 40 -34.5t15 -52.5q0 -40 -28 -68t-68 -28t-68 28t-28 68q0 18 6.5 37t20.5 36l118 142z" />
    <glyph glyph-name="quoteright" unicode="&#x2019;" horiz-adv-x="288" 
d="M81 470l69 79q-25 11 -40 34.5t-15 52.5q0 40 28 68t68 28t68 -28t28 -68q0 -18 -6.5 -37t-20.5 -36l-118 -142z" />
    <glyph glyph-name="quotesinglbase" unicode="&#x201a;" horiz-adv-x="288" 
d="M-3 -79l69 79q-25 11 -40 34.5t-15 52.5q0 40 28 68t68 28t68 -28t28 -68q0 -18 -6.5 -37t-20.5 -36l-118 -142z" />
    <glyph glyph-name="quotedblleft" unicode="&#x201c;" horiz-adv-x="528" 
d="M281 683l-69 -79q25 -11 40 -34.5t15 -52.5q0 -40 -28 -68t-68 -28t-68 28t-28 68q0 18 6.5 37t20.5 36l118 142zM521 683l-69 -79q25 -11 40 -34.5t15 -52.5q0 -40 -28 -68t-68 -28t-68 28t-28 68q0 18 6.5 37t20.5 36l118 142z" />
    <glyph glyph-name="quotedblright" unicode="&#x201d;" horiz-adv-x="528" 
d="M81 470l69 79q-25 11 -40 34.5t-15 52.5q0 40 28 68t68 28t68 -28t28 -68q0 -18 -6.5 -37t-20.5 -36l-118 -142zM321 470l69 79q-25 11 -40 34.5t-15 52.5q0 40 28 68t68 28t68 -28t28 -68q0 -18 -6.5 -37t-20.5 -36l-118 -142z" />
    <glyph glyph-name="quotedblbase" unicode="&#x201e;" horiz-adv-x="514" 
d="M-3 -78l69 79q-25 11 -40 34.5t-15 52.5q0 40 28 68t68 28t68 -28t28 -68q0 -18 -6.5 -37t-20.5 -36l-118 -142zM222 -78l69 79q-25 11 -40 34.5t-15 52.5q0 40 28 68t68 28t68 -28t28 -68q0 -18 -6.5 -37t-20.5 -36l-118 -142z" />
    <glyph glyph-name="bullet" unicode="&#x2022;" horiz-adv-x="432" 
d="M210 188q-28 0 -53 10.5t-43.5 29t-29 43.5t-10.5 53t10.5 53t29 43.5t43.5 29t53 10.5t53 -10.5t43.5 -29t29 -43.5t10.5 -53t-10.5 -53t-29 -43.5t-43.5 -29t-53 -10.5z" />
    <glyph glyph-name="ellipsis" unicode="&#x2026;" horiz-adv-x="776" 
d="M97 -6q-40 0 -68 28t-28 68t28 68t68 28t68 -28t28 -68t-28 -68t-68 -28zM341 -6q-40 0 -68 28t-28 68t28 68t68 28t68 -28t28 -68t-28 -68t-68 -28zM585 -6q-40 0 -68 28t-28 68t28 68t68 28t68 -28t28 -68t-28 -68t-68 -28z" />
    <glyph glyph-name="guilsinglleft" unicode="&#x2039;" horiz-adv-x="402" 
d="M295 111l-95 -75l-176 235l259 235l76 -84l-177 -159z" />
    <glyph glyph-name="guilsinglright" unicode="&#x203a;" horiz-adv-x="402" 
d="M75 431l95 75l176 -235l-259 -235l-76 84l177 159z" />
    <glyph glyph-name="fraction" unicode="&#x2044;" horiz-adv-x="203" 
d="M-231 41l586 694l79 -61l-586 -694z" />
    <glyph glyph-name="uni2074" unicode="&#x2074;" horiz-adv-x="370" 
d="M50 484l210 232h98l-40 -224h47l-14 -80h-47l-11 -62h-94l11 62h-173zM224 492l17 93h-10l-80 -93h73z" />
    <glyph glyph-name="uni20A3" unicode="&#x20a3;" horiz-adv-x="580" 
d="M46 114h-65l14 76h65l87 494h454l-23 -130h-316l-27 -155h284l-23 -130h-284l-14 -79h124l-14 -76h-124l-20 -114h-138z" />
    <glyph glyph-name="uni20A4" unicode="&#x20a4;" horiz-adv-x="562" 
d="M251 326q2 -11 4 -23t2 -26h101l-13 -76h-105q-18 -35 -54 -62l4 -9h135q53 0 77 60l105 -50q-26 -68 -69.5 -104t-126.5 -36h-327l20 119q37 14 64.5 33.5t41.5 48.5h-106l13 76h103q-3 26 -9 49h-85l13 76h49q-4 16 -6 34.5t-2 41.5q0 43 17.5 83.5t50 71t78.5 49
t102 18.5q48 0 83 -13.5t59.5 -35t39 -48.5t21.5 -54l-140 -53q-2 15 -7.5 28t-14.5 23.5t-23 16.5t-33 6q-41 0 -67 -26.5t-26 -73.5q0 -20 2 -36.5t6 -31.5h152l-13 -76h-116z" />
    <glyph glyph-name="uni20A9" unicode="&#x20a9;" horiz-adv-x="1017" 
d="M889 326l-138 -326h-163l-41 326h-86l-155 -326h-155l-29 326h-96l13 76h76l-24 282h163l21 -282h69l137 282h161l44 -282h69l119 282h168l-120 -282h62l-13 -76h-82zM497 402h41v95h-10zM289 262l21 64h-31v-64h10zM704 264l21 62h-31v-62h10z" />
    <glyph glyph-name="uni20AB" unicode="&#x20ab;" horiz-adv-x="597" 
d="M356 54h-10q-23 -29 -58.5 -49.5t-81.5 -20.5q-38 0 -74.5 14.5t-64.5 42t-45 68.5t-17 95q0 59 18.5 111t53 91t84 61.5t110.5 22.5q54 0 89.5 -22t52.5 -48h10v70l8 48h-140l13 76h140l13 70h150l-13 -70h57l-13 -76h-57l-95 -538h-140zM-21 -84h492l-18 -106h-492z
M265 124q27 0 50 10t39.5 27.5t26 40.5t9.5 49q0 43 -30 71t-75 28q-29 0 -52.5 -10t-40.5 -27.5t-26 -40t-9 -47.5t9.5 -44t24.5 -31.5t34.5 -19t39.5 -6.5z" />
    <glyph glyph-name="Euro" unicode="&#x20ac;" horiz-adv-x="665" 
d="M45 474h87q23 49 59 90.5t83.5 71.5t107 47t128.5 17q49 0 90.5 -13.5t76.5 -37.5l-82 -121q-21 14 -46.5 22t-59.5 8q-59 0 -106 -23t-79 -61h199l-18 -104h-234q-3 -14 -5 -28t-2 -28h231l-18 -104h-190q23 -41 62 -62.5t87 -21.5q22 0 39.5 2.5t31.5 7t26.5 10.5
t25.5 14l55 -122q-39 -26 -86 -40t-105 -14q-56 0 -105 16t-88 45.5t-66.5 71t-40.5 93.5h-103l17 104h77q1 27 6 56h-73z" />
    <glyph glyph-name="uni20AE" unicode="&#x20ae;" horiz-adv-x="572" 
d="M91 297l127 72l33 185h-193l23 130h524l-23 -130h-193l-18 -104l116 66h10l-20 -118l-128 -72l-6 -36l127 73l-21 -124l-128 -73l-30 -166h-138l15 85l-116 -65h-10l21 117l127 72l7 36l-128 -72z" />
    <glyph glyph-name="uni20B1" unicode="&#x20b1;" horiz-adv-x="672" 
d="M614 430q-9 -44 -32.5 -77t-57.5 -55.5t-76 -34t-90 -11.5h-139l-45 -252h-138l76 430h-76l14 76h75l32 178h239q99 0 157.5 -48t65.5 -130h63l-14 -76h-54zM375 382q31 0 58 11.5t41 36.5h-224l-8 -48h133zM263 506h218q-8 22 -28 35t-53 13h-128z" />
    <glyph glyph-name="uni20B8" unicode="&#x20b8;" horiz-adv-x="572" 
d="M153 0l67 376h-193l23 130h524l-23 -130h-193l-67 -376h-138zM58 554l23 130h524l-23 -130h-524z" />
    <glyph glyph-name="uni20B9" unicode="&#x20b9;" horiz-adv-x="594" 
d="M50 506h339q-8 22 -29 35t-54 13h-248l23 130h546l-13 -76h-126q35 -46 40 -102h68l-14 -76h-59q-9 -44 -31.5 -75.5t-53.5 -53t-69 -33t-78 -14.5l-2 -10l187 -234l-2 -10h-186l-204 254l23 128h175q34 0 60 12t39 36h-345z" />
    <glyph glyph-name="uni20BA" unicode="&#x20ba;" horiz-adv-x="556" 
d="M31 398l123 69l38 217h138l-24 -136l132 75l-22 -124l-132 -75l-11 -66l132 76l-22 -124l-132 -76l-20 -110q59 8 100 45t50 92h133q-10 -58 -36.5 -106t-67 -82.5t-93.5 -53.5t-115 -19h-131l27 153l-122 -69l22 124l122 69l12 66l-123 -69z" />
    <glyph glyph-name="uni20BD" unicode="&#x20bd;" horiz-adv-x="623" 
d="M36 0l20 114h-75l14 76h75l11 62h-76l23 130h76l53 302h239q52 0 93.5 -14t70.5 -39.5t44.5 -62.5t15.5 -82q0 -57 -20.5 -100.5t-56 -73.5t-83 -45t-102.5 -15h-139l-11 -62h129l-14 -76h-129l-20 -114h-138zM375 382q21 0 41 5.5t35.5 17.5t25 30t9.5 42
q0 34 -21.5 55.5t-64.5 21.5h-128l-30 -172h133z" />
    <glyph glyph-name="uni2116" unicode="&#x2116;" horiz-adv-x="1101" 
d="M733 238l16 92h280l-16 -92h-280zM949 732q33 0 62 -10.5t50 -30t33 -47.5t12 -62q0 -42 -16 -77.5t-43 -61t-63.5 -39.5t-77.5 -14q-33 0 -60.5 10.5t-48 30.5t-32 47.5t-11.5 62.5q0 34 12 68.5t36.5 61.5t61 44t85.5 17zM921 486q34 0 57 23t23 62q0 29 -16.5 47
t-41.5 18q-40 0 -62 -26t-22 -61q0 -30 17.5 -46.5t44.5 -16.5zM135 716h172l188 -442h10l14 138l54 304h154l-127 -716h-156l-199 468h-10l-14 -138l-59 -330h-154z" />
    <glyph glyph-name="minus" unicode="&#x2212;" horiz-adv-x="578" 
d="M52 339h466l-24 -136h-466z" />
    <glyph glyph-name="uni2215" unicode="&#x2215;" horiz-adv-x="501" 
d="M-38 0l423 716h154l-424 -716h-153z" />
    <glyph glyph-name="uniF8FF" horiz-adv-x="1000" 
d="M891 451q4 -21 5.5 -42t1.5 -44q0 -89 -28.5 -163.5t-81 -128.5t-126 -84t-163.5 -30q-86 0 -162 32.5t-132.5 89t-89 132.5t-32.5 162t32.5 162t89 132.5t132.5 89t162 32.5q85 0 154.5 -28.5t123.5 -79.5l-119 -120q-65 62 -159 62q-51 0 -96 -20t-78 -54t-52.5 -79.5
t-19.5 -96.5t19.5 -96.5t52.5 -80t78 -54.5t96 -20q46 0 84 12.5t67 34.5t47.5 52.5t25.5 66.5h-224v161h392z" />
    <glyph glyph-name="one.numerator" horiz-adv-x="287" 
d="M127 350l45 252l-66 -27l-33 81l143 60h74l-65 -366h-98z" />
    <glyph glyph-name="two.denominator" horiz-adv-x="324" 
d="M-35 0l12 65q36 31 67 57q26 22 50 43q23 20 30 25q6 6 15 13q8 7 15.5 15t12.5 17t5 19q0 15 -9.5 24.5t-26.5 9.5q-36 0 -47 -43l-83 30q14 45 52 72t95 27q58 0 90 -29t32 -73q0 -18 -4.5 -33t-14 -28.5t-24 -27.5t-33.5 -31l-77 -66h126l-16 -86h-267z" />
    <glyph glyph-name="two.numerator" horiz-adv-x="324" 
d="M26 350l12 65q36 31 67 57q26 22 50 43q23 20 30 25q6 6 15 13q8 7 15.5 15t12.5 17t5 19q0 15 -9.5 24.5t-26.5 9.5q-36 0 -47 -43l-83 30q14 45 52 72t95 27q58 0 90 -29t32 -73q0 -18 -4.5 -33t-14 -28.5t-24 -27.5t-33.5 -31l-77 -66h126l-16 -86h-267z" />
    <glyph glyph-name="three.numerator" horiz-adv-x="341" 
d="M172 342q-49 0 -87 26.5t-47 74.5l84 31q8 -26 22.5 -37t35.5 -11q18 0 34 10t16 31q0 17 -13.5 26t-36.5 9h-37l14 76h33q22 0 38.5 7.5t16.5 26.5q0 13 -11 20.5t-24 7.5q-20 0 -32.5 -9.5t-18.5 -22.5l-80 35q19 36 54.5 58.5t91.5 22.5q52 0 85 -26.5t33 -66.5
q0 -33 -15.5 -53.5t-42.5 -34.5q19 -11 30.5 -29t11.5 -41q0 -29 -11.5 -53.5t-32 -41.5t-49 -26.5t-62.5 -9.5z" />
    <glyph glyph-name="four.denominator" horiz-adv-x="370" 
d="M-12 134l210 232h98l-40 -224h47l-14 -80h-47l-11 -62h-94l11 62h-173zM162 142l17 93h-10l-80 -93h73z" />
    <glyph glyph-name="four.numerator" horiz-adv-x="370" 
d="M50 484l210 232h98l-40 -224h47l-14 -80h-47l-11 -62h-94l11 62h-173zM224 492l17 93h-10l-80 -93h73z" />
    <glyph glyph-name="r.alt" horiz-adv-x="421" 
d="M79 490h140l-11 -62h10q26 32 62 54t90 22q19 0 30.5 -2t20.5 -5l-26 -145q-11 6 -25.5 10t-36.5 4q-63 0 -101.5 -39t-49.5 -102l-40 -225h-149z" />
    <glyph glyph-name="uni03BC" 
d="M77 490h150l-49 -275q-1 -4 -1.5 -11.5t-0.5 -13.5q0 -26 15.5 -46t48.5 -20q58 0 87.5 39.5t40.5 101.5l40 225h150l-86 -490h-140l11 62h-10q-26 -39 -57 -58.5t-80 -19.5q-16 0 -32 4.5t-27 11.5h-10v-69l-26 -147h-149z" />
    <glyph glyph-name="uni2103" horiz-adv-x="967" 
d="M891 104q-62 -66 -133.5 -93t-154.5 -27q-71 0 -129 23.5t-99.5 65t-64.5 98t-23 122.5q0 81 30 155t85 130t131.5 89t168.5 33q84 0 144.5 -27.5t105.5 -87.5l-118 -99q-28 35 -62 53.5t-92 18.5q-52 0 -96 -19.5t-76.5 -53.5t-50.5 -78.5t-18 -95.5q0 -85 46.5 -135.5
t131.5 -50.5q30 0 54.5 5.5t46.5 16t42 26.5t40 38zM179 526q21 0 35.5 14t14.5 36q0 17 -10.5 28.5t-29.5 11.5q-22 0 -36.5 -14.5t-14.5 -36.5q0 -18 12 -28.5t29 -10.5zM170 442q-24 0 -45.5 8t-38 23t-26 36t-9.5 47q0 32 11 58.5t30.5 45.5t46 29.5t58.5 10.5
q24 0 45.5 -8.5t38 -23.5t26 -36t9.5 -46q0 -32 -11 -58.5t-30.5 -45.5t-46.5 -29.5t-58 -10.5z" />
    <glyph glyph-name="uni2109" horiz-adv-x="843" 
d="M417 684h451l-25 -142h-301l-24 -137h271l-25 -142h-271l-47 -263h-150zM195 526q21 0 35.5 14t14.5 36q0 17 -10.5 28.5t-29.5 11.5q-22 0 -36.5 -14.5t-14.5 -36.5q0 -18 12 -28.5t29 -10.5zM186 442q-24 0 -45.5 8t-38 23t-26 36t-9.5 47q0 32 11 58.5t30.5 45.5
t46 29.5t58.5 10.5q24 0 45.5 -8.5t38 -23.5t26 -36t9.5 -46q0 -32 -11 -58.5t-30.5 -45.5t-46.5 -29.5t-58 -10.5z" />
    <glyph glyph-name="uni2190" horiz-adv-x="1143" 
d="M308 50l-260 260l260 260v-186h779v-148h-779v-186z" />
    <glyph glyph-name="uni2191" horiz-adv-x="600" 
d="M40 582l260 260l260 -260h-186v-740h-148v740h-186z" />
    <glyph glyph-name="uni2192" horiz-adv-x="1143" 
d="M835 236h-779v148h779v186l260 -260l-260 -260v186z" />
    <glyph glyph-name="uni2193" horiz-adv-x="600" 
d="M226 82v740h148v-740h186l-260 -260l-260 260h186z" />
    <glyph glyph-name="uni2196" horiz-adv-x="802" 
d="M40 368v368h368l-132 -132l526 -522l-105 -105l-525 523z" />
    <glyph glyph-name="uni2197" horiz-adv-x="802" 
d="M630 500l-525 -523l-105 105l526 522l-132 132h368v-368z" />
    <glyph glyph-name="uni2198" horiz-adv-x="802" 
d="M172 216l525 523l105 -105l-526 -522l132 -132h-368v368z" />
    <glyph glyph-name="uni2199" horiz-adv-x="802" 
d="M762 348v-368h-368l132 132l-526 522l105 105l525 -523z" />
    <glyph glyph-name="uni2639" horiz-adv-x="836" 
d="M287 395q-23 0 -39.5 16.5t-16.5 40.5q0 23 16.5 39t39.5 16t39.5 -16t16.5 -39q0 -24 -16.5 -40.5t-39.5 -16.5zM549 395q-23 0 -39.5 16.5t-16.5 40.5q0 23 16.5 39t39.5 16t39.5 -16t16.5 -39q0 -24 -16.5 -40.5t-39.5 -16.5zM418 -16q-77 0 -145 29.5t-119 80.5
t-80.5 119t-29.5 145t29.5 145t80.5 119t119 80.5t145 29.5t145 -29.5t119 -80.5t80.5 -119t29.5 -145t-29.5 -145t-80.5 -119t-119 -80.5t-145 -29.5zM418 48q64 0 120.5 24.5t98.5 67t66.5 99t24.5 119.5q0 64 -24.5 120.5t-66.5 98.5t-98.5 66.5t-120.5 24.5
q-63 0 -119.5 -24.5t-99 -66.5t-67 -98.5t-24.5 -120.5q0 -63 24.5 -119.5t67 -99t99 -67t119.5 -24.5zM418 301q63 0 113 -32.5t74 -86.5l-67 -31q-17 35 -49.5 55t-70.5 20t-70.5 -20t-48.5 -55l-68 31q24 54 74 86.5t113 32.5z" />
    <glyph glyph-name="uni263A" horiz-adv-x="836" 
d="M549 395q-23 0 -39.5 16.5t-16.5 40.5q0 23 16.5 39t39.5 16t39.5 -16t16.5 -39q0 -24 -16.5 -40.5t-39.5 -16.5zM287 395q-23 0 -39.5 16.5t-16.5 40.5q0 23 16.5 39t39.5 16t39.5 -16t16.5 -39q0 -24 -16.5 -40.5t-39.5 -16.5zM418 152q-63 0 -113 32.5t-74 86.5l68 31
q16 -35 48.5 -55t70.5 -20t70.5 20t49.5 55l67 -31q-24 -54 -74 -86.5t-113 -32.5zM418 -16q-77 0 -145 29.5t-119 80.5t-80.5 119t-29.5 145t29.5 145t80.5 119t119 80.5t145 29.5t145 -29.5t119 -80.5t80.5 -119t29.5 -145t-29.5 -145t-80.5 -119t-119 -80.5t-145 -29.5z
M418 48q64 0 120.5 24.5t98.5 67t66.5 99t24.5 119.5q0 64 -24.5 120.5t-66.5 98.5t-98.5 66.5t-120.5 24.5q-63 0 -119.5 -24.5t-99 -66.5t-67 -98.5t-24.5 -120.5q0 -63 24.5 -119.5t67 -99t99 -67t119.5 -24.5z" />
    <glyph glyph-name="uni2780" horiz-adv-x="836" 
d="M418 -16q-77 0 -145 29.5t-119 80.5t-80.5 119t-29.5 145t29.5 145t80.5 119t119 80.5t145 29.5t145 -29.5t119 -80.5t80.5 -119t29.5 -145t-29.5 -145t-80.5 -119t-119 -80.5t-145 -29.5zM140 358q0 -57 22 -108t59.5 -88.5t88.5 -59.5t108 -22t108 22t88.5 59.5
t59.5 88.5t22 108t-22 108t-59.5 88.5t-88.5 59.5t-108 22t-108 -22t-88.5 -59.5t-59.5 -88.5t-22 -108zM381 177v252l-68 -30l-37 85l129 59h74v-366h-98z" />
    <glyph glyph-name="uni2781" horiz-adv-x="836" 
d="M418 -16q-77 0 -145 29.5t-119 80.5t-80.5 119t-29.5 145t29.5 145t80.5 119t119 80.5t145 29.5t145 -29.5t119 -80.5t80.5 -119t29.5 -145t-29.5 -145t-80.5 -119t-119 -80.5t-145 -29.5zM140 358q0 -57 22 -108t59.5 -88.5t88.5 -59.5t108 -22t108 22t88.5 59.5
t59.5 88.5t22 108t-22 108t-59.5 88.5t-88.5 59.5t-108 22t-108 -22t-88.5 -59.5t-59.5 -88.5t-22 -108zM284 177v65l125 125q20 20 30 33.5t10 31.5q0 12 -9.5 22.5t-25.5 10.5q-18 0 -30.5 -11.5t-16.5 -35.5l-88 34q11 45 47.5 72t87.5 27q61 0 98 -30.5t37 -77.5
q0 -18 -6.5 -35t-16 -31.5t-20 -26.5t-19.5 -21l-66 -66h130v-86h-267z" />
    <glyph glyph-name="uni2782" horiz-adv-x="836" 
d="M418 -16q-77 0 -145 29.5t-119 80.5t-80.5 119t-29.5 145t29.5 145t80.5 119t119 80.5t145 29.5t145 -29.5t119 -80.5t80.5 -119t29.5 -145t-29.5 -145t-80.5 -119t-119 -80.5t-145 -29.5zM140 358q0 -57 22 -108t59.5 -88.5t88.5 -59.5t108 -22t108 22t88.5 59.5
t59.5 88.5t22 108t-22 108t-59.5 88.5t-88.5 59.5t-108 22t-108 -22t-88.5 -59.5t-59.5 -88.5t-22 -108zM418 169q-50 0 -90.5 24t-54.5 77l92 33q5 -28 20 -39t33 -11q17 0 29.5 10.5t12.5 28.5q0 17 -15 27t-40 10h-37v76h33q23 0 36 8t13 25q0 14 -10 21.5t-24 7.5
q-20 0 -32 -10t-16 -24l-86 35q13 36 47 59.5t90 23.5q28 0 51.5 -8.5t40 -22.5t25.5 -32.5t9 -37.5q0 -24 -9.5 -43.5t-32.5 -36.5q23 -12 39 -34.5t16 -49.5q0 -28 -11.5 -49.5t-31 -36.5t-45 -23t-52.5 -8z" />
    <glyph glyph-name="uni2783" horiz-adv-x="836" 
d="M418 -16q-77 0 -145 29.5t-119 80.5t-80.5 119t-29.5 145t29.5 145t80.5 119t119 80.5t145 29.5t145 -29.5t119 -80.5t80.5 -119t29.5 -145t-29.5 -145t-80.5 -119t-119 -80.5t-145 -29.5zM140 358q0 -57 22 -108t59.5 -88.5t88.5 -59.5t108 -22t108 22t88.5 59.5
t59.5 88.5t22 108t-22 108t-59.5 88.5t-88.5 59.5t-108 22t-108 -22t-88.5 -59.5t-59.5 -88.5t-22 -108zM245 311l169 232h98v-224h47v-80h-47v-62h-94v62h-173v72zM418 319v96h-10l-68 -96h78z" />
    <glyph glyph-name="uni2784" horiz-adv-x="836" 
d="M418 -16q-77 0 -145 29.5t-119 80.5t-80.5 119t-29.5 145t29.5 145t80.5 119t119 80.5t145 29.5t145 -29.5t119 -80.5t80.5 -119t29.5 -145t-29.5 -145t-80.5 -119t-119 -80.5t-145 -29.5zM140 358q0 -57 22 -108t59.5 -88.5t88.5 -59.5t108 -22t108 22t88.5 59.5
t59.5 88.5t22 108t-22 108t-59.5 88.5t-88.5 59.5t-108 22t-108 -22t-88.5 -59.5t-59.5 -88.5t-22 -108zM417 169q-22 0 -43 5t-39.5 16t-33 28t-22.5 42l86 34q5 -19 18 -30t32 -11q20 0 32.5 12.5t12.5 33.5t-12.5 33.5t-30.5 12.5t-30 -8.5t-18 -19.5l-79 36l22 189h224
v-78h-153l-11 -59q15 9 29.5 12.5t34.5 3.5q24 0 45.5 -8.5t38 -24.5t26 -39t9.5 -53t-11.5 -53.5t-30.5 -40t-44 -25t-52 -8.5z" />
    <glyph glyph-name="uni2785" horiz-adv-x="836" 
d="M418 -16q-77 0 -145 29.5t-119 80.5t-80.5 119t-29.5 145t29.5 145t80.5 119t119 80.5t145 29.5t145 -29.5t119 -80.5t80.5 -119t29.5 -145t-29.5 -145t-80.5 -119t-119 -80.5t-145 -29.5zM140 358q0 -57 22 -108t59.5 -88.5t88.5 -59.5t108 -22t108 22t88.5 59.5
t59.5 88.5t22 108t-22 108t-59.5 88.5t-88.5 59.5t-108 22t-108 -22t-88.5 -59.5t-59.5 -88.5t-22 -108zM414 169q-31 0 -56.5 10.5t-44 28.5t-28.5 41.5t-10 49.5q0 34 13 60.5t29 49.5q11 16 29 42q17 25 35 49q20 28 44 59l74 -54l-73 -91q8 4 19 4q19 0 38.5 -9t35 -25
t25 -38.5t9.5 -49.5q0 -26 -10.5 -49t-29.5 -40.5t-44 -27.5t-55 -10zM413 251q20 0 32 13t12 32t-12 32t-32 13t-32 -13t-12 -32t12 -32t32 -13z" />
    <glyph glyph-name="uni2786" horiz-adv-x="836" 
d="M418 -16q-77 0 -145 29.5t-119 80.5t-80.5 119t-29.5 145t29.5 145t80.5 119t119 80.5t145 29.5t145 -29.5t119 -80.5t80.5 -119t29.5 -145t-29.5 -145t-80.5 -119t-119 -80.5t-145 -29.5zM140 358q0 -57 22 -108t59.5 -88.5t88.5 -59.5t108 -22t108 22t88.5 59.5
t59.5 88.5t22 108t-22 108t-59.5 88.5t-88.5 59.5t-108 22t-108 -22t-88.5 -59.5t-59.5 -88.5t-22 -108zM303 205l149 249h-160v89h266v-85l-168 -296z" />
    <glyph glyph-name="uni2787" horiz-adv-x="836" 
d="M418 -16q-77 0 -145 29.5t-119 80.5t-80.5 119t-29.5 145t29.5 145t80.5 119t119 80.5t145 29.5t145 -29.5t119 -80.5t80.5 -119t29.5 -145t-29.5 -145t-80.5 -119t-119 -80.5t-145 -29.5zM140 358q0 -57 22 -108t59.5 -88.5t88.5 -59.5t108 -22t108 22t88.5 59.5
t59.5 88.5t22 108t-22 108t-59.5 88.5t-88.5 59.5t-108 22t-108 -22t-88.5 -59.5t-59.5 -88.5t-22 -108zM418 169q-27 0 -52 7.5t-44.5 22t-31.5 35.5t-12 49q0 29 14.5 51.5t37.5 35.5q-20 12 -30 32t-10 40q0 25 10 45t27.5 34.5t40.5 22t50 7.5t50 -7.5t40.5 -22
t27.5 -34.5t10 -45q0 -20 -10 -40t-30 -32q23 -13 37.5 -35.5t14.5 -51.5q0 -28 -12 -49.5t-31.5 -35.5t-44.5 -21.5t-52 -7.5zM418 405q14 0 24.5 9t10.5 24q0 14 -10 23.5t-25 9.5t-25 -8.5t-10 -24.5t10.5 -24.5t24.5 -8.5zM418 249q17 0 30.5 11.5t13.5 30.5
q0 18 -13.5 29.5t-30.5 11.5q-18 0 -31 -11t-13 -30t12.5 -30.5t31.5 -11.5z" />
    <glyph glyph-name="uni2788" horiz-adv-x="836" 
d="M418 -16q-77 0 -145 29.5t-119 80.5t-80.5 119t-29.5 145t29.5 145t80.5 119t119 80.5t145 29.5t145 -29.5t119 -80.5t80.5 -119t29.5 -145t-29.5 -145t-80.5 -119t-119 -80.5t-145 -29.5zM140 358q0 -57 22 -108t59.5 -88.5t88.5 -59.5t108 -22t108 22t88.5 59.5
t59.5 88.5t22 108t-22 108t-59.5 88.5t-88.5 59.5t-108 22t-108 -22t-88.5 -59.5t-59.5 -88.5t-22 -108zM415 551q31 0 56.5 -10.5t44 -28.5t28.5 -41.5t10 -49.5q0 -34 -13 -60.5t-29 -49.5q-11 -16 -29 -41q-19 -26 -36 -50q-21 -28 -43 -59l-74 54l73 91q-8 -4 -19 -4
q-19 0 -38.5 9t-35 25t-25 38.5t-9.5 49.5q0 26 10.5 49t29.5 40.5t44 27.5t55 10zM416 469q-20 0 -32 -13t-12 -32t12 -32t32 -13t32 13t12 32t-12 32t-32 13z" />
    <glyph glyph-name="uni278A" horiz-adv-x="836" 
d="M418 -16q-77 0 -145 29.5t-119 80.5t-80.5 119t-29.5 145t29.5 145t80.5 119t119 80.5t145 29.5t145 -29.5t119 -80.5t80.5 -119t29.5 -145t-29.5 -145t-80.5 -119t-119 -80.5t-145 -29.5zM479 177v366h-74l-129 -59l37 -85l68 30v-252h98z" />
    <glyph glyph-name="uni278B" horiz-adv-x="836" 
d="M418 -16q-77 0 -145 29.5t-119 80.5t-80.5 119t-29.5 145t29.5 145t80.5 119t119 80.5t145 29.5t145 -29.5t119 -80.5t80.5 -119t29.5 -145t-29.5 -145t-80.5 -119t-119 -80.5t-145 -29.5zM550 177v86h-130l66 66q9 9 19.5 21t20 26.5t16 31.5t6.5 35q0 47 -37 77.5
t-98 30.5q-51 0 -87.5 -27t-47.5 -72l88 -34q4 24 16.5 35.5t30.5 11.5q16 0 25.5 -10.5t9.5 -22.5q0 -18 -10 -31.5t-30 -33.5l-125 -125v-65h267z" />
    <glyph glyph-name="uni278C" horiz-adv-x="836" 
d="M418 -16q-77 0 -145 29.5t-119 80.5t-80.5 119t-29.5 145t29.5 145t80.5 119t119 80.5t145 29.5t145 -29.5t119 -80.5t80.5 -119t29.5 -145t-29.5 -145t-80.5 -119t-119 -80.5t-145 -29.5zM418 169q27 0 52.5 8t45 23t31 36.5t11.5 49.5q0 27 -18.5 50t-51.5 34
q23 8 40 30t17 52q0 20 -9 38t-25.5 31.5t-40 21.5t-51.5 8q-56 0 -88.5 -24t-45.5 -60l83 -34q4 14 16 25t32 11q14 0 24 -8.5t10 -22.5q0 -17 -13 -25t-36 -8h-33v-76h37q25 0 40 -10t15 -27q0 -18 -12.5 -28.5t-29.5 -10.5q-18 0 -33 11t-20 39l-92 -33q14 -53 54.5 -77
t90.5 -24z" />
    <glyph glyph-name="uni278D" horiz-adv-x="836" 
d="M418 -16q-77 0 -145 29.5t-119 80.5t-80.5 119t-29.5 145t29.5 145t80.5 119t119 80.5t145 29.5t145 -29.5t119 -80.5t80.5 -119t29.5 -145t-29.5 -145t-80.5 -119t-119 -80.5t-145 -29.5zM243 239h173v-62h94v62h47v80h-47v224h-98l-169 -232v-72zM338 319l68 96h10v-96
h-78z" />
    <glyph glyph-name="uni278E" horiz-adv-x="836" 
d="M418 -16q-77 0 -145 29.5t-119 80.5t-80.5 119t-29.5 145t29.5 145t80.5 119t119 80.5t145 29.5t145 -29.5t119 -80.5t80.5 -119t29.5 -145t-29.5 -145t-80.5 -119t-119 -80.5t-145 -29.5zM418 169q27 0 52 8.5t44 25t30.5 40t11.5 53.5t-9.5 53t-26 39t-37.5 24.5
t-44 8.5q-20 0 -39.5 -8.5t-29.5 -25.5l14 77h153v78h-224l-22 -189l79 -36q6 11 18 19.5t30 8.5t30.5 -12.5t12.5 -33.5t-12.5 -33.5t-32.5 -12.5q-19 0 -32 11t-18 30l-86 -34q8 -25 22.5 -42t33 -28t39.5 -16t43 -5z" />
    <glyph glyph-name="uni278F" horiz-adv-x="836" 
d="M418 -16q-77 0 -145 29.5t-119 80.5t-80.5 119t-29.5 145t29.5 145t80.5 119t119 80.5t145 29.5t145 -29.5t119 -80.5t80.5 -119t29.5 -145t-29.5 -145t-80.5 -119t-119 -80.5t-145 -29.5zM414 169q30 0 55 10t44 27.5t29.5 40.5t10.5 49q0 27 -9.5 49.5t-25 38.5t-35 25
t-38.5 9q-11 0 -19 -4l73 91l-74 54q-24 -31 -44 -59q-18 -24 -35 -49q-18 -26 -29 -42q-16 -23 -29 -49.5t-13 -60.5q0 -26 10 -49.5t28.5 -41.5t44 -28.5t56.5 -10.5zM413 251q-20 0 -32 13t-12 32t12 32t32 13t32 -13t12 -32t-12 -32t-32 -13z" />
    <glyph glyph-name="uni2790" horiz-adv-x="836" 
d="M418 -16q-77 0 -145 29.5t-119 80.5t-80.5 119t-29.5 145t29.5 145t80.5 119t119 80.5t145 29.5t145 -29.5t119 -80.5t80.5 -119t29.5 -145t-29.5 -145t-80.5 -119t-119 -80.5t-145 -29.5zM391 162l168 296v85h-266v-89h151l-140 -249z" />
    <glyph glyph-name="uni2791" horiz-adv-x="836" 
d="M418 -16q-77 0 -145 29.5t-119 80.5t-80.5 119t-29.5 145t29.5 145t80.5 119t119 80.5t145 29.5t145 -29.5t119 -80.5t80.5 -119t29.5 -145t-29.5 -145t-80.5 -119t-119 -80.5t-145 -29.5zM418 169q27 0 52 7.5t44.5 21.5t31.5 35.5t12 49.5q0 29 -15.5 51.5t-41.5 35.5
q22 12 33.5 32t11.5 40q0 25 -10 45t-27.5 34.5t-40.5 22t-50 7.5t-50 -7.5t-40.5 -22t-27.5 -34.5t-10 -45q0 -20 11.5 -40t33.5 -32q-26 -13 -41.5 -35.5t-15.5 -51.5q0 -28 12 -49t31.5 -35.5t44.5 -22t52 -7.5zM418 405q-14 0 -24.5 8.5t-10.5 24.5t10 24.5t25 8.5
t25 -9.5t10 -23.5q0 -15 -10.5 -24t-24.5 -9zM418 249q-19 0 -31.5 11.5t-12.5 30.5t13 30t31 11q17 0 30.5 -11.5t13.5 -29.5q0 -19 -13.5 -30.5t-30.5 -11.5z" />
    <glyph glyph-name="uni2792" horiz-adv-x="836" 
d="M418 -16q-77 0 -145 29.5t-119 80.5t-80.5 119t-29.5 145t29.5 145t80.5 119t119 80.5t145 29.5t145 -29.5t119 -80.5t80.5 -119t29.5 -145t-29.5 -145t-80.5 -119t-119 -80.5t-145 -29.5zM415 551q-30 0 -55 -10t-44 -27.5t-29.5 -40.5t-10.5 -49q0 -27 9.5 -49.5
t25 -38.5t35 -25t38.5 -9q11 0 19 4l-73 -91l74 -54q22 31 43 59q17 24 36 50q18 25 29 41q16 23 29 49.5t13 60.5q0 26 -10 49.5t-28.5 41.5t-44 28.5t-56.5 10.5zM416 469q20 0 32 -13t12 -32t-12 -32t-32 -13t-32 13t-12 32t12 32t32 13z" />
    <glyph glyph-name="Google.logo" horiz-adv-x="3284" 
d="M460 -16q-85 0 -160.5 32.5t-132.5 88t-90 130t-33 159.5t33 159.5t90 130t132.5 88t160.5 32.5q94 0 162.5 -32.5t118.5 -80.5l-79 -79q-36 34 -85.5 57t-116.5 23q-62 0 -115.5 -23.5t-93.5 -64t-62.5 -94.5t-22.5 -116t22.5 -116t62.5 -94.5t93.5 -64t115.5 -23.5
q40 0 72 7.5t57 19t44 26t34 29.5q49 49 61 141h-268v112h377q6 -30 6 -70q0 -32 -5 -66t-16 -68.5t-29.5 -67t-46.5 -60.5q-54 -57 -124 -86t-162 -29zM1148 -16q-55 0 -103 20t-84 55t-57 83.5t-21 105.5t21 105.5t57 84t84 55t103 19.5t103 -19.5t84 -55t57 -84
t21 -105.5t-21 -105.5t-57 -83.5t-84 -55t-103 -20zM1148 88q30 0 57 12t47.5 33t32.5 50.5t12 64.5q0 36 -12 65.5t-32.5 50.5t-47.5 32.5t-57 11.5t-57 -11.5t-47.5 -32.5t-32.5 -50.5t-12 -65.5q0 -35 12 -64.5t32.5 -50.5t47.5 -33t57 -12zM1726 -16q-55 0 -103 20
t-84 55t-57 83.5t-21 105.5t21 105.5t57 84t84 55t103 19.5t103 -19.5t84 -55t57 -84t21 -105.5t-21 -105.5t-57 -83.5t-84 -55t-103 -20zM1726 88q30 0 57 12t47.5 33t32.5 50.5t12 64.5q0 36 -12 65.5t-32.5 50.5t-47.5 32.5t-57 11.5t-57 -11.5t-47.5 -32.5t-32.5 -50.5
t-12 -65.5q0 -35 12 -64.5t32.5 -50.5t47.5 -33t57 -12zM2294 -253q-48 0 -86.5 14.5t-67.5 37t-49 50.5t-31 54l101 42q7 -16 18.5 -33t28 -30.5t38 -22t48.5 -8.5q66 0 103.5 39.5t37.5 115.5v38h-4q-20 -24 -55.5 -42t-83.5 -18q-50 0 -95.5 20.5t-80.5 55.5t-56 83
t-21 104t21 104.5t56 84t80.5 56t95.5 20.5q48 0 83.5 -18t55.5 -41h4v43h110v-474q0 -73 -20 -125t-54.5 -85.5t-80 -49t-96.5 -15.5zM2302 88q30 0 55.5 12t44.5 33t30 50t11 64t-11 64.5t-30 51t-44.5 33.5t-55.5 12t-56.5 -12t-47 -33.5t-32 -51t-11.5 -64.5t11.5 -64
t32 -50t47 -33t56.5 -12zM2741 0h-116v776h116v-776zM3059 -16q-56 0 -104 20.5t-83 56t-55 83.5t-20 104q0 59 20 107.5t53.5 83.5t79 54t96.5 19t90 -18t66.5 -44t44.5 -55t25 -51l12 -30l-353 -146q41 -80 128 -80q45 0 76 20t54 53l90 -60q-11 -16 -29.5 -36.5
t-46 -38.5t-63.5 -30t-81 -12zM3148 354q-10 25 -36.5 40.5t-61.5 15.5q-22 0 -47 -9.5t-45.5 -29t-33.5 -48.5t-12 -67z" />
    </font>
</defs>
</svg>
