<?xml version="1.0" standalone="no"?>
<!DOCTYPE svg PUBLIC "-//W3C//DTD SVG 1.1//EN" "http://www.w3.org/Graphics/SVG/1.1/DTD/svg11.dtd" >
<svg xmlns="http://www.w3.org/2000/svg" xmlns:xlink="http://www.w3.org/1999/xlink" version="1.1">
<metadata>
Created by FontForge 20170731 at Mon Sep  3 20:54:16 2018
 By Aleksey,,,
</metadata>
<defs>
<font id="ProductSans-Bold" horiz-adv-x="574" >
  <font-face 
    font-family="Product Sans"
    font-weight="700"
    font-stretch="normal"
    units-per-em="1000"
    panose-1="2 11 7 3 3 5 2 4 2 3"
    ascent="800"
    descent="-200"
    x-height="490"
    cap-height="716"
    bbox="-176 -285 3284 964"
    underline-thickness="50"
    underline-position="-325"
    unicode-range="U+000D-2215"
  />
<missing-glyph horiz-adv-x="570" 
d="M72 716h426v-716h-426v716zM136 60h298v596h-298v-596z" />
    <glyph glyph-name="f_i" unicode="fi" horiz-adv-x="623" 
d="M243 0h-131v378h-88v112h88v48q0 45 13.5 79.5t38.5 58t59 36t75 12.5q20 0 32 -2t23 -6l-8 -123q-7 3 -16 5t-23 2q-29 0 -46 -18.5t-17 -51.5v-40h316v-490h-131v378h-185v-378zM493 561q-17 0 -32.5 6.5t-27 18t-18 26.5t-6.5 33t6.5 33t18 26.5t27 18t32.5 6.5
q35 0 60 -24.5t25 -59.5t-25 -59.5t-60 -24.5z" />
    <glyph glyph-name="f_l" unicode="fl" horiz-adv-x="615" 
d="M428 0v599h-116q-32 0 -50.5 -19.5t-18.5 -56.5v-33h115v-112h-115v-378h-131v378h-88v112h88v31q0 97 51 148t148 51h248v-720h-131z" />
    <glyph glyph-name="f_b" unicode="fb" horiz-adv-x="972" 
d="M428 599h-116q-32 0 -50.5 -20t-18.5 -57v-32h115v-112h-115v-378h-131v378h-88v112h88v31q0 97 51 148t148 51h248v-219l-8 -70h8q18 31 56 53t94 22q47 0 89.5 -19.5t75 -54t51.5 -82.5t19 -105t-19 -105t-51.5 -82.5t-75 -54t-89.5 -19.5q-56 0 -94 22t-56 53h-8v-59
h-123v599zM682 105q26 0 49.5 10t41.5 28t29 44t11 58t-11 58t-29 44t-41.5 28t-49.5 10t-49.5 -9.5t-41.5 -27.5t-29 -44t-11 -59t11 -59t29 -44t41.5 -27.5t49.5 -9.5z" />
    <glyph glyph-name="f_f" unicode="ff" horiz-adv-x="713" 
d="M614 724q28 0 52 -5t43 -13l-37 -117q-10 5 -21.5 8t-28.5 3q-29 0 -46 -19t-17 -52v-39h122v-112h-122v-378h-131v378h-185v-378h-131v378h-88v112h88v48q0 45 13.5 79.5t38.5 58t59 36t75 12.5q20 0 32 -2t23 -6l-8 -123q-7 3 -16 5t-23 2q-29 0 -46 -19t-17 -52v-39
h185v48q0 45 13.5 79.5t38.5 58t59 36t75 12.5z" />
    <glyph glyph-name="f_f_b" unicode="ffb" horiz-adv-x="1288" 
d="M744 599h-116q-32 0 -50.5 -20t-18.5 -57v-32h115v-112h-115v-378h-131v378h-185v-378h-131v378h-88v112h88v48q0 45 13.5 79.5t38.5 58t59 36t75 12.5q20 0 32 -2t23 -6l-8 -123q-7 3 -16 5t-23 2q-29 0 -46 -19t-17 -52v-39h185v31q0 97 51.5 148t148.5 51h247v-219
l-8 -70h8q18 31 56 53t94 22q47 0 89.5 -19.5t75 -54t51.5 -82.5t19 -105t-19 -105t-51.5 -82.5t-75 -54t-89.5 -19.5q-56 0 -94 22t-56 53h-8v-59h-123v599zM998 105q26 0 49.5 10t41.5 28t29 44t11 58t-11 58t-29 44t-41.5 28t-49.5 10t-49.5 -9.5t-41.5 -27.5t-29 -44
t-11 -59t11 -59t29 -44t41.5 -27.5t49.5 -9.5z" />
    <glyph glyph-name="f_f_h" unicode="ffh" horiz-adv-x="1262" 
d="M112 378h-88v112h88v48q0 45 13.5 79.5t38.5 58t59 36t75 12.5q20 0 32 -2t23 -6l-8 -123q-7 3 -16 5t-23 2q-29 0 -46 -19t-17 -52v-39h185v31q0 97 51 148t148 51h248v-241l-8 -69h8q18 45 59 70.5t92 25.5q47 0 82 -15t57.5 -43t33.5 -66.5t11 -84.5v-297h-131v281
q0 51 -24 77.5t-67 26.5q-27 0 -48 -11.5t-35.5 -31.5t-22 -46.5t-7.5 -56.5v-239h-131v599h-116q-32 0 -50.5 -20t-18.5 -57v-32h114v-112h-114v-378h-131v378h-185v-378h-131v378z" />
    <glyph glyph-name="f_f_i" unicode="ffi" horiz-adv-x="939" 
d="M559 0h-131v378h-185v-378h-131v378h-88v112h88v48q0 45 13.5 79.5t38.5 58t59 36t75 12.5q20 0 32 -2t23 -6l-8 -123q-7 3 -16 5t-23 2q-29 0 -46 -19t-17 -52v-39h185v48q0 45 13.5 79.5t38.5 58t59 36t75 12.5q20 0 32 -2t23 -6l-8 -123q-7 3 -16 5t-23 2
q-29 0 -46 -19t-17 -52v-39h316v-490h-131v378h-185v-378zM809 561q-17 0 -32.5 6.5t-27 18t-18 26.5t-6.5 33t6.5 33t18 26.5t27 18t32.5 6.5q35 0 60 -24.5t25 -59.5t-25 -59.5t-60 -24.5z" />
    <glyph glyph-name="f_f_j" unicode="ffj" horiz-adv-x="939" 
d="M559 0h-131v378h-185v-378h-131v378h-88v112h88v48q0 45 13.5 79.5t38.5 58t59 36t75 12.5q20 0 32 -2t23 -6l-8 -123q-7 3 -16 5t-23 2q-29 0 -46 -19t-17 -52v-39h185v48q0 45 13.5 79.5t38.5 58t59 36t75 12.5q20 0 32 -2t23 -6l-8 -123q-7 3 -16 5t-23 2
q-29 0 -46 -19t-17 -52v-39h316v-540q0 -48 -13 -81.5t-35 -54.5t-51 -30.5t-62 -9.5q-25 0 -45 3.5t-37 10.5l33 116q8 -5 15.5 -7t18.5 -2q45 0 45 59v424h-185v-378zM809 561q-17 0 -32.5 6.5t-27 18t-18 26.5t-6.5 33t6.5 33t18 26.5t27 18t32.5 6.5q35 0 60 -24.5
t25 -59.5t-25 -59.5t-60 -24.5z" />
    <glyph glyph-name="f_f_k" unicode="ffk" horiz-adv-x="1218" 
d="M744 599h-116q-32 0 -50.5 -20t-18.5 -57v-32h114v-112h-114v-378h-131v378h-185v-378h-131v378h-88v112h88v48q0 45 13.5 79.5t38.5 58t59 36t75 12.5q20 0 32 -2t23 -6l-8 -123q-7 3 -16 5t-23 2q-29 0 -46 -19t-17 -52v-39h185v31q0 97 51 148t148 51h248v-394h6
l164 164h162v-8l-182 -177l197 -297v-8h-155l-134 215l-58 -57v-158h-131v599z" />
    <glyph glyph-name="f_f_l" unicode="ffl" horiz-adv-x="931" 
d="M673 490v-112h-114v-378h-131v378h-185v-378h-131v378h-88v112h88v48q0 45 13.5 79.5t38.5 58t59 36t75 12.5q20 0 32 -2t23 -6l-8 -123q-7 3 -16 5t-23 2q-29 0 -46 -18.5t-17 -51.5v-40h185v31q0 97 51 148t148 51h248v-720h-131v599h-116q-32 0 -50.5 -19.5
t-18.5 -56.5v-33h114z" />
    <glyph glyph-name="f_f_t" unicode="fft" horiz-adv-x="1035" 
d="M744 378h-185v-378h-131v378h-185v-378h-131v378h-88v112h88v48q0 45 13.5 79.5t38.5 58t59 36t75 12.5q20 0 32 -2t23 -6l-8 -123q-7 3 -16 5t-23 2q-29 0 -46 -19t-17 -52v-39h185v48q0 45 13.5 79.5t38.5 58t59 36t75 12.5q20 0 32 -2t23 -6l-8 -123q-7 3 -16 5t-23 2
q-29 0 -46 -19t-17 -52v-39h185v150h131v-150h120v-112h-120v-190q0 -17 3.5 -31.5t13.5 -24.5q14 -16 40 -16q17 0 27 3.5t19 9.5l37 -115q-23 -11 -49.5 -16.5t-58.5 -5.5q-37 0 -66.5 11.5t-49.5 31.5q-47 45 -47 128v215z" />
    <glyph glyph-name="f_h" unicode="fh" horiz-adv-x="946" 
d="M428 599h-116q-32 0 -50.5 -20t-18.5 -57v-32h114v-112h-114v-378h-131v378h-88v112h88v31q0 97 51 148t148 51h248v-241l-8 -69h8q18 45 59 70.5t92 25.5q47 0 82 -15t57.5 -43t33.5 -66.5t11 -84.5v-297h-131v281q0 51 -24 77.5t-67 26.5q-27 0 -48 -11.5t-35.5 -31.5
t-22 -46.5t-7.5 -56.5v-239h-131v599z" />
    <glyph glyph-name="f_j" unicode="fj" horiz-adv-x="623" 
d="M112 378h-88v112h88v48q0 45 13.5 79.5t38.5 58t59 36t75 12.5q20 0 32 -2t23 -6l-8 -123q-7 3 -16 5t-23 2q-29 0 -46 -18.5t-17 -51.5v-40h316v-540q0 -48 -13 -81.5t-35 -54.5t-51 -30.5t-62 -9.5q-25 0 -45 3.5t-37 10.5l33 116q8 -5 15.5 -7t18.5 -2q45 0 45 59v424
h-185v-378h-131v378zM493 561q-17 0 -32.5 6.5t-27 18t-18 26.5t-6.5 33t6.5 33t18 26.5t27 18t32.5 6.5q35 0 60 -24.5t25 -59.5t-25 -59.5t-60 -24.5z" />
    <glyph glyph-name="f_k" unicode="fk" horiz-adv-x="902" 
d="M428 599h-116q-32 0 -50.5 -20t-18.5 -57v-32h114v-112h-114v-378h-131v378h-88v112h88v31q0 97 51 148t148 51h248v-394h6l164 164h162v-8l-182 -177l197 -297v-8h-155l-134 215l-58 -57v-158h-131v599z" />
    <glyph glyph-name="f_t" unicode="ft" horiz-adv-x="719" 
d="M428 378h-185v-378h-131v378h-88v112h88v48q0 45 13.5 79.5t38.5 58t59 36t75 12.5q20 0 32 -2t23 -6l-8 -123q-7 3 -16 5t-23 2q-29 0 -46 -19t-17 -52v-39h185v150h131v-150h120v-112h-120v-190q0 -17 3.5 -31.5t13.5 -24.5q14 -16 40 -16q17 0 27 3.5t19 9.5l37 -115
q-23 -11 -49.5 -16.5t-58.5 -5.5q-37 0 -66.5 11.5t-49.5 31.5q-47 45 -47 128v215z" />
    <glyph glyph-name="r_f" unicode="rf" horiz-adv-x="809" 
d="M179 422h8q20 37 58.5 59.5t85.5 22.5q17 0 27 -1t19 -4v-130q-11 5 -24.5 8t-32.5 3q-62 0 -97.5 -37.5t-35.5 -102.5v-240h-131v490h123v-68zM710 724q28 0 52 -5t43 -13l-37 -117q-10 5 -21.5 8t-28.5 3q-29 0 -46 -18.5t-17 -51.5v-40h122v-112h-122v-378h-131v378
h-88v112h88v48q0 45 13.5 79.5t38.5 58t59 36t75 12.5z" />
    <glyph glyph-name="r_f_f" unicode="rff" horiz-adv-x="1125" 
d="M1026 724q28 0 52 -5t43 -13l-37 -117q-10 5 -21.5 8t-28.5 3q-29 0 -46 -18.5t-17 -51.5v-40h122v-112h-122v-378h-131v378h-185v-378h-131v378h-88v112h88v48q0 45 13.5 79.5t38.5 58t59 36t75 12.5q20 0 36 -2.5t30 -7.5l-8 -125q-11 5 -22 8t-28 3q-29 0 -46 -18.5
t-17 -51.5v-40h185v48q0 45 13.5 79.5t38.5 58t59 36t75 12.5zM179 422h8q20 37 58.5 59.5t85.5 22.5q17 0 27 -1t19 -4v-130q-11 5 -24.5 8t-32.5 3q-62 0 -97.5 -37.5t-35.5 -102.5v-240h-131v490h123v-68z" />
    <glyph glyph-name="r_t" unicode="rt" horiz-adv-x="813" 
d="M179 422h8q20 37 58.5 59.5t85.5 22.5q17 0 27 -1t19 -4v-130q-11 5 -24.5 8t-32.5 3q-62 0 -97.5 -37.5t-35.5 -102.5v-240h-131v490h123v-68zM522 378h-86v112h86v150h131v-150h120v-112h-120v-190q0 -17 3.5 -31.5t13.5 -24.5q14 -16 40 -16q17 0 27 3.5t19 9.5
l37 -115q-23 -11 -49.5 -16.5t-58.5 -5.5q-37 0 -66.5 11.5t-49.5 31.5q-47 45 -47 128v215z" />
    <glyph glyph-name="t_f" unicode="tf" horiz-adv-x="711" 
d="M612 724q28 0 52 -5t43 -13l-37 -117q-10 5 -21.5 8t-28.5 3q-29 0 -46 -19t-17 -52v-39h122v-112h-122v-378h-131v378h-185v-190q0 -17 3.5 -31.5t13.5 -24.5q14 -16 40 -16q14 0 24 3t22 8l9 -123q-20 -7 -37.5 -9.5t-42.5 -2.5q-37 0 -66.5 11.5t-49.5 31.5
q-47 45 -47 128v215h-86v112h86v150h131v-150h185v48q0 45 13.5 79.5t38.5 58t59 36t75 12.5z" />
    <glyph glyph-name="t_t" unicode="tt" horiz-adv-x="720" 
d="M241 188q0 -17 3.5 -31.5t13.5 -24.5q14 -16 40 -16q14 0 24 3t22 8l9 -123q-20 -7 -37.5 -9.5t-42.5 -2.5q-37 0 -66.5 11.5t-49.5 31.5q-47 45 -47 128v215h-86v112h86v150h131v-150h188v150h131v-150h120v-112h-120v-190q0 -17 3.5 -31.5t13.5 -24.5q14 -16 40 -16
q17 0 27 3.5t19 9.5l37 -115q-23 -11 -49.5 -16.5t-58.5 -5.5q-37 0 -66.5 11.5t-49.5 31.5q-47 45 -47 128v215h-188v-190z" />
    <glyph glyph-name=".notdef" horiz-adv-x="570" 
d="M72 716h426v-716h-426v716zM136 60h298v596h-298v-596z" />
    <glyph glyph-name=".null" horiz-adv-x="0" 
 />
    <glyph glyph-name="uni000D" horiz-adv-x="0" 
d="M0 0z" />
    <glyph glyph-name="NULL" horiz-adv-x="0" 
d="M0 0z" />
    <glyph glyph-name="NULL" horiz-adv-x="0" 
d="M0 0z" />
    <glyph glyph-name="nonmarkingreturn" unicode="&#xd;" horiz-adv-x="333" 
 />
    <glyph glyph-name="space" unicode=" " horiz-adv-x="220" 
d="M0 0z" />
    <glyph glyph-name="exclam" unicode="!" horiz-adv-x="269" 
d="M135 -6q-36 0 -61.5 25.5t-25.5 61.5t25.5 61t61.5 25t61 -25t25 -61t-25 -61.5t-61 -25.5zM67 510v206h135v-206l-14 -264h-107z" />
    <glyph glyph-name="quotedbl" unicode="&#x22;" horiz-adv-x="379" 
d="M216 490v226h119v-226h-119zM44 490v226h119v-226h-119z" />
    <glyph glyph-name="numbersign" unicode="#" horiz-adv-x="657" 
d="M110 0l29 192h-116l17 102h114l15 105h-116l16 102h115l28 183h111l-28 -183h112l28 183h110l-27 -183h115l-16 -102h-114l-16 -105h117l-16 -102h-116l-29 -192h-110l28 192h-112l-28 -192h-111zM262 292h116l17 109h-116z" />
    <glyph glyph-name="dollar" unicode="$" horiz-adv-x="559" 
d="M241 -13q-75 11 -133.5 58t-83.5 135l115 47q10 -40 37 -71.5t65 -43.5v190l-9 4q-37 14 -69.5 33t-57 44t-39 56.5t-14.5 70.5q0 36 13 68t37.5 57t59.5 41.5t79 21.5v86h89v-88q40 -6 69.5 -21t51 -34.5t34.5 -41.5t20 -43l-112 -50q-7 20 -22 38t-41 29v-179
q43 -18 78 -37t60 -43t38 -54.5t13 -70.5q0 -45 -15.5 -80t-41.5 -60t-60.5 -40t-71.5 -21v-88h-89v87zM175 510q0 -24 15.5 -41.5t50.5 -35.5v146q-30 -8 -48 -26t-18 -43zM391 188q0 26 -14 43t-47 34v-153q27 9 44 28.5t17 47.5z" />
    <glyph glyph-name="percent" unicode="%" horiz-adv-x="841" 
d="M32 529q0 35 13.5 66t37 54.5t55.5 37t70 13.5t70.5 -13.5t56 -37t37 -54.5t13.5 -66t-13.5 -66.5t-37 -54.5t-56 -36.5t-70.5 -13.5t-70 13.5t-55.5 36.5t-37 54.5t-13.5 66.5zM139 529q0 -33 20 -53t49 -20t49 20t20 53t-20 53t-49 20t-49 -20t-20 -53zM159 37l444 663
l79 -53l-444 -663zM456 155q0 35 13.5 66t37 54.5t55.5 37t70 13.5t70.5 -13.5t56 -37t37 -54.5t13.5 -66t-13.5 -66.5t-37 -54.5t-56 -36.5t-70.5 -13.5t-70 13.5t-55.5 36.5t-37 54.5t-13.5 66.5zM563 155q0 -33 20 -53t49 -20t49 20t20 53t-20 53t-49 20t-49 -20t-20 -53
z" />
    <glyph glyph-name="ampersand" unicode="&#x26;" horiz-adv-x="647" 
d="M545 147l75 -90l-95 -73l-52 63q-71 -63 -171 -63q-56 0 -104.5 18.5t-84.5 52t-56.5 79.5t-20.5 101q0 60 29.5 114t82.5 92q-19 26 -31 54t-12 59q0 37 13.5 69.5t38.5 56.5t59 38t75 14q72 0 115.5 -33.5t62.5 -84.5l-106 -56q-8 24 -25 41.5t-45 17.5q-29 0 -46 -17
t-17 -43q0 -16 7 -29.5t19 -28.5l215 -262l59 96l95 -60zM308 102q56 0 92 33l-181 219q-28 -21 -43 -51.5t-15 -62.5t12 -57.5t32.5 -43.5t47 -27.5t55.5 -9.5z" />
    <glyph glyph-name="quotesingle" unicode="'" horiz-adv-x="207" 
d="M44 490v226h119v-226h-119z" />
    <glyph glyph-name="parenleft" unicode="(" horiz-adv-x="359" 
d="M339 712q-65 -81 -104.5 -178t-39.5 -212t39.5 -212t104.5 -178l-99 -68q-30 33 -61.5 81t-57 107t-41.5 127.5t-16 142.5t16 142.5t41.5 127.5t57 107t61.5 81z" />
    <glyph glyph-name="parenright" unicode=")" horiz-adv-x="359" 
d="M119 780q30 -33 61 -81t56.5 -107t42 -127.5t16.5 -142.5t-16.5 -142.5t-42 -127.5t-56.5 -107t-61 -81l-99 68q65 81 104.5 178t39.5 212t-39.5 212t-104.5 178z" />
    <glyph glyph-name="asterisk" unicode="*" horiz-adv-x="464" 
d="M71 636l105 -37l9 3v114h94v-114l8 -3l106 37l31 -89l-107 -38l-3 -9l72 -98l-76 -55l-74 100h-8l-74 -100l-76 55l72 98l-3 9l-107 38z" />
    <glyph glyph-name="plus" unicode="+" horiz-adv-x="569" 
d="M342 329h171v-116h-171v-170h-116v170h-170v116h170v170h116v-170z" />
    <glyph glyph-name="comma" unicode="," horiz-adv-x="271" 
d="M44 -89l59 91q-22 8 -37.5 29t-15.5 50q0 36 25.5 61t61.5 25t61 -25t25 -61q0 -19 -6 -33.5t-19 -33.5l-95 -142z" />
    <glyph glyph-name="hyphen" unicode="-" horiz-adv-x="451" 
d="M56 368h339v-116h-339v116z" />
    <glyph glyph-name="period" unicode="." horiz-adv-x="269" 
d="M135 -6q-36 0 -61.5 25.5t-25.5 61.5t25.5 61t61.5 25t61 -25t25 -61t-25 -61.5t-61 -25.5z" />
    <glyph glyph-name="slash" unicode="/" horiz-adv-x="480" 
d="M27 0l297 716h129l-297 -716h-129z" />
    <glyph glyph-name="zero" unicode="0" horiz-adv-x="662" 
d="M331 -16q-66 0 -119 27.5t-90.5 75.5t-57.5 113.5t-20 141.5t20 141.5t57.5 113.5t90.5 75.5t119 27.5t119 -27.5t90.5 -75.5t57.5 -113.5t20 -141.5t-20 -141.5t-57.5 -113.5t-90.5 -75.5t-119 -27.5zM331 108q36 0 65 17.5t49.5 49t31 74.5t10.5 93q0 51 -10.5 93.5
t-31 74t-49.5 49t-65 17.5q-37 0 -66 -17.5t-49 -49t-30.5 -74t-10.5 -93.5q0 -50 10.5 -93t30.5 -74.5t49 -49t66 -17.5z" />
    <glyph glyph-name="one" unicode="1" horiz-adv-x="424" 
d="M209 0v530l-121 -51l-48 111l201 94h99v-684h-131z" />
    <glyph glyph-name="two" unicode="2" horiz-adv-x="545" 
d="M46 0v119q59 58 109 108l43 43l41 41t34 34.5t23 24.5q16 19 28.5 34t20 29.5t11.5 29t4 31.5q0 33 -26 57.5t-71 24.5t-70 -25.5t-34 -57.5l-119 49q8 27 26 55.5t46 51t66.5 37t86.5 14.5q52 0 94 -15.5t71 -42.5t45 -63.5t16 -78.5q0 -64 -31.5 -117.5t-76.5 -99.5
l-86 -86q-34 -34 -77 -76l4 -6h277v-115h-455z" />
    <glyph glyph-name="three" unicode="3" horiz-adv-x="560" 
d="M281 -16q-42 0 -80.5 11t-70.5 33.5t-56.5 56.5t-37.5 79l123 49q13 -50 44 -75.5t78 -25.5q21 0 40 6.5t33 18.5t22.5 28.5t8.5 37.5q0 44 -32.5 69t-89.5 25h-59v119h54q20 0 39 5t33.5 15.5t23 27t8.5 38.5q0 34 -24 55.5t-65 21.5q-44 0 -67.5 -23.5t-32.5 -52.5
l-120 49q9 25 27 51.5t45.5 48t64.5 35t85 13.5q49 0 89.5 -14t69.5 -38.5t45 -58t16 -72.5q0 -30 -7.5 -54t-19.5 -43t-27.5 -32.5t-31.5 -21.5v-8q48 -19 79.5 -61t31.5 -106q0 -45 -17 -82.5t-48.5 -65.5t-75.5 -43.5t-98 -15.5z" />
    <glyph glyph-name="four" unicode="4" horiz-adv-x="616" 
d="M356 0v126h-316v106l304 452h142v-436h86v-122h-86v-126h-130zM356 489h-8l-163 -241h171v241z" />
    <glyph glyph-name="five" unicode="5" 
d="M283 -16q-39 0 -77.5 11t-71.5 34t-57.5 57.5t-36.5 82.5l119 46q11 -50 42.5 -80t80.5 -30q24 0 44.5 8.5t36 23.5t24 35.5t8.5 45.5q0 24 -8.5 44.5t-23.5 36t-35.5 24t-45.5 8.5q-31 0 -55 -13.5t-41 -33.5l-127 58l40 342h385v-115h-276l-26 -160l8 -2q20 17 49 29
t70 12q43 0 82 -16.5t69 -46.5t48 -72.5t18 -94.5q0 -51 -18 -94t-50.5 -74t-77 -48.5t-97.5 -17.5z" />
    <glyph glyph-name="six" unicode="6" horiz-adv-x="568" 
d="M322 440q39 0 76 -16.5t66 -45.5t46.5 -70t17.5 -90q0 -51 -20 -94t-53.5 -74t-77 -48.5t-91.5 -17.5q-56 0 -101 19.5t-77.5 52t-50 76t-17.5 91.5q0 69 27.5 126.5t69.5 117.5l166 237l101 -70l-140 -198l5 -6q23 10 53 10zM284 105q22 0 43 8t37 23t25.5 35.5
t9.5 45.5t-9.5 46t-25.5 36t-37 23t-43 8q-23 0 -43.5 -8t-37 -23t-26 -36t-9.5 -46t9.5 -45.5t26 -35.5t37 -23t43.5 -8z" />
    <glyph glyph-name="seven" unicode="7" horiz-adv-x="546" 
d="M73 45l285 509l-3 6h-315l2 124h464v-130l-323 -570z" />
    <glyph glyph-name="eight" unicode="8" horiz-adv-x="576" 
d="M288 -16q-55 0 -100.5 16t-78.5 43.5t-51 65t-18 81.5q0 30 8.5 56t23 47t33.5 37t40 27v8q-33 22 -57.5 58t-24.5 84q0 41 17 76.5t47 61.5t71 40.5t90 14.5t90 -14.5t71 -40.5t47 -61.5t17 -76.5q0 -48 -24.5 -84t-57.5 -58v-8q21 -11 40 -27t33.5 -37t23 -47t8.5 -56
q0 -44 -18 -81.5t-51 -65t-78.5 -43.5t-100.5 -16zM288 414q42 0 70 23.5t28 61.5q0 39 -28 61.5t-70 22.5t-70 -22.5t-28 -61.5q0 -38 28 -61.5t70 -23.5zM288 105q51 0 84 26.5t33 71.5q0 21 -9 38.5t-24.5 30.5t-37 20t-46.5 7t-46.5 -7t-37 -20t-24.5 -30.5t-9 -38.5
q0 -45 33 -71.5t84 -26.5z" />
    <glyph glyph-name="nine" unicode="9" horiz-adv-x="568" 
d="M246 245q-39 0 -76 16t-66 45.5t-46.5 70t-17.5 89.5q0 51 20 94.5t53.5 74.5t77 48.5t91.5 17.5q55 0 100.5 -19.5t78 -52t50 -76t17.5 -91.5q0 -69 -27.5 -126.5t-69.5 -117.5l-166 -237l-101 69l140 199l-5 6q-23 -10 -53 -10zM284 580q-23 0 -43.5 -8t-36.5 -23
t-25.5 -35.5t-9.5 -45.5q0 -26 9.5 -46.5t25.5 -35.5t36.5 -23t43.5 -8q22 0 43 8t37.5 23t26 35.5t9.5 46.5q0 25 -9.5 45.5t-26 35.5t-37.5 23t-43 8z" />
    <glyph glyph-name="colon" unicode=":" horiz-adv-x="269" 
d="M135 -6q-36 0 -61.5 25.5t-25.5 61.5t25.5 61t61.5 25t61 -25t25 -61t-25 -61.5t-61 -25.5zM135 329q-36 0 -61.5 25.5t-25.5 61.5t25.5 61.5t61.5 25.5t61 -25.5t25 -61.5t-25 -61.5t-61 -25.5z" />
    <glyph glyph-name="semicolon" unicode=";" horiz-adv-x="271" 
d="M137 329q-36 0 -61.5 25.5t-25.5 61.5t25.5 61.5t61.5 25.5t61 -25.5t25 -61.5t-25 -61.5t-61 -25.5zM44 -83l59 91q-22 8 -37.5 29t-15.5 50q0 36 25.5 61t61.5 25t61 -25t25 -61q0 -19 -6 -33.5t-19 -33.5l-95 -142z" />
    <glyph glyph-name="less" unicode="&#x3c;" horiz-adv-x="531" 
d="M56 219v104l415 191v-129l-258 -110v-8l258 -110v-129z" />
    <glyph glyph-name="equal" unicode="=" horiz-adv-x="581" 
d="M56 477h469v-116h-469v116zM56 277h469v-116h-469v116z" />
    <glyph glyph-name="greater" unicode="&#x3e;" horiz-adv-x="531" 
d="M60 28v129l258 110v8l-258 110v129l415 -191v-104z" />
    <glyph glyph-name="question" unicode="?" horiz-adv-x="514" 
d="M188 246v33q0 24 5 44.5t15.5 39.5t28 38t43.5 41q27 24 42 44t15 49q0 30 -22.5 53t-61.5 23q-21 0 -38 -7t-30 -19t-21.5 -27t-12.5 -31l-115 48q8 28 25.5 56t44 50.5t62.5 36.5t81 14q48 0 88 -14.5t68.5 -40t44.5 -60.5t16 -75q0 -29 -7 -52t-19 -43t-28 -37.5
t-34 -34.5q-17 -16 -28.5 -29t-18 -25.5t-9.5 -26.5t-3 -32v-16h-131zM252 -6q-36 0 -61 25.5t-25 61.5t25 61t61 25t61.5 -25t25.5 -61t-25.5 -61.5t-61.5 -25.5z" />
    <glyph glyph-name="at" unicode="@" horiz-adv-x="877" 
d="M440 690q87 0 159.5 -30.5t124.5 -82.5t80.5 -121.5t28.5 -147.5q0 -45 -11 -84t-31.5 -67.5t-50.5 -44.5t-67 -16q-38 0 -70.5 19t-48.5 53q-45 -72 -137 -72q-41 0 -76 15t-61.5 42t-41.5 64.5t-15 82.5t15.5 82.5t41.5 64.5t60.5 42t72.5 15t65 -15t43 -37h8v38h98
v-246q0 -26 13 -43.5t36 -17.5q16 0 28 10t20 27t11.5 40t3.5 49q0 57 -22 109.5t-62 92.5t-94.5 64t-120.5 24q-62 0 -116 -21.5t-94 -60t-63 -93t-23 -120.5t24.5 -120.5t65 -93t94 -60t112.5 -21.5q38 0 71.5 8.5t61.5 24.5l34 -87q-36 -17 -79 -27t-88 -10
q-87 0 -160 30t-125.5 82.5t-81.5 123t-29 150.5q0 79 29 149.5t81.5 123t125.5 83t160 30.5zM424 193q20 0 38 7t32 21t22.5 33.5t8.5 45.5q0 25 -8.5 45t-22.5 34t-32 21t-38 7q-41 0 -71 -28t-30 -79t30 -79t71 -28z" />
    <glyph glyph-name="A" unicode="A" horiz-adv-x="716" 
d="M281 716h154l269 -716h-149l-59 171h-276l-59 -171h-149zM452 295l-64 179l-26 87h-8l-26 -87l-64 -179h188z" />
    <glyph glyph-name="B" unicode="B" horiz-adv-x="629" 
d="M72 716h280q46 0 86 -14.5t69.5 -40t46.5 -59.5t17 -73q0 -57 -27.5 -95.5t-68.5 -58.5v-8q55 -20 88.5 -62.5t33.5 -105.5q0 -46 -18.5 -82.5t-50.5 -62.5t-74.5 -40t-91.5 -14h-290v716zM342 424q47 0 72.5 25.5t25.5 60.5t-25 60t-69 25h-139v-171h135zM357 124
q51 0 78 25.5t27 65.5t-27.5 66.5t-81.5 26.5h-146v-184h150z" />
    <glyph glyph-name="C" unicode="C" horiz-adv-x="734" 
d="M698 115q-53 -64 -125 -97.5t-161 -33.5q-80 0 -148.5 29t-118.5 79t-79 118.5t-29 147.5t29 147.5t79 118.5t118.5 79t148.5 29q86 0 151.5 -30t116.5 -87l-95 -92q-32 37 -73.5 59t-98.5 22q-50 0 -94 -17.5t-76.5 -49.5t-51.5 -77.5t-19 -101.5t19 -101.5t51.5 -77.5
t76.5 -49.5t94 -17.5q60 0 106.5 24.5t82.5 69.5z" />
    <glyph glyph-name="D" unicode="D" horiz-adv-x="719" 
d="M72 716h242q85 0 153 -26t116 -73.5t73.5 -113.5t25.5 -145q0 -80 -25.5 -146t-73.5 -113t-116 -73t-153 -26h-242v716zM308 128q59 0 104 16.5t75 46.5t45 72.5t15 94.5t-15 94.5t-45 72.5t-75 46.5t-104 16.5h-101v-460h101z" />
    <glyph glyph-name="E" unicode="E" horiz-adv-x="578" 
d="M207 588v-166h287v-128h-287v-166h319v-128h-454v716h454v-128h-319z" />
    <glyph glyph-name="F" unicode="F" horiz-adv-x="558" 
d="M72 716h454v-128h-319v-174h287v-128h-287v-286h-135v716z" />
    <glyph glyph-name="G" unicode="G" horiz-adv-x="810" 
d="M412 393h351q3 -12 5 -29t2 -34q0 -69 -21 -130t-66 -109q-48 -51 -115 -79t-153 -28q-78 0 -147 28t-120 78t-81 118.5t-30 149.5t30 149.5t81 118.5t120 78t147 28q87 0 155.5 -30t117.5 -83l-93 -91q-35 37 -78 56.5t-103 19.5q-49 0 -93 -17.5t-77 -49.5t-52.5 -77.5
t-19.5 -101.5t19.5 -101.5t53 -77.5t77.5 -49.5t94 -17.5q57 0 96.5 16.5t67.5 42.5q20 18 34.5 45.5t22.5 61.5h-225v115z" />
    <glyph glyph-name="H" unicode="H" horiz-adv-x="715" 
d="M72 716h135v-286h301v286h135v-716h-135v302h-301v-302h-135v716z" />
    <glyph glyph-name="I" unicode="I" horiz-adv-x="279" 
d="M72 716h135v-716h-135v716z" />
    <glyph glyph-name="J" unicode="J" horiz-adv-x="555" 
d="M261 -16q-85 0 -148.5 46t-88.5 127l124 51q13 -48 42 -72t71 -24q47 0 73 30t26 84v490h135v-489q0 -60 -18.5 -105.5t-50 -76t-74 -46t-91.5 -15.5z" />
    <glyph glyph-name="K" unicode="K" horiz-adv-x="669" 
d="M72 716h135v-307h8l262 307h163v-8l-259 -296l286 -404v-8h-165l-213 305l-82 -95v-210h-135v716z" />
    <glyph glyph-name="L" unicode="L" horiz-adv-x="534" 
d="M72 716h135v-588h303v-128h-438v716z" />
    <glyph glyph-name="M" unicode="M" horiz-adv-x="857" 
d="M72 716h133l219 -379h8l219 379h134v-716h-134v353l8 120h-8l-182 -321h-81l-183 321h-8l8 -120v-353h-133v716z" />
    <glyph glyph-name="N" unicode="N" horiz-adv-x="723" 
d="M72 716h157l288 -480h8l-8 138v342h134v-716h-142l-304 507h-8l8 -138v-369h-133v716z" />
    <glyph glyph-name="O" unicode="O" horiz-adv-x="822" 
d="M411 -16q-80 0 -148.5 29t-118.5 79.5t-78.5 119t-28.5 146.5t28.5 146.5t78.5 119t118.5 79.5t148.5 29t148.5 -29t118.5 -79.5t78.5 -119t28.5 -146.5t-28.5 -146.5t-78.5 -119t-118.5 -79.5t-148.5 -29zM411 112q50 0 93.5 18t76 50t51 77.5t18.5 100.5t-18.5 100.5
t-51 77.5t-76 50t-93.5 18t-93.5 -18t-76 -50t-51 -77.5t-18.5 -100.5t18.5 -100.5t51 -77.5t76 -50t93.5 -18z" />
    <glyph glyph-name="P" unicode="P" horiz-adv-x="592" 
d="M72 0v716h252q51 0 95.5 -16.5t77.5 -46.5t52 -71.5t19 -91.5q0 -51 -19 -92.5t-52 -71.5t-77.5 -46.5t-95.5 -16.5h-117v-263h-135zM326 391q53 0 80 30t27 69q0 19 -6.5 37t-20 31.5t-33.5 21.5t-47 8h-119v-197h119z" />
    <glyph glyph-name="Q" unicode="Q" horiz-adv-x="822" 
d="M566 16q-35 -15 -74 -23.5t-81 -8.5q-80 0 -148.5 29t-118.5 79.5t-78.5 119t-28.5 146.5t28.5 146.5t78.5 119t118.5 79.5t148.5 29t148.5 -29t118.5 -79.5t78.5 -119t28.5 -146.5q0 -83 -31 -154t-87 -122l55 -82l-100 -67zM414 244l100 68l78 -118q27 31 42.5 72.5
t15.5 91.5q0 55 -18.5 100.5t-51 77.5t-76 50t-93.5 18t-93.5 -18t-76 -50t-51 -77.5t-18.5 -100.5t18.5 -100.5t51 -77.5t76 -50t93.5 -18q22 0 42 4t39 11z" />
    <glyph glyph-name="R" unicode="R" horiz-adv-x="620" 
d="M72 716h261q54 0 98 -17t75.5 -47t48.5 -71.5t17 -90.5q0 -36 -12 -67.5t-33 -57t-49 -45t-59 -30.5l-1 -7l192 -275v-8h-155l-185 269h-63v-269h-135v716zM332 393q46 0 75.5 28t29.5 71q0 19 -6.5 37t-19.5 32t-32.5 22.5t-44.5 8.5h-127v-199h125z" />
    <glyph glyph-name="S" unicode="S" horiz-adv-x="575" 
d="M291 -16q-46 0 -88 13t-77 39t-61 63.5t-41 87.5l127 50q14 -54 49 -89.5t92 -35.5q21 0 40.5 5.5t35 16t24.5 26.5t9 37q0 20 -7 36t-23.5 30t-43 27t-65.5 27l-44 16q-29 10 -58.5 27t-53.5 41t-39.5 56.5t-15.5 73.5q0 42 16.5 78.5t47 64t73 43t94.5 15.5
q54 0 93.5 -14.5t67 -37t44.5 -49.5t25 -51l-119 -50q-10 30 -36.5 54t-72.5 24q-44 0 -73 -20.5t-29 -53.5q0 -32 28 -54.5t89 -43.5l45 -15q43 -15 78.5 -34.5t61 -46.5t39 -61.5t13.5 -79.5q0 -56 -22.5 -96.5t-57.5 -66.5t-79 -39t-86 -13z" />
    <glyph glyph-name="T" unicode="T" horiz-adv-x="583" 
d="M224 0v588h-200v128h535v-128h-200v-588h-135z" />
    <glyph glyph-name="U" unicode="U" horiz-adv-x="669" 
d="M334 -16q-63 0 -114.5 20.5t-87.5 59.5t-56 94.5t-20 126.5v431h135v-439q0 -36 9 -66t27 -52t45 -34.5t62 -12.5q36 0 63 12.5t45 34.5t27 52t9 66v439h135v-431q0 -67 -19.5 -122.5t-56 -95t-88 -61.5t-115.5 -22z" />
    <glyph glyph-name="V" unicode="V" horiz-adv-x="680" 
d="M12 716h146l148 -431l26 -92h8l28 92l154 431h146l-261 -716h-142z" />
    <glyph glyph-name="W" unicode="W" horiz-adv-x="954" 
d="M16 716h143l111 -418l16 -77h8l21 77l103 322h126l104 -322l20 -76h8l15 76l104 418h143l-190 -716h-130l-112 345l-21 79h-8l-21 -79l-112 -345h-130z" />
    <glyph glyph-name="X" unicode="X" horiz-adv-x="688" 
d="M251 374l-217 342h167l139 -234h8l139 234h167l-217 -342l235 -374h-168l-156 258h-8l-156 -258h-168z" />
    <glyph glyph-name="Y" unicode="Y" horiz-adv-x="637" 
d="M253 333l-241 383h161l143 -237h8l138 237h163l-237 -383v-333h-135v333z" />
    <glyph glyph-name="Z" unicode="Z" horiz-adv-x="596" 
d="M32 136l363 452h-347v128h504v-136l-359 -452h363v-128h-524v136z" />
    <glyph glyph-name="bracketleft" unicode="[" horiz-adv-x="352" 
d="M72 792h248v-108h-120v-700h120v-108h-248v916z" />
    <glyph glyph-name="backslash" unicode="\" horiz-adv-x="480" 
d="M324 0l-297 716h129l297 -716h-129z" />
    <glyph glyph-name="bracketright" unicode="]" horiz-adv-x="352" 
d="M280 -124h-248v108h120v700h-120v108h248v-916z" />
    <glyph glyph-name="asciicircum" unicode="^" horiz-adv-x="515" 
d="M368 410l-106 182h-8l-107 -182h-135l191 306h109l191 -306h-135z" />
    <glyph glyph-name="underscore" unicode="_" horiz-adv-x="499" 
d="M0 -100h499v-116h-499v116z" />
    <glyph glyph-name="grave" unicode="`" horiz-adv-x="443" 
d="M185 588l-89 136h153l42 -136h-106z" />
    <glyph glyph-name="a" unicode="a" horiz-adv-x="535" 
d="M358 52h-8q-23 -28 -55.5 -48t-83.5 -20q-38 0 -71.5 12.5t-58.5 34.5t-39 53t-14 68q0 38 15 68.5t42 52.5t63.5 33.5t79.5 11.5q48 0 79 -7.5t51 -15.5v15q0 39 -31 64.5t-77 25.5q-68 0 -115 -57l-95 65q78 98 213 98q114 0 174 -53.5t60 -158.5v-294h-129v52z
M358 199q-23 11 -47.5 17.5t-53.5 6.5q-47 0 -72.5 -20.5t-25.5 -50.5t24.5 -48t56.5 -18q26 0 48 9.5t37.5 25t24 36t8.5 42.5z" />
    <glyph glyph-name="b" unicode="b" horiz-adv-x="600" 
d="M56 716h131v-215l-8 -70h8q18 31 56 53t94 22q47 0 89.5 -19.5t75 -54t51.5 -82.5t19 -105t-19 -105t-51.5 -82.5t-75 -54t-89.5 -19.5q-56 0 -94 22t-56 53h-8v-59h-123v716zM310 105q26 0 49.5 10t41.5 28t29 44t11 58t-11 58t-29 44t-41.5 28t-49.5 10t-49.5 -9.5
t-41.5 -27.5t-29 -44t-11 -59t11 -59t29 -44t41.5 -27.5t49.5 -9.5z" />
    <glyph glyph-name="c" unicode="c" horiz-adv-x="545" 
d="M521 125q-32 -62 -89.5 -101.5t-143.5 -39.5q-57 0 -104.5 19.5t-82 54.5t-54 82.5t-19.5 104.5t19.5 105t54 82.5t82 54t104.5 19.5q85 0 143 -39t85 -101l-120 -50q-17 34 -43.5 51.5t-66.5 17.5q-26 0 -49 -10t-40.5 -28t-27.5 -44t-10 -58t10 -58t27.5 -44t40.5 -28
t49 -10q41 0 69.5 18.5t45.5 53.5z" />
    <glyph glyph-name="d" unicode="d" horiz-adv-x="600" 
d="M421 59h-8q-18 -31 -56 -53t-94 -22q-47 0 -89.5 19.5t-75 54t-51.5 82.5t-19 105t19 105t51.5 82.5t75 54t89.5 19.5q56 0 94 -22t56 -53h8l-8 70v215h131v-716h-123v59zM290 105q26 0 49.5 9.5t41.5 27.5t29 44t11 59t-11 59t-29 44t-41.5 27.5t-49.5 9.5t-49.5 -10
t-41.5 -28t-29 -44t-11 -58t11 -58t29 -44t41.5 -28t49.5 -10z" />
    <glyph glyph-name="e" unicode="e" horiz-adv-x="556" 
d="M520 118q-34 -60 -91.5 -97t-140.5 -37q-56 0 -103.5 19.5t-82.5 54.5t-54.5 82.5t-19.5 104.5q0 53 19 100.5t53 83t80.5 56.5t102.5 21q59 0 105 -19.5t77 -54t47 -81.5t16 -102v-12q-1 -6 -1 -11q-1 -5 -1 -11h-369q4 -30 16.5 -51.5t31 -36t40.5 -21t45 -6.5
q45 0 74.5 20.5t46.5 51.5zM401 308q-1 13 -8.5 29t-22 30t-36 23t-51.5 9q-42 0 -74 -24t-45 -67h237z" />
    <glyph glyph-name="f" unicode="f" horiz-adv-x="397" 
d="M298 724q28 0 52 -5t43 -13l-37 -117q-10 5 -21.5 8t-28.5 3q-29 0 -46 -18.5t-17 -51.5v-40h122v-112h-122v-378h-131v378h-88v112h88v48q0 45 13.5 79.5t38.5 58t59 36t75 12.5z" />
    <glyph glyph-name="g" unicode="g" horiz-adv-x="597" 
d="M282 -232q-52 0 -92.5 13.5t-70.5 35t-50 47.5t-29 52l125 50q14 -39 46 -60.5t71 -21.5q62 0 98 38.5t36 107.5v34h-8q-23 -32 -60.5 -50.5t-88.5 -18.5q-44 0 -85.5 18t-73.5 51.5t-52 80.5t-20 105t20 105.5t52 81t73.5 51.5t85.5 18q51 0 88.5 -18.5t60.5 -50.5h8v53
h125v-455q0 -62 -19 -111.5t-53 -84t-81.5 -53t-105.5 -18.5zM287 113q24 0 47.5 9t41.5 26.5t29 43t11 58.5t-11 59t-29 43.5t-41.5 26.5t-47.5 9t-47 -9t-41 -27t-29 -43.5t-11 -58.5t11 -58.5t29 -43t41 -26.5t47 -9z" />
    <glyph glyph-name="h" unicode="h" 
d="M56 716h131v-201l-8 -89h8q21 35 60.5 57.5t88.5 22.5q95 0 140.5 -56t45.5 -153v-297h-131v281q0 51 -24 77.5t-67 26.5q-27 0 -48 -11.5t-35.5 -31.5t-22 -46.5t-7.5 -56.5v-239h-131v716z" />
    <glyph glyph-name="i" unicode="i" horiz-adv-x="259" 
d="M129 561q-17 0 -32.5 6.5t-27 18t-18 26.5t-6.5 33t6.5 33t18 26.5t27 18t32.5 6.5q35 0 60 -24.5t25 -59.5t-25 -59.5t-60 -24.5zM64 0v490h131v-490h-131z" />
    <glyph glyph-name="j" unicode="j" horiz-adv-x="259" 
d="M-15 -96q8 -5 15.5 -7t18.5 -2q45 0 45 59v536h131v-540q0 -48 -13 -81.5t-35 -54.5t-51 -30.5t-62 -9.5q-25 0 -45 3.5t-37 10.5zM129 561q-17 0 -32.5 6.5t-27 18t-18 26.5t-6.5 33t6.5 33t18 26.5t27 18t32.5 6.5q35 0 60 -24.5t25 -59.5t-25 -59.5t-60 -24.5z" />
    <glyph glyph-name="k" unicode="k" horiz-adv-x="530" 
d="M56 716h131v-390h6l164 164h162v-8l-182 -177l197 -297v-8h-155l-134 215l-58 -57v-158h-131v716z" />
    <glyph glyph-name="l" unicode="l" horiz-adv-x="243" 
d="M56 0v716h131v-716h-131z" />
    <glyph glyph-name="m" unicode="m" horiz-adv-x="880" 
d="M56 490h123v-64h8q23 36 62.5 58t87.5 22q56 0 94 -26t54 -64q23 37 65 63.5t102 26.5q45 0 78 -14.5t54.5 -40.5t32.5 -62.5t11 -79.5v-309h-131v285q0 100 -82 100q-26 0 -46 -11.5t-33.5 -31t-21 -46.5t-7.5 -58v-238h-131v285q0 100 -86 100q-25 0 -44 -11.5t-32 -31
t-20 -46.5t-7 -58v-238h-131v490z" />
    <glyph glyph-name="n" unicode="n" 
d="M179 426h8q23 37 62 58.5t89 21.5q46 0 81 -15t57.5 -42.5t34 -66t11.5 -85.5v-297h-131v281q0 53 -23.5 78.5t-68.5 25.5q-27 0 -47.5 -11.5t-35 -31t-22 -46t-7.5 -56.5v-240h-131v490h123v-64z" />
    <glyph glyph-name="o" unicode="o" horiz-adv-x="576" 
d="M288 506q57 0 104.5 -19.5t82 -54t54 -82.5t19.5 -105t-19.5 -105t-54 -82.5t-82 -54t-104.5 -19.5t-104.5 19.5t-82 54t-54 82.5t-19.5 105t19.5 105t54 82.5t82 54t104.5 19.5zM288 105q25 0 48.5 9.5t41.5 27.5t28.5 44t10.5 59t-10.5 59t-28.5 44t-41.5 27.5
t-48.5 9.5q-26 0 -49 -9.5t-41 -27.5t-28.5 -44t-10.5 -59t10.5 -59t28.5 -44t41 -27.5t49 -9.5z" />
    <glyph glyph-name="p" unicode="p" horiz-adv-x="596" 
d="M52 490h123v-59h8q18 31 56 53t94 22q47 0 89.5 -19.5t75 -54t51.5 -82.5t19 -105t-19 -105t-51.5 -82.5t-75 -54t-89.5 -19.5q-56 0 -94 22t-56 53h-8l8 -70v-205h-131v706zM306 105q26 0 49.5 10t41.5 28t29 44t11 58t-11 58t-29 44t-41.5 28t-49.5 10t-49.5 -9.5
t-41.5 -27.5t-29 -44t-11 -59t11 -59t29 -44t41.5 -27.5t49.5 -9.5z" />
    <glyph glyph-name="q" unicode="q" horiz-adv-x="596" 
d="M413 -11l8 70h-8q-18 -31 -56 -53t-94 -22q-47 0 -89.5 19.5t-75 54t-51.5 82.5t-19 105t19 105t51.5 82.5t75 54t89.5 19.5q56 0 94 -22t56 -53h8v59h123v-706h-131v205zM290 105q26 0 49.5 9.5t41.5 27.5t29 44t11 59t-11 59t-29 44t-41.5 27.5t-49.5 9.5t-49.5 -10
t-41.5 -28t-29 -44t-11 -58t11 -58t29 -44t41.5 -28t49.5 -10z" />
    <glyph glyph-name="r" unicode="r" horiz-adv-x="407" 
d="M56 490h123v-68h8q9 18 24 33t33.5 26t40 17t42.5 6q26 0 44.5 -5t31.5 -13l-35 -119q-12 6 -26.5 9.5t-35.5 3.5q-27 0 -49 -10.5t-37.5 -29.5t-24 -44.5t-8.5 -55.5v-240h-131v490z" />
    <glyph glyph-name="s" unicode="s" horiz-adv-x="483" 
d="M250 -16q-48 0 -85.5 12t-65 31.5t-46.5 45t-29 51.5l117 50q17 -38 45.5 -56.5t63.5 -18.5q36 0 57 13t21 31q0 20 -17.5 32.5t-60.5 22.5l-69 15q-23 5 -47.5 16t-44.5 28t-33 41t-13 56q0 36 15.5 64t42.5 47.5t63.5 30t78.5 10.5q70 0 125 -27.5t81 -87.5l-113 -46
q-14 29 -41 42t-54 13q-28 0 -49 -11.5t-21 -29.5q0 -17 17.5 -27t47.5 -18l75 -18q75 -18 111.5 -57.5t36.5 -93.5q0 -32 -15 -61t-42.5 -51.5t-66 -35.5t-85.5 -13z" />
    <glyph glyph-name="t" unicode="t" horiz-adv-x="401" 
d="M110 378h-86v112h86v150h131v-150h120v-112h-120v-190q0 -17 3.5 -31.5t13.5 -24.5q14 -16 40 -16q17 0 27 3.5t19 9.5l37 -115q-23 -11 -49.5 -16.5t-58.5 -5.5q-37 0 -66.5 11.5t-49.5 31.5q-47 45 -47 128v215z" />
    <glyph glyph-name="u" unicode="u" 
d="M395 64h-8q-23 -37 -62 -58.5t-89 -21.5q-93 0 -138.5 57t-45.5 152v297h131v-281q0 -53 23.5 -78.5t68.5 -25.5q27 0 47.5 11.5t35 31t22 46t7.5 56.5v240h131v-490h-123v64z" />
    <glyph glyph-name="v" unicode="v" horiz-adv-x="557" 
d="M4 490h149l122 -312h7l123 312h148l-211 -490h-129z" />
    <glyph glyph-name="w" unicode="w" horiz-adv-x="805" 
d="M4 490h147l81 -307h7l97 307h135l98 -307h7l80 307h145l-157 -490h-141l-98 309h-7l-98 -309h-139z" />
    <glyph glyph-name="x" unicode="x" horiz-adv-x="514" 
d="M178 249l-168 241h155l89 -136h7l84 136h160l-172 -241l172 -249h-154l-92 140h-7l-89 -140h-155z" />
    <glyph glyph-name="y" unicode="y" horiz-adv-x="553" 
d="M210 24l-206 466h149l124 -297h7l119 297h146l-307 -706h-141z" />
    <glyph glyph-name="z" unicode="z" horiz-adv-x="479" 
d="M32 108l250 270h-242v112h403v-108l-250 -270h254v-112h-415v108z" />
    <glyph glyph-name="braceleft" unicode="{" horiz-adv-x="337" 
d="M136 -75q-48 49 -48 134v154q0 34 -19.5 50t-44.5 16v110q25 0 44.5 16t19.5 50v154q0 85 48 134t135 49h34v-108h-16q-30 0 -51.5 -21.5t-21.5 -58.5v-146q0 -51 -15.5 -80t-54.5 -40v-8q39 -11 54.5 -40t15.5 -80v-146q0 -37 21.5 -58.5t51.5 -21.5h16v-108h-34
q-87 0 -135 49z" />
    <glyph glyph-name="bar" unicode="|" horiz-adv-x="264" 
d="M72 792h120v-912h-120v912z" />
    <glyph glyph-name="braceright" unicode="}" horiz-adv-x="337" 
d="M32 -124v108h17q30 0 51 21.5t21 58.5v146q0 51 16 80t55 40v8q-39 11 -55 40t-16 80v146q0 37 -21 58.5t-51 21.5h-17v108h35q87 0 134.5 -49t47.5 -134v-154q0 -34 19.5 -50t44.5 -16v-110q-25 0 -44.5 -16t-19.5 -50v-154q0 -85 -47.5 -134t-134.5 -49h-35z" />
    <glyph glyph-name="asciitilde" unicode="~" horiz-adv-x="554" 
d="M388 223q-30 0 -58.5 9t-54.5 20q-27 11 -50 20t-42 9q-23 0 -34 -12t-13 -30h-104q0 70 35.5 112t98.5 42q31 0 60 -9t55 -20t48.5 -20t41.5 -9q23 0 34 12t13 30h104q0 -70 -35.5 -112t-98.5 -42z" />
    <glyph glyph-name="uni00A0" unicode="&#xa0;" horiz-adv-x="220" 
d="M0 0z" />
    <glyph glyph-name="exclamdown" unicode="&#xa1;" horiz-adv-x="269" 
d="M135 506q36 0 61 -25.5t25 -61.5t-25 -61t-61 -25t-61.5 25t-25.5 61t25.5 61.5t61.5 25.5zM81 254h107l14 -264v-206h-135v206z" />
    <glyph glyph-name="cent" unicode="&#xa2;" horiz-adv-x="539" 
d="M237 87q-47 8 -85.5 30t-66 55t-42.5 76.5t-15 93.5t15 93.5t42.5 76.5t66 55t85.5 30v87h90v-86q69 -9 113.5 -46t69.5 -91l-108 -43q-27 55 -75 68v-289q56 17 84 73l104 -45q-28 -54 -73.5 -92t-114.5 -48v-85h-90v87zM148 342q0 -54 25 -90.5t64 -51.5v283
q-39 -14 -64 -50.5t-25 -90.5z" />
    <glyph glyph-name="sterling" unicode="&#xa3;" horiz-adv-x="538" 
d="M341 505q-4 15 -11 29t-18.5 25t-27.5 18t-37 7q-43 0 -66.5 -26.5t-23.5 -63.5q0 -23 6 -43t15.5 -38t20.5 -35q11 -18 21 -36h132v-100h-107q-2 -40 -15.5 -69t-35.5 -49l5 -8h149q56 0 72 59l102 -44q-18 -60 -59 -95.5t-113 -35.5h-318v106q48 19 71.5 55t23.5 72v9
h-92v100h54q-20 32 -38 69t-18 89q0 40 15.5 76t43.5 63.5t67.5 44t87.5 16.5q46 0 81.5 -12.5t61 -33.5t42 -47.5t24.5 -54.5z" />
    <glyph glyph-name="currency" unicode="&#xa4;" horiz-adv-x="609" 
d="M304 106q-34 0 -65 9.5t-57 26.5l-58 -57l-64 65l58 57q-16 26 -25 55.5t-9 62.5t9 63t25 55l-58 58l64 64l58 -57q26 17 57 26.5t65 9.5q35 0 66 -9.5t57 -26.5l58 57l64 -64l-58 -58q16 -25 24.5 -55t8.5 -63q0 -65 -33 -118l58 -57l-64 -65l-58 57q-26 -17 -57 -26.5
t-66 -9.5zM304 209q24 0 44.5 9t35.5 24.5t23.5 37t8.5 45.5t-8.5 45.5t-23.5 37t-35.5 24.5t-44.5 9t-44.5 -9t-35.5 -24.5t-23.5 -37t-8.5 -45.5t8.5 -45.5t23.5 -37t35.5 -24.5t44.5 -9z" />
    <glyph glyph-name="yen" unicode="&#xa5;" horiz-adv-x="632" 
d="M385 312v-63h162v-116h-162v-133h-135v133h-165v116h165v63h-165v116h91l-164 256h160l113 -189l29 -67h8l29 67l109 189h160l-162 -256h89v-116h-162z" />
    <glyph glyph-name="brokenbar" unicode="&#xa6;" horiz-adv-x="264" 
d="M72 376v380h120v-380h-120zM72 -120v412h120v-412h-120z" />
    <glyph glyph-name="section" unicode="&#xa7;" horiz-adv-x="560" 
d="M286 -232q-49 0 -90 15.5t-72.5 42t-53 62t-30.5 76.5l120 46q13 -53 46 -87t83 -34q42 0 69.5 21t27.5 58t-32.5 60t-104.5 47l-25 8q-80 26 -122 73.5t-42 110.5q0 45 20 79t54 59q-34 26 -53.5 60.5t-19.5 79.5q0 40 16.5 74t46 59t69.5 39.5t87 14.5q48 0 85.5 -14.5
t65 -36.5t44.5 -49t23 -52l-119 -47q-8 31 -31.5 54.5t-68.5 23.5q-38 0 -62.5 -19.5t-24.5 -45.5q0 -28 24.5 -46.5t85.5 -38.5l30 -10q89 -30 138.5 -78t49.5 -130q0 -48 -17.5 -83t-44.5 -58q27 -26 43 -59.5t16 -75.5q0 -45 -18.5 -82t-50 -63t-73.5 -40t-89 -14z
M360 162q13 14 21 31t8 35q0 43 -30 71t-104 52l-21 6q-23 -12 -36.5 -32t-13.5 -45q0 -32 27 -54.5t81 -40.5z" />
    <glyph glyph-name="dieresis" unicode="&#xa8;" horiz-adv-x="452" 
d="M321 587q-29 0 -50 21.5t-21 50.5q0 30 21 51t50 21q31 0 51.5 -21t20.5 -51q0 -29 -20.5 -50.5t-51.5 -21.5zM131 587q-30 0 -51 21.5t-21 50.5q0 30 21 51t51 21t50.5 -21t20.5 -51q0 -29 -20.5 -50.5t-50.5 -21.5z" />
    <glyph glyph-name="copyright" unicode="&#xa9;" horiz-adv-x="532" 
d="M266 272q-48 0 -89.5 18t-73 49.5t-49.5 73t-18 89.5q0 47 18 89t49.5 73.5t73 49.5t89.5 18q47 0 89 -18t73.5 -49.5t49.5 -73.5t18 -89q0 -48 -18 -89.5t-49.5 -73t-73.5 -49.5t-89 -18zM266 320q38 0 71 14.5t58 39.5t39 58t14 70q0 38 -14 71t-39 58t-58 39t-71 14
q-37 0 -70 -14t-58 -39t-39.5 -58t-14.5 -71q0 -37 14.5 -70t39.5 -58t58 -39.5t70 -14.5zM270 383q-26 0 -47.5 9.5t-37.5 25.5t-25 38t-9 46q0 25 9 46.5t25 37.5t37.5 25.5t47.5 9.5q31 0 50.5 -11t36.5 -28l-32 -29q-11 11 -22 17.5t-33 6.5q-29 0 -51 -21.5t-22 -53.5
t22 -53.5t51 -21.5q21 0 35 8.5t25 22.5l34 -27q-16 -21 -39 -34.5t-55 -13.5z" />
    <glyph glyph-name="ordfeminine" unicode="&#xaa;" horiz-adv-x="495" 
d="M204 272q-34 0 -63.5 10.5t-52 30t-35.5 46.5t-13 61t14.5 61t39 46t56.5 29t68 10q39 0 68.5 -7t51.5 -18v14q0 37 -26.5 60t-70.5 23q-30 0 -55 -13t-39 -38l-95 48q26 46 75.5 71.5t113.5 25.5q97 0 155.5 -47t58.5 -141v-258h-117v46h-8q-21 -27 -52 -43.5t-74 -16.5
zM229 363q23 0 43 8t34.5 21.5t23 31t8.5 36.5q-14 6 -38 14t-55 8q-45 0 -65.5 -18.5t-20.5 -44.5t20.5 -41t49.5 -15z" />
    <glyph glyph-name="guillemotleft" unicode="&#xab;" horiz-adv-x="610" 
d="M327 110l-75 -69l-212 230l212 230l75 -69l-150 -161zM550 110l-75 -69l-212 230l212 230l75 -69l-150 -161z" />
    <glyph glyph-name="logicalnot" unicode="&#xac;" horiz-adv-x="594" 
d="M48 404h466v-299h-115v185h-351v114z" />
    <glyph glyph-name="uni00AD" unicode="&#xad;" horiz-adv-x="451" 
d="M56 368h339v-116h-339v116z" />
    <glyph glyph-name="registered" unicode="&#xae;" horiz-adv-x="532" 
d="M266 272q-48 0 -89.5 18t-73 49.5t-49.5 73t-18 89.5q0 47 18 89t49.5 73.5t73 49.5t89.5 18q47 0 89 -18t73.5 -49.5t49.5 -73.5t18 -89q0 -48 -18 -89.5t-49.5 -73t-73.5 -49.5t-89 -18zM266 320q38 0 71 14.5t58 39.5t39 58t14 70q0 38 -14 71t-39 58t-58 39t-71 14
q-37 0 -70 -14t-58 -39t-39.5 -58t-14.5 -71q0 -37 14.5 -70t39.5 -58t58 -39.5t70 -14.5zM189 389v226h96q29 0 51 -20.5t22 -51.5q0 -23 -14.5 -41.5t-35.5 -24.5l-2 -2l60 -84v-2h-52l-55 84h-24v-84h-46zM281 515q12 0 21.5 7.5t9.5 20.5q0 10 -8 19t-22 9h-47v-56h46z
" />
    <glyph glyph-name="macron" unicode="&#xaf;" horiz-adv-x="416" 
d="M60 609v100h296v-100h-296z" />
    <glyph glyph-name="degree" unicode="&#xb0;" horiz-adv-x="325" 
d="M163 442q-27 0 -51 10t-41.5 27.5t-28 41t-10.5 50.5t10.5 50.5t28 41t41.5 27.5t51 10t50.5 -10t41 -27.5t28 -41t10.5 -50.5t-10.5 -50.5t-28 -41t-41 -27.5t-50.5 -10zM163 519q22 0 36 15.5t14 36.5q0 22 -14 37t-36 15q-23 0 -37 -15t-14 -37q0 -21 14 -36.5
t37 -15.5z" />
    <glyph glyph-name="plusminus" unicode="&#xb1;" horiz-adv-x="569" 
d="M342 424h171v-108h-171v-141h-116v141h-170v108h170v141h116v-141zM56 0v116h457v-116h-457z" />
    <glyph glyph-name="twosuperior" unicode="&#xb2;" horiz-adv-x="317" 
d="M28 350v63q32 33 59 60l43.5 43.5l25.5 25.5q18 17 29.5 32t11.5 35q0 14 -11.5 25t-29.5 11q-20 0 -33.5 -12t-18.5 -38l-80 31q11 45 47 71.5t85 26.5q28 0 52 -8t41.5 -22t27.5 -34t10 -44q0 -18 -6.5 -34.5t-16 -31t-20 -26.5t-19.5 -21l-45 -45q-14 -14 -30 -29h139
v-79h-261z" />
    <glyph glyph-name="threesuperior" unicode="&#xb3;" horiz-adv-x="335" 
d="M165 342q-48 0 -87.5 24t-53.5 77l83 30q6 -30 22.5 -42t35.5 -12q20 0 34.5 12t14.5 32t-16 31t-41 11h-38v70h34q23 0 36.5 9.5t13.5 28.5q0 16 -11.5 25t-27.5 9q-23 0 -35 -11.5t-17 -25.5l-78 31q13 36 45.5 59.5t86.5 23.5q28 0 50.5 -8t39 -22.5t25.5 -33t9 -39.5
q0 -48 -43 -78q24 -13 40 -34.5t16 -49.5t-11.5 -49.5t-30.5 -36.5t-44 -23t-52 -8z" />
    <glyph glyph-name="acute" unicode="&#xb4;" horiz-adv-x="443" 
d="M152 588l42 136h153l-90 -136h-105z" />
    <glyph glyph-name="mu" unicode="&#xb5;" 
d="M395 0v54h-8q-21 -33 -51.5 -51.5t-75.5 -18.5q-23 0 -42.5 6.5t-34.5 17.5h-8l8 -65v-159h-131v706h131v-278q0 -53 25 -80t67 -27q27 0 47.5 11.5t35 31t22 46t7.5 56.5v240h131v-490h-123z" />
    <glyph glyph-name="paragraph" unicode="&#xb6;" horiz-adv-x="643" 
d="M273 -216v512h-25q-45 0 -85.5 14.5t-71 41.5t-49 66t-18.5 88t18.5 88t49 66t71 41.5t85.5 14.5h315v-932h-110v825h-70v-825h-110z" />
    <glyph glyph-name="periodcentered" unicode="&#xb7;" horiz-adv-x="213" 
d="M107 237q-36 0 -61.5 25.5t-25.5 61.5t25.5 61.5t61.5 25.5t61 -25.5t25 -61.5t-25 -61.5t-61 -25.5z" />
    <glyph glyph-name="cedilla" unicode="&#xb8;" horiz-adv-x="411" 
d="M170 -237q-36 0 -62 19t-37 47l64 27q4 -12 13 -20t22 -8q16 0 24.5 9.5t8.5 22.5t-8.5 23.5t-24.5 10.5q-9 0 -15.5 -4.5t-11.5 -9.5l-61 28l36 92h68l-21 -47q5 1 9 1h9q39 0 66.5 -25t27.5 -70q0 -42 -29.5 -69t-77.5 -27z" />
    <glyph glyph-name="onesuperior" unicode="&#xb9;" horiz-adv-x="272" 
d="M123 350v263l-66 -29l-33 75l123 57h65v-366h-89z" />
    <glyph glyph-name="ordmasculine" unicode="&#xba;" horiz-adv-x="535" 
d="M267 272q-50 0 -92.5 17t-73 47.5t-48 73t-17.5 92.5t17.5 92.5t48 73t73 47.5t92.5 17t92.5 -17t73.5 -47.5t48.5 -73t17.5 -92.5t-17.5 -92.5t-48.5 -73t-73.5 -47.5t-92.5 -17zM267 381q22 0 42.5 8.5t36.5 24.5t25.5 38.5t9.5 49.5t-9.5 49.5t-25.5 38.5t-36.5 24.5
t-42.5 8.5t-42.5 -8.5t-36.5 -24.5t-25.5 -38.5t-9.5 -49.5t9.5 -49.5t25.5 -38.5t36.5 -24.5t42.5 -8.5z" />
    <glyph glyph-name="guillemotright" unicode="&#xbb;" horiz-adv-x="610" 
d="M210 271l-150 161l75 69l212 -230l-212 -230l-75 69zM433 271l-150 161l75 69l212 -230l-212 -230l-75 69z" />
    <glyph glyph-name="onequarter" unicode="&#xbc;" horiz-adv-x="771" 
d="M581 0v65h-172v64l171 237h87v-227h48v-74h-48v-65h-86zM581 139v107h-8l-76 -107h84zM119 37l465 694l79 -53l-465 -694zM147 350v263l-66 -29l-33 75l123 57h65v-366h-89z" />
    <glyph glyph-name="onehalf" unicode="&#xbd;" horiz-adv-x="808" 
d="M491 0v63q32 33 59 60l43.5 43.5l25.5 25.5q18 17 29.5 32t11.5 35q0 14 -11.5 25t-29.5 11q-20 0 -33.5 -12t-18.5 -38l-80 31q11 45 47 71.5t85 26.5q28 0 52 -8t41.5 -22t27.5 -34t10 -44q0 -18 -6.5 -34.5t-16 -31t-20 -26.5t-19.5 -21l-45 -45q-14 -14 -30 -29h139
v-79h-261zM111 37l465 694l79 -53l-465 -694zM147 350v263l-66 -29l-33 75l123 57h65v-366h-89z" />
    <glyph glyph-name="threequarters" unicode="&#xbe;" horiz-adv-x="843" 
d="M189 342q-48 0 -87.5 24t-53.5 77l83 30q6 -30 22.5 -42t35.5 -12q20 0 34.5 12t14.5 32t-16 31t-41 11h-38v70h34q23 0 36.5 9.5t13.5 28.5q0 16 -11.5 25t-27.5 9q-23 0 -35 -11.5t-17 -25.5l-78 31q13 36 45.5 59.5t86.5 23.5q28 0 50.5 -8t39 -22.5t25.5 -33t9 -39.5
q0 -48 -43 -78q24 -13 40 -34.5t16 -49.5t-11.5 -49.5t-30.5 -36.5t-44 -23t-52 -8zM651 0v65h-172v64l171 237h87v-227h48v-74h-48v-65h-86zM651 139v107h-8l-76 -107h84zM179 37l465 694l79 -53l-465 -694z" />
    <glyph glyph-name="questiondown" unicode="&#xbf;" horiz-adv-x="503" 
d="M315 254v-33q0 -24 -5 -44.5t-16 -39.5t-28.5 -38t-42.5 -41q-27 -24 -42 -44t-15 -49q0 -30 22.5 -53t61.5 -23q21 0 38 7t30 19t21 27t13 31l115 -48q-8 -28 -25.5 -56t-44 -50.5t-62.5 -36.5t-81 -14q-48 0 -88 14.5t-68.5 40t-44.5 60.5t-16 75q0 28 7 51.5t19 43.5
t28 37.5t34 34.5q34 31 46.5 54.5t12.5 58.5v16h131zM250 506q36 0 61.5 -25.5t25.5 -61.5t-25.5 -61t-61.5 -25t-61 25t-25 61t25 61.5t61 25.5z" />
    <glyph glyph-name="Agrave" unicode="&#xc0;" horiz-adv-x="716" 
d="M281 716h154l269 -716h-149l-59 171h-276l-59 -171h-149zM452 295l-64 179l-26 87h-8l-26 -87l-64 -179h188zM310 772l-89 136h153l42 -136h-106z" />
    <glyph glyph-name="Aacute" unicode="&#xc1;" horiz-adv-x="716" 
d="M281 716h154l269 -716h-149l-59 171h-276l-59 -171h-149zM452 295l-64 179l-26 87h-8l-26 -87l-64 -179h188zM300 772l42 136h153l-90 -136h-105z" />
    <glyph glyph-name="Acircumflex" unicode="&#xc2;" horiz-adv-x="716" 
d="M281 716h154l269 -716h-149l-59 171h-276l-59 -171h-149zM452 295l-64 179l-26 87h-8l-26 -87l-64 -179h188zM187 774l114 126h114l114 -126v-8h-125l-40 59h-12l-40 -59h-125v8z" />
    <glyph glyph-name="Atilde" unicode="&#xc3;" horiz-adv-x="716" 
d="M281 716h154l269 -716h-149l-59 171h-276l-59 -171h-149zM452 295l-64 179l-26 87h-8l-26 -87l-64 -179h188zM420 771q-21 0 -39 6.5t-33 15.5q-15 8 -27 14.5t-21 6.5q-25 0 -26 -29h-92q0 33 9.5 57t26 39.5t37 23.5t43.5 8q21 0 39.5 -6.5t33.5 -14.5q15 -9 27 -15.5
t20 -6.5q24 0 27 29h92q0 -33 -10 -57t-26 -39.5t-37.5 -23.5t-43.5 -8z" />
    <glyph glyph-name="Adieresis" unicode="&#xc4;" horiz-adv-x="716" 
d="M281 716h154l269 -716h-149l-59 171h-276l-59 -171h-149zM452 295l-64 179l-26 87h-8l-26 -87l-64 -179h188zM453 771q-29 0 -50 21.5t-21 50.5q0 30 21 51t50 21q31 0 51.5 -21t20.5 -51q0 -29 -20.5 -50.5t-51.5 -21.5zM263 771q-30 0 -51 21.5t-21 50.5q0 30 21 51
t51 21t50.5 -21t20.5 -51q0 -29 -20.5 -50.5t-50.5 -21.5z" />
    <glyph glyph-name="Aring" unicode="&#xc5;" horiz-adv-x="716" 
d="M263 668q-16 17 -25.5 39.5t-9.5 48.5q0 27 10 50.5t27.5 41.5t41.5 28t51 10t50.5 -10t41 -28t28 -41.5t10.5 -50.5q0 -26 -9.5 -48.5t-25.5 -39.5l251 -668h-149l-59 171h-275l-60 -171h-149zM452 295l-64 179l-26 87h-8l-26 -87l-64 -179h188zM358 716q17 0 28.5 11.5
t11.5 28.5t-11.5 28.5t-28.5 11.5t-28.5 -11.5t-11.5 -28.5t11.5 -28.5t28.5 -11.5z" />
    <glyph glyph-name="AE" unicode="&#xc6;" horiz-adv-x="1005" 
d="M4 0l418 716h531v-128h-319v-166h287v-128h-287v-166h319v-128h-454v173h-239l-98 -173h-158zM331 301h168v287h-10l-34 -70z" />
    <glyph glyph-name="Ccedilla" unicode="&#xc7;" horiz-adv-x="734" 
d="M414 -237q-37 0 -62.5 19t-36.5 47l64 27q4 -12 12.5 -20t22.5 -8q15 0 24 9.5t9 22.5t-9 23.5t-24 10.5q-9 0 -16 -4.5t-12 -9.5l-60 28l31 80q-69 9 -128 41t-101.5 81t-66.5 112.5t-24 135.5q0 79 29 147.5t79 118.5t118.5 79t148.5 29q86 0 151.5 -30t116.5 -87
l-95 -92q-32 37 -73.5 59t-98.5 22q-50 0 -94 -17.5t-76.5 -49.5t-51.5 -77.5t-19 -101.5t19 -101.5t51.5 -77.5t76.5 -49.5t94 -17.5q60 0 106.5 24.5t82.5 69.5l96 -91q-104 -126 -275 -131l-14 -31q5 1 9 1h9q38 0 65.5 -25t27.5 -70q0 -42 -29 -69t-77 -27z" />
    <glyph glyph-name="Egrave" unicode="&#xc8;" horiz-adv-x="578" 
d="M207 588v-166h287v-128h-287v-166h319v-128h-454v716h454v-128h-319zM253 772l-89 136h153l42 -136h-106z" />
    <glyph glyph-name="Eacute" unicode="&#xc9;" horiz-adv-x="578" 
d="M242 772l42 136h153l-90 -136h-105zM207 588v-166h287v-128h-287v-166h319v-128h-454v716h454v-128h-319z" />
    <glyph glyph-name="Ecircumflex" unicode="&#xca;" horiz-adv-x="578" 
d="M128 774l114 126h114l114 -126v-8h-125l-40 59h-12l-40 -59h-125v8zM207 588v-166h287v-128h-287v-166h319v-128h-454v716h454v-128h-319z" />
    <glyph glyph-name="Edieresis" unicode="&#xcb;" horiz-adv-x="578" 
d="M390 771q-29 0 -50 21.5t-21 50.5q0 30 21 51t50 21q31 0 51.5 -21t20.5 -51q0 -29 -20.5 -50.5t-51.5 -21.5zM200 771q-30 0 -51 21.5t-21 50.5q0 30 21 51t51 21t50.5 -21t20.5 -51q0 -29 -20.5 -50.5t-50.5 -21.5zM207 588v-166h287v-128h-287v-166h319v-128h-454v716
h454v-128h-319z" />
    <glyph glyph-name="Igrave" unicode="&#xcc;" horiz-adv-x="279" 
d="M72 716h135v-716h-135v716zM95 772l-89 136h153l42 -136h-106z" />
    <glyph glyph-name="Iacute" unicode="&#xcd;" horiz-adv-x="279" 
d="M72 716h135v-716h-135v716zM80 772l42 136h153l-90 -136h-105z" />
    <glyph glyph-name="Icircumflex" unicode="&#xce;" horiz-adv-x="279" 
d="M72 716h135v-716h-135v716zM-31 774l114 126h114l114 -126v-8h-125l-40 59h-12l-40 -59h-125v8z" />
    <glyph glyph-name="Idieresis" unicode="&#xcf;" horiz-adv-x="279" 
d="M53 774q-29 0 -49 20.5t-20 48.5q0 29 20 49t49 20t49 -20t20 -49q0 -28 -20 -48.5t-49 -20.5zM226 774q-28 0 -48.5 20.5t-20.5 48.5q0 29 20.5 49t48.5 20q29 0 49 -20t20 -49q0 -28 -20 -48.5t-49 -20.5zM72 716h135v-716h-135v716z" />
    <glyph glyph-name="Eth" unicode="&#xd0;" horiz-adv-x="779" 
d="M132 302h-76v110h76v304h242q85 0 153 -26t116 -73.5t73.5 -113.5t25.5 -145q0 -80 -25.5 -146t-73.5 -113t-116 -73t-153 -26h-242v302zM368 128q59 0 104 16.5t75 46.5t45 72.5t15 94.5t-15 94.5t-45 72.5t-75 46.5t-104 16.5h-101v-176h184v-110h-184v-174h101z" />
    <glyph glyph-name="Ntilde" unicode="&#xd1;" horiz-adv-x="723" 
d="M72 716h157l288 -480h8l-8 138v342h134v-716h-142l-304 507h-8l8 -138v-369h-133v716zM430 771q-21 0 -39 6.5t-33 15.5q-15 8 -27 14.5t-21 6.5q-25 0 -26 -29h-92q0 33 9.5 57t26 39.5t37 23.5t43.5 8q21 0 39.5 -6.5t33.5 -14.5q15 -9 27 -15.5t20 -6.5q24 0 27 29h92
q0 -33 -10 -57t-26 -39.5t-37.5 -23.5t-43.5 -8z" />
    <glyph glyph-name="Ograve" unicode="&#xd2;" horiz-adv-x="822" 
d="M411 -16q-80 0 -148.5 29t-118.5 79.5t-78.5 119t-28.5 146.5t28.5 146.5t78.5 119t118.5 79.5t148.5 29t148.5 -29t118.5 -79.5t78.5 -119t28.5 -146.5t-28.5 -146.5t-78.5 -119t-118.5 -79.5t-148.5 -29zM411 112q50 0 93.5 18t76 50t51 77.5t18.5 100.5t-18.5 100.5
t-51 77.5t-76 50t-93.5 18t-93.5 -18t-76 -50t-51 -77.5t-18.5 -100.5t18.5 -100.5t51 -77.5t76 -50t93.5 -18zM357 772l-89 136h153l42 -136h-106z" />
    <glyph glyph-name="Oacute" unicode="&#xd3;" horiz-adv-x="822" 
d="M358 772l42 136h153l-90 -136h-105zM411 -16q-80 0 -148.5 29t-118.5 79.5t-78.5 119t-28.5 146.5t28.5 146.5t78.5 119t118.5 79.5t148.5 29t148.5 -29t118.5 -79.5t78.5 -119t28.5 -146.5t-28.5 -146.5t-78.5 -119t-118.5 -79.5t-148.5 -29zM411 112q50 0 93.5 18
t76 50t51 77.5t18.5 100.5t-18.5 100.5t-51 77.5t-76 50t-93.5 18t-93.5 -18t-76 -50t-51 -77.5t-18.5 -100.5t18.5 -100.5t51 -77.5t76 -50t93.5 -18z" />
    <glyph glyph-name="Ocircumflex" unicode="&#xd4;" horiz-adv-x="822" 
d="M240 775l114 126h114l114 -126v-8h-125l-40 59h-12l-40 -59h-125v8zM411 -16q-80 0 -148.5 29t-118.5 79.5t-78.5 119t-28.5 146.5t28.5 146.5t78.5 119t118.5 79.5t148.5 29t148.5 -29t118.5 -79.5t78.5 -119t28.5 -146.5t-28.5 -146.5t-78.5 -119t-118.5 -79.5
t-148.5 -29zM411 112q50 0 93.5 18t76 50t51 77.5t18.5 100.5t-18.5 100.5t-51 77.5t-76 50t-93.5 18t-93.5 -18t-76 -50t-51 -77.5t-18.5 -100.5t18.5 -100.5t51 -77.5t76 -50t93.5 -18z" />
    <glyph glyph-name="Otilde" unicode="&#xd5;" horiz-adv-x="822" 
d="M411 -16q-80 0 -148.5 29t-118.5 79.5t-78.5 119t-28.5 146.5t28.5 146.5t78.5 119t118.5 79.5t148.5 29t148.5 -29t118.5 -79.5t78.5 -119t28.5 -146.5t-28.5 -146.5t-78.5 -119t-118.5 -79.5t-148.5 -29zM411 112q50 0 93.5 18t76 50t51 77.5t18.5 100.5t-18.5 100.5
t-51 77.5t-76 50t-93.5 18t-93.5 -18t-76 -50t-51 -77.5t-18.5 -100.5t18.5 -100.5t51 -77.5t76 -50t93.5 -18zM472 771q-21 0 -39 6.5t-33 15.5q-15 8 -27 14.5t-21 6.5q-25 0 -26 -29h-92q0 33 9.5 57t26 39.5t37 23.5t43.5 8q21 0 39.5 -6.5t33.5 -14.5q15 -9 27 -15.5
t20 -6.5q24 0 27 29h92q0 -33 -10 -57t-26 -39.5t-37.5 -23.5t-43.5 -8z" />
    <glyph glyph-name="Odieresis" unicode="&#xd6;" horiz-adv-x="822" 
d="M506 771q-29 0 -50 21.5t-21 50.5q0 30 21 51t50 21q31 0 51.5 -21t20.5 -51q0 -29 -20.5 -50.5t-51.5 -21.5zM316 771q-30 0 -51 21.5t-21 50.5q0 30 21 51t51 21t50.5 -21t20.5 -51q0 -29 -20.5 -50.5t-50.5 -21.5zM411 -16q-80 0 -148.5 29t-118.5 79.5t-78.5 119
t-28.5 146.5t28.5 146.5t78.5 119t118.5 79.5t148.5 29t148.5 -29t118.5 -79.5t78.5 -119t28.5 -146.5t-28.5 -146.5t-78.5 -119t-118.5 -79.5t-148.5 -29zM411 112q50 0 93.5 18t76 50t51 77.5t18.5 100.5t-18.5 100.5t-51 77.5t-76 50t-93.5 18t-93.5 -18t-76 -50
t-51 -77.5t-18.5 -100.5t18.5 -100.5t51 -77.5t76 -50t93.5 -18z" />
    <glyph glyph-name="multiply" unicode="&#xd7;" horiz-adv-x="611" 
d="M223 271l-163 156l81 81l165 -158l164 158l81 -81l-163 -156l163 -156l-81 -81l-164 158l-165 -158l-81 81z" />
    <glyph glyph-name="Oslash" unicode="&#xd8;" horiz-adv-x="822" 
d="M411 -16q-42 0 -79.5 8t-71.5 22l-38 -61l-91 59l36 58q-61 51 -95.5 125.5t-34.5 162.5q0 78 28.5 146.5t78.5 119t118.5 79.5t148.5 29q41 0 78.5 -8t72.5 -22l38 61l91 -59l-37 -59q61 -51 96 -125t35 -162q0 -78 -28.5 -146.5t-78.5 -119t-118.5 -79.5t-148.5 -29z
M411 604q-50 0 -93.5 -18t-76 -50t-51 -77.5t-18.5 -100.5q0 -54 17.5 -98.5t48.5 -76.5l254 408q-19 7 -39.5 10t-41.5 3zM411 112q50 0 93.5 18t76 50t51 77.5t18.5 100.5q0 54 -17.5 98t-48.5 76l-255 -407q20 -6 40 -9.5t42 -3.5z" />
    <glyph glyph-name="Ugrave" unicode="&#xd9;" horiz-adv-x="669" 
d="M334 -16q-63 0 -114.5 20.5t-87.5 59.5t-56 94.5t-20 126.5v431h135v-439q0 -36 9 -66t27 -52t45 -34.5t62 -12.5q36 0 63 12.5t45 34.5t27 52t9 66v439h135v-431q0 -67 -19.5 -122.5t-56 -95t-88 -61.5t-115.5 -22zM287 772l-89 136h153l42 -136h-106z" />
    <glyph glyph-name="Uacute" unicode="&#xda;" horiz-adv-x="669" 
d="M277 772l42 136h153l-90 -136h-105zM334 -16q-63 0 -114.5 20.5t-87.5 59.5t-56 94.5t-20 126.5v431h135v-439q0 -36 9 -66t27 -52t45 -34.5t62 -12.5q36 0 63 12.5t45 34.5t27 52t9 66v439h135v-431q0 -67 -19.5 -122.5t-56 -95t-88 -61.5t-115.5 -22z" />
    <glyph glyph-name="Ucircumflex" unicode="&#xdb;" horiz-adv-x="669" 
d="M163 774l114 126h114l114 -126v-8h-125l-40 59h-12l-40 -59h-125v8zM334 -16q-63 0 -114.5 20.5t-87.5 59.5t-56 94.5t-20 126.5v431h135v-439q0 -36 9 -66t27 -52t45 -34.5t62 -12.5q36 0 63 12.5t45 34.5t27 52t9 66v439h135v-431q0 -67 -19.5 -122.5t-56 -95
t-88 -61.5t-115.5 -22z" />
    <glyph glyph-name="Udieresis" unicode="&#xdc;" horiz-adv-x="669" 
d="M429 771q-29 0 -50 21.5t-21 50.5q0 30 21 51t50 21q31 0 51.5 -21t20.5 -51q0 -29 -20.5 -50.5t-51.5 -21.5zM239 771q-30 0 -51 21.5t-21 50.5q0 30 21 51t51 21t50.5 -21t20.5 -51q0 -29 -20.5 -50.5t-50.5 -21.5zM334 -16q-63 0 -114.5 20.5t-87.5 59.5t-56 94.5
t-20 126.5v431h135v-439q0 -36 9 -66t27 -52t45 -34.5t62 -12.5q36 0 63 12.5t45 34.5t27 52t9 66v439h135v-431q0 -67 -19.5 -122.5t-56 -95t-88 -61.5t-115.5 -22z" />
    <glyph glyph-name="Yacute" unicode="&#xdd;" horiz-adv-x="637" 
d="M253 333l-241 383h161l143 -237h8l138 237h163l-237 -383v-333h-135v333zM262 772l42 136h153l-90 -136h-105z" />
    <glyph glyph-name="Thorn" unicode="&#xde;" horiz-adv-x="592" 
d="M72 0v716h135v-108h117q51 0 95.5 -16.5t77.5 -46.5t52 -72t19 -92t-19 -91.5t-52 -71.5t-77.5 -46.5t-95.5 -16.5h-117v-155h-135zM207 480v-197h119q54 0 80.5 29.5t26.5 68.5t-27 69t-80 30h-119z" />
    <glyph glyph-name="germandbls" unicode="&#xdf;" horiz-adv-x="585" 
d="M439 383q54 -23 84 -66.5t30 -109.5q0 -48 -17 -87.5t-47.5 -68t-73 -44t-93.5 -15.5q-16 0 -30 1t-29 3v121q23 -4 51 -4q46 0 77 28t31 76q0 24 -9.5 43.5t-26 33.5t-38.5 22t-46 8h-28v115h20q46 0 72.5 25t26.5 65q0 35 -26.5 58.5t-66.5 23.5q-46 0 -71.5 -30
t-25.5 -76v-505h-131v507q0 48 16 89.5t45.5 71.5t71.5 47t95 17q48 0 88 -14t69 -39t45.5 -60.5t16.5 -77.5q0 -52 -23.5 -90.5t-56.5 -59.5v-8z" />
    <glyph glyph-name="agrave" unicode="&#xe0;" horiz-adv-x="535" 
d="M358 52h-8q-23 -28 -55.5 -48t-83.5 -20q-38 0 -71.5 12.5t-58.5 34.5t-39 53t-14 68q0 38 15 68.5t42 52.5t63.5 33.5t79.5 11.5q48 0 79 -7.5t51 -15.5v15q0 39 -31 64.5t-77 25.5q-68 0 -115 -57l-95 65q78 98 213 98q114 0 174 -53.5t60 -158.5v-294h-129v52z
M358 199q-23 11 -47.5 17.5t-53.5 6.5q-47 0 -72.5 -20.5t-25.5 -50.5t24.5 -48t56.5 -18q26 0 48 9.5t37.5 25t24 36t8.5 42.5zM222 588l-89 136h153l42 -136h-106z" />
    <glyph glyph-name="aacute" unicode="&#xe1;" horiz-adv-x="535" 
d="M358 52h-8q-23 -28 -55.5 -48t-83.5 -20q-38 0 -71.5 12.5t-58.5 34.5t-39 53t-14 68q0 38 15 68.5t42 52.5t63.5 33.5t79.5 11.5q48 0 79 -7.5t51 -15.5v15q0 39 -31 64.5t-77 25.5q-68 0 -115 -57l-95 65q78 98 213 98q114 0 174 -53.5t60 -158.5v-294h-129v52z
M358 199q-23 11 -47.5 17.5t-53.5 6.5q-47 0 -72.5 -20.5t-25.5 -50.5t24.5 -48t56.5 -18q26 0 48 9.5t37.5 25t24 36t8.5 42.5zM207 588l42 136h153l-90 -136h-105z" />
    <glyph glyph-name="acircumflex" unicode="&#xe2;" horiz-adv-x="535" 
d="M358 52h-8q-23 -28 -55.5 -48t-83.5 -20q-38 0 -71.5 12.5t-58.5 34.5t-39 53t-14 68q0 38 15 68.5t42 52.5t63.5 33.5t79.5 11.5q48 0 79 -7.5t51 -15.5v15q0 39 -31 64.5t-77 25.5q-68 0 -115 -57l-95 65q78 98 213 98q114 0 174 -53.5t60 -158.5v-294h-129v52z
M358 199q-23 11 -47.5 17.5t-53.5 6.5q-47 0 -72.5 -20.5t-25.5 -50.5t24.5 -48t56.5 -18q26 0 48 9.5t37.5 25t24 36t8.5 42.5zM90 590l114 126h114l114 -126v-8h-125l-40 59h-12l-40 -59h-125v8z" />
    <glyph glyph-name="atilde" unicode="&#xe3;" horiz-adv-x="535" 
d="M358 52h-8q-23 -28 -55.5 -48t-83.5 -20q-38 0 -71.5 12.5t-58.5 34.5t-39 53t-14 68q0 38 15 68.5t42 52.5t63.5 33.5t79.5 11.5q48 0 79 -7.5t51 -15.5v15q0 39 -31 64.5t-77 25.5q-68 0 -115 -57l-95 65q78 98 213 98q114 0 174 -53.5t60 -158.5v-294h-129v52z
M358 199q-23 11 -47.5 17.5t-53.5 6.5q-47 0 -72.5 -20.5t-25.5 -50.5t24.5 -48t56.5 -18q26 0 48 9.5t37.5 25t24 36t8.5 42.5zM332 588q-21 0 -39 6.5t-33 15.5q-15 8 -27 14.5t-21 6.5q-25 0 -26 -29h-92q0 33 9.5 57t26 39.5t37 23.5t43.5 8q21 0 39.5 -6.5t33.5 -14.5
q15 -9 27 -15.5t20 -6.5q24 0 27 29h92q0 -33 -10 -57t-26 -39.5t-37.5 -23.5t-43.5 -8z" />
    <glyph glyph-name="adieresis" unicode="&#xe4;" horiz-adv-x="535" 
d="M358 52h-8q-23 -28 -55.5 -48t-83.5 -20q-38 0 -71.5 12.5t-58.5 34.5t-39 53t-14 68q0 38 15 68.5t42 52.5t63.5 33.5t79.5 11.5q48 0 79 -7.5t51 -15.5v15q0 39 -31 64.5t-77 25.5q-68 0 -115 -57l-95 65q78 98 213 98q114 0 174 -53.5t60 -158.5v-294h-129v52z
M358 199q-23 11 -47.5 17.5t-53.5 6.5q-47 0 -72.5 -20.5t-25.5 -50.5t24.5 -48t56.5 -18q26 0 48 9.5t37.5 25t24 36t8.5 42.5zM364 587q-29 0 -50 21.5t-21 50.5q0 30 21 51t50 21q31 0 51.5 -21t20.5 -51q0 -29 -20.5 -50.5t-51.5 -21.5zM174 587q-30 0 -51 21.5
t-21 50.5q0 30 21 51t51 21t50.5 -21t20.5 -51q0 -29 -20.5 -50.5t-50.5 -21.5z" />
    <glyph glyph-name="aring" unicode="&#xe5;" horiz-adv-x="535" 
d="M358 52h-8q-23 -28 -55.5 -48t-83.5 -20q-38 0 -71.5 12.5t-58.5 34.5t-39 53t-14 68q0 38 15 68.5t42 52.5t63.5 33.5t79.5 11.5q48 0 79 -7.5t51 -15.5v15q0 39 -31 64.5t-77 25.5q-68 0 -115 -57l-95 65q78 98 213 98q114 0 174 -53.5t60 -158.5v-294h-129v52z
M358 199q-23 11 -47.5 17.5t-53.5 6.5q-47 0 -72.5 -20.5t-25.5 -50.5t24.5 -48t56.5 -18q26 0 48 9.5t37.5 25t24 36t8.5 42.5zM270 561q-23 0 -42.5 8.5t-34 23t-23 34t-8.5 42.5q0 22 8.5 42t23 34.5t34 23t42.5 8.5q22 0 42 -8.5t34.5 -23t23 -34.5t8.5 -42
q0 -23 -8.5 -42.5t-23 -34t-34.5 -23t-42 -8.5zM270 634q14 0 24.5 10.5t10.5 24.5t-10.5 24.5t-24.5 10.5t-24.5 -10.5t-10.5 -24.5t10.5 -24.5t24.5 -10.5z" />
    <glyph glyph-name="ae" unicode="&#xe6;" horiz-adv-x="887" 
d="M619 -16q-62 0 -111.5 26.5t-85.5 72.5q-77 -99 -204 -99q-42 0 -76.5 12.5t-60 34.5t-39.5 53t-14 68q0 38 15 68.5t42 52.5t63.5 33.5t79.5 11.5q48 0 79 -7.5t51 -15.5v9q0 44 -30.5 70t-75.5 26q-72 0 -98 -56l-102 45q29 57 80 87t123 30q61 0 106.5 -22t75.5 -61
q32 40 77.5 61.5t100.5 21.5q59 0 104.5 -19.5t76.5 -54t47 -81.5t16 -102v-12q-1 -6 -1 -11q-1 -5 -1 -11h-370q4 -30 17 -51.5t31.5 -36t40.5 -21t45 -6.5q45 0 74.5 20.5t47.5 51.5l108 -54q-33 -60 -91 -97t-141 -37zM240 86q26 0 48 9.5t37.5 25t24 36t8.5 42.5
q-23 11 -47.5 17.5t-53.5 6.5q-47 0 -72.5 -20.5t-25.5 -50.5t24.5 -48t56.5 -18zM733 308q-2 13 -9.5 29t-22 30t-36 23t-51.5 9q-42 0 -75 -24t-46 -67h240z" />
    <glyph glyph-name="ccedilla" unicode="&#xe7;" horiz-adv-x="545" 
d="M294 -237q-36 0 -62 19t-37 47l64 27q4 -12 13 -20t22 -8q16 0 24.5 9.5t8.5 22.5t-8.5 23.5t-24.5 10.5q-9 0 -15.5 -4.5t-11.5 -9.5l-61 28l31 81q-47 8 -85 30t-66 55.5t-43 77t-15 93.5q0 57 19.5 105t54 82.5t82 54t104.5 19.5q85 0 143 -39t85 -101l-120 -50
q-17 34 -43.5 51.5t-66.5 17.5q-26 0 -49 -10t-40.5 -28t-27.5 -44t-10 -58t10 -58t27.5 -44t40.5 -28t49 -10q41 0 69.5 18.5t45.5 53.5l120 -52q-30 -60 -84 -98t-134 -43l-14 -31q5 1 9 1h9q39 0 66.5 -25t27.5 -70q0 -42 -29.5 -69t-77.5 -27z" />
    <glyph glyph-name="egrave" unicode="&#xe8;" horiz-adv-x="556" 
d="M520 118q-34 -60 -91.5 -97t-140.5 -37q-56 0 -103.5 19.5t-82.5 54.5t-54.5 82.5t-19.5 104.5q0 53 19 100.5t53 83t80.5 56.5t102.5 21q59 0 105 -19.5t77 -54t47 -81.5t16 -102v-12q-1 -6 -1 -11q-1 -5 -1 -11h-369q4 -30 16.5 -51.5t31 -36t40.5 -21t45 -6.5
q45 0 74.5 20.5t46.5 51.5zM401 308q-1 13 -8.5 29t-22 30t-36 23t-51.5 9q-42 0 -74 -24t-45 -67h237zM228 588l-89 136h153l42 -136h-106z" />
    <glyph glyph-name="eacute" unicode="&#xe9;" horiz-adv-x="556" 
d="M220 588l42 136h153l-90 -136h-105zM520 118q-34 -60 -91.5 -97t-140.5 -37q-56 0 -103.5 19.5t-82.5 54.5t-54.5 82.5t-19.5 104.5q0 53 19 100.5t53 83t80.5 56.5t102.5 21q59 0 105 -19.5t77 -54t47 -81.5t16 -102v-12q-1 -6 -1 -11q-1 -5 -1 -11h-369
q4 -30 16.5 -51.5t31 -36t40.5 -21t45 -6.5q45 0 74.5 20.5t46.5 51.5zM401 308q-1 13 -8.5 29t-22 30t-36 23t-51.5 9q-42 0 -74 -24t-45 -67h237z" />
    <glyph glyph-name="ecircumflex" unicode="&#xea;" horiz-adv-x="556" 
d="M110 581l114 126h114l114 -126v-8h-125l-40 59h-12l-40 -59h-125v8zM520 118q-34 -60 -91.5 -97t-140.5 -37q-56 0 -103.5 19.5t-82.5 54.5t-54.5 82.5t-19.5 104.5q0 53 19 100.5t53 83t80.5 56.5t102.5 21q59 0 105 -19.5t77 -54t47 -81.5t16 -102v-12q-1 -6 -1 -11
q-1 -5 -1 -11h-369q4 -30 16.5 -51.5t31 -36t40.5 -21t45 -6.5q45 0 74.5 20.5t46.5 51.5zM401 308q-1 13 -8.5 29t-22 30t-36 23t-51.5 9q-42 0 -74 -24t-45 -67h237z" />
    <glyph glyph-name="edieresis" unicode="&#xeb;" horiz-adv-x="556" 
d="M371 587q-29 0 -50 21.5t-21 50.5q0 30 21 51t50 21q31 0 51.5 -21t20.5 -51q0 -29 -20.5 -50.5t-51.5 -21.5zM181 587q-30 0 -51 21.5t-21 50.5q0 30 21 51t51 21t50.5 -21t20.5 -51q0 -29 -20.5 -50.5t-50.5 -21.5zM520 118q-34 -60 -91.5 -97t-140.5 -37
q-56 0 -103.5 19.5t-82.5 54.5t-54.5 82.5t-19.5 104.5q0 53 19 100.5t53 83t80.5 56.5t102.5 21q59 0 105 -19.5t77 -54t47 -81.5t16 -102v-12q-1 -6 -1 -11q-1 -5 -1 -11h-369q4 -30 16.5 -51.5t31 -36t40.5 -21t45 -6.5q45 0 74.5 20.5t46.5 51.5zM401 308q-1 13 -8.5 29
t-22 30t-36 23t-51.5 9q-42 0 -74 -24t-45 -67h237z" />
    <glyph glyph-name="igrave" unicode="&#xec;" horiz-adv-x="259" 
d="M64 0v490h131v-490h-131zM79 588l-89 136h153l42 -136h-106z" />
    <glyph glyph-name="iacute" unicode="&#xed;" horiz-adv-x="259" 
d="M76 588l42 136h153l-90 -136h-105zM64 0v490h131v-490h-131z" />
    <glyph glyph-name="icircumflex" unicode="&#xee;" horiz-adv-x="259" 
d="M-41 590l114 126h114l114 -126v-8h-125l-40 59h-12l-40 -59h-125v8zM64 0v490h131v-490h-131z" />
    <glyph glyph-name="idieresis" unicode="&#xef;" horiz-adv-x="259" 
d="M45 590q-28 0 -48.5 20.5t-20.5 48.5q0 29 20.5 49t48.5 20q29 0 49 -20t20 -49q0 -28 -20 -48.5t-49 -20.5zM213 590q-28 0 -48.5 20.5t-20.5 48.5q0 29 20.5 49t48.5 20q29 0 49 -20t20 -49q0 -28 -20 -48.5t-49 -20.5zM64 0v490h131v-490h-131z" />
    <glyph glyph-name="eth" unicode="&#xf0;" horiz-adv-x="578" 
d="M156 724q103 -25 176 -70l102 45l34 -79l-60 -27q66 -64 98 -149.5t32 -186.5q0 -63 -19 -113.5t-52.5 -86t-80 -54.5t-101.5 -19q-51 0 -95.5 18.5t-77.5 51.5t-52.5 78t-19.5 98q0 54 19.5 99t51.5 77.5t74 50t86 17.5q37 0 63.5 -10t42.5 -24l7 5q-13 31 -34.5 56
t-47.5 45l-125 -55l-34 79l62 28q-23 9 -45.5 15.5t-44.5 11.5zM287 101q24 0 46 9t38.5 26t26 41t9.5 53t-9.5 52.5t-25.5 40.5t-38 26t-46 9q-25 0 -47 -9t-38.5 -26t-26.5 -40.5t-10 -52.5t10 -53t26.5 -41t38.5 -26t46 -9z" />
    <glyph glyph-name="ntilde" unicode="&#xf1;" 
d="M179 426h8q23 37 62 58.5t89 21.5q46 0 81 -15t57.5 -42.5t34 -66t11.5 -85.5v-297h-131v281q0 53 -23.5 78.5t-68.5 25.5q-27 0 -47.5 -11.5t-35 -31t-22 -46t-7.5 -56.5v-240h-131v490h123v-64zM354 588q-21 0 -39 6.5t-33 15.5q-15 8 -27 14.5t-21 6.5q-25 0 -26 -29
h-92q0 33 9.5 57t26 39.5t37 23.5t43.5 8q21 0 39.5 -6.5t33.5 -14.5q15 -9 27 -15.5t20 -6.5q24 0 27 29h92q0 -33 -10 -57t-26 -39.5t-37.5 -23.5t-43.5 -8z" />
    <glyph glyph-name="ograve" unicode="&#xf2;" horiz-adv-x="576" 
d="M288 506q57 0 104.5 -19.5t82 -54t54 -82.5t19.5 -105t-19.5 -105t-54 -82.5t-82 -54t-104.5 -19.5t-104.5 19.5t-82 54t-54 82.5t-19.5 105t19.5 105t54 82.5t82 54t104.5 19.5zM288 105q25 0 48.5 9.5t41.5 27.5t28.5 44t10.5 59t-10.5 59t-28.5 44t-41.5 27.5
t-48.5 9.5q-26 0 -49 -9.5t-41 -27.5t-28.5 -44t-10.5 -59t10.5 -59t28.5 -44t41 -27.5t49 -9.5zM229 588l-89 136h153l42 -136h-106z" />
    <glyph glyph-name="oacute" unicode="&#xf3;" horiz-adv-x="576" 
d="M233 588l42 136h153l-90 -136h-105zM288 506q57 0 104.5 -19.5t82 -54t54 -82.5t19.5 -105t-19.5 -105t-54 -82.5t-82 -54t-104.5 -19.5t-104.5 19.5t-82 54t-54 82.5t-19.5 105t19.5 105t54 82.5t82 54t104.5 19.5zM288 105q25 0 48.5 9.5t41.5 27.5t28.5 44t10.5 59
t-10.5 59t-28.5 44t-41.5 27.5t-48.5 9.5q-26 0 -49 -9.5t-41 -27.5t-28.5 -44t-10.5 -59t10.5 -59t28.5 -44t41 -27.5t49 -9.5z" />
    <glyph glyph-name="ocircumflex" unicode="&#xf4;" horiz-adv-x="576" 
d="M117 590l114 126h114l114 -126v-8h-125l-40 59h-12l-40 -59h-125v8zM288 506q57 0 104.5 -19.5t82 -54t54 -82.5t19.5 -105t-19.5 -105t-54 -82.5t-82 -54t-104.5 -19.5t-104.5 19.5t-82 54t-54 82.5t-19.5 105t19.5 105t54 82.5t82 54t104.5 19.5zM288 105
q25 0 48.5 9.5t41.5 27.5t28.5 44t10.5 59t-10.5 59t-28.5 44t-41.5 27.5t-48.5 9.5q-26 0 -49 -9.5t-41 -27.5t-28.5 -44t-10.5 -59t10.5 -59t28.5 -44t41 -27.5t49 -9.5z" />
    <glyph glyph-name="otilde" unicode="&#xf5;" horiz-adv-x="576" 
d="M288 506q57 0 104.5 -19.5t82 -54t54 -82.5t19.5 -105t-19.5 -105t-54 -82.5t-82 -54t-104.5 -19.5t-104.5 19.5t-82 54t-54 82.5t-19.5 105t19.5 105t54 82.5t82 54t104.5 19.5zM288 105q25 0 48.5 9.5t41.5 27.5t28.5 44t10.5 59t-10.5 59t-28.5 44t-41.5 27.5
t-48.5 9.5q-26 0 -49 -9.5t-41 -27.5t-28.5 -44t-10.5 -59t10.5 -59t28.5 -44t41 -27.5t49 -9.5zM349 588q-21 0 -39 6.5t-33 15.5q-15 8 -27 14.5t-21 6.5q-25 0 -26 -29h-92q0 33 9.5 57t26 39.5t37 23.5t43.5 8q21 0 39.5 -6.5t33.5 -14.5q15 -9 27 -15.5t20 -6.5
q24 0 27 29h92q0 -33 -10 -57t-26 -39.5t-37.5 -23.5t-43.5 -8z" />
    <glyph glyph-name="odieresis" unicode="&#xf6;" horiz-adv-x="576" 
d="M383 587q-29 0 -50 21.5t-21 50.5q0 30 21 51t50 21q31 0 51.5 -21t20.5 -51q0 -29 -20.5 -50.5t-51.5 -21.5zM193 587q-30 0 -51 21.5t-21 50.5q0 30 21 51t51 21t50.5 -21t20.5 -51q0 -29 -20.5 -50.5t-50.5 -21.5zM288 506q57 0 104.5 -19.5t82 -54t54 -82.5
t19.5 -105t-19.5 -105t-54 -82.5t-82 -54t-104.5 -19.5t-104.5 19.5t-82 54t-54 82.5t-19.5 105t19.5 105t54 82.5t82 54t104.5 19.5zM288 105q25 0 48.5 9.5t41.5 27.5t28.5 44t10.5 59t-10.5 59t-28.5 44t-41.5 27.5t-48.5 9.5q-26 0 -49 -9.5t-41 -27.5t-28.5 -44
t-10.5 -59t10.5 -59t28.5 -44t41 -27.5t49 -9.5z" />
    <glyph glyph-name="divide" unicode="&#xf7;" horiz-adv-x="569" 
d="M56 217v108h457v-108h-457zM284 -8q-34 0 -58 24t-24 58t24 58t58 24q35 0 58.5 -24t23.5 -58t-23.5 -58t-58.5 -24zM284 386q-34 0 -58 24t-24 58t24 58t58 24q35 0 58.5 -24t23.5 -58t-23.5 -58t-58.5 -24z" />
    <glyph glyph-name="oslash" unicode="&#xf8;" horiz-adv-x="576" 
d="M288 506q50 0 94 -15l26 42l90 -51l-28 -45q37 -35 57.5 -84t20.5 -108q0 -57 -19.5 -105t-54 -82.5t-82 -54t-104.5 -19.5q-25 0 -48 4t-44 11l-25 -41l-90 51l26 42q-38 35 -58.5 84.5t-20.5 109.5q0 57 19.5 105t54 82.5t82 54t104.5 19.5zM149 245q0 -26 6.5 -48.5
t17.5 -39.5l145 233q-13 4 -30 4q-27 0 -52.5 -10t-44.5 -29.5t-30.5 -47t-11.5 -62.5zM288 96q27 0 52.5 10t44.5 29.5t30.5 47t11.5 62.5q0 49 -23 86l-145 -232q15 -3 29 -3z" />
    <glyph glyph-name="ugrave" unicode="&#xf9;" 
d="M395 64h-8q-23 -37 -62 -58.5t-89 -21.5q-93 0 -138.5 57t-45.5 152v297h131v-281q0 -53 23.5 -78.5t68.5 -25.5q27 0 47.5 11.5t35 31t22 46t7.5 56.5v240h131v-490h-123v64zM240 588l-89 136h153l42 -136h-106z" />
    <glyph glyph-name="uacute" unicode="&#xfa;" 
d="M228 588l42 136h153l-90 -136h-105zM395 64h-8q-23 -37 -62 -58.5t-89 -21.5q-93 0 -138.5 57t-45.5 152v297h131v-281q0 -53 23.5 -78.5t68.5 -25.5q27 0 47.5 11.5t35 31t22 46t7.5 56.5v240h131v-490h-123v64z" />
    <glyph glyph-name="ucircumflex" unicode="&#xfb;" 
d="M116 575l114 126h114l114 -126v-8h-125l-40 59h-12l-40 -59h-125v8zM395 64h-8q-23 -37 -62 -58.5t-89 -21.5q-93 0 -138.5 57t-45.5 152v297h131v-281q0 -53 23.5 -78.5t68.5 -25.5q27 0 47.5 11.5t35 31t22 46t7.5 56.5v240h131v-490h-123v64z" />
    <glyph glyph-name="udieresis" unicode="&#xfc;" 
d="M384 587q-29 0 -50 21.5t-21 50.5q0 30 21 51t50 21q31 0 51.5 -21t20.5 -51q0 -29 -20.5 -50.5t-51.5 -21.5zM194 587q-30 0 -51 21.5t-21 50.5q0 30 21 51t51 21t50.5 -21t20.5 -51q0 -29 -20.5 -50.5t-50.5 -21.5zM395 64h-8q-23 -37 -62 -58.5t-89 -21.5
q-93 0 -138.5 57t-45.5 152v297h131v-281q0 -53 23.5 -78.5t68.5 -25.5q27 0 47.5 11.5t35 31t22 46t7.5 56.5v240h131v-490h-123v64z" />
    <glyph glyph-name="yacute" unicode="&#xfd;" horiz-adv-x="553" 
d="M210 24l-206 466h149l124 -297h7l119 297h146l-307 -706h-141zM227 588l42 136h153l-90 -136h-105z" />
    <glyph glyph-name="thorn" unicode="&#xfe;" horiz-adv-x="600" 
d="M337 -16q-56 0 -94 22t-56 53h-8l8 -70v-205h-131v932h131v-215l-8 -70h8q18 31 56 53t94 22q47 0 89.5 -19.5t75 -54t51.5 -82.5t19 -105t-19 -105t-51.5 -82.5t-75 -54t-89.5 -19.5zM310 105q26 0 49.5 10t41.5 28t29 44t11 58t-11 58t-29 44t-41.5 28t-49.5 10
t-49.5 -9.5t-41.5 -27.5t-29 -44t-11 -59t11 -59t29 -44t41.5 -27.5t49.5 -9.5z" />
    <glyph glyph-name="ydieresis" unicode="&#xff;" horiz-adv-x="553" 
d="M210 24l-206 466h149l124 -297h7l119 297h146l-307 -706h-141zM373 587q-29 0 -50 21.5t-21 50.5q0 30 21 51t50 21q31 0 51.5 -21t20.5 -51q0 -29 -20.5 -50.5t-51.5 -21.5zM183 587q-30 0 -51 21.5t-21 50.5q0 30 21 51t51 21t50.5 -21t20.5 -51q0 -29 -20.5 -50.5
t-50.5 -21.5z" />
    <glyph glyph-name="Amacron" unicode="&#x100;" horiz-adv-x="716" 
d="M281 716h154l269 -716h-149l-59 171h-276l-59 -171h-149zM452 295l-64 179l-26 87h-8l-26 -87l-64 -179h188zM210 793v100h296v-100h-296z" />
    <glyph glyph-name="amacron" unicode="&#x101;" horiz-adv-x="535" 
d="M358 52h-8q-23 -28 -55.5 -48t-83.5 -20q-38 0 -71.5 12.5t-58.5 34.5t-39 53t-14 68q0 38 15 68.5t42 52.5t63.5 33.5t79.5 11.5q48 0 79 -7.5t51 -15.5v15q0 39 -31 64.5t-77 25.5q-68 0 -115 -57l-95 65q78 98 213 98q114 0 174 -53.5t60 -158.5v-294h-129v52z
M358 199q-23 11 -47.5 17.5t-53.5 6.5q-47 0 -72.5 -20.5t-25.5 -50.5t24.5 -48t56.5 -18q26 0 48 9.5t37.5 25t24 36t8.5 42.5zM126 609v100h296v-100h-296z" />
    <glyph glyph-name="Abreve" unicode="&#x102;" horiz-adv-x="716" 
d="M281 716h154l269 -716h-149l-59 171h-276l-59 -171h-149zM452 295l-64 179l-26 87h-8l-26 -87l-64 -179h188zM359 763q-27 0 -52 10t-43.5 28t-30 43t-11.5 55h93q0 -18 11.5 -32t32.5 -14q20 0 31.5 14t11.5 32h92q0 -30 -11 -55t-29.5 -43t-43 -28t-51.5 -10z" />
    <glyph glyph-name="abreve" unicode="&#x103;" horiz-adv-x="535" 
d="M358 52h-8q-23 -28 -55.5 -48t-83.5 -20q-38 0 -71.5 12.5t-58.5 34.5t-39 53t-14 68q0 38 15 68.5t42 52.5t63.5 33.5t79.5 11.5q48 0 79 -7.5t51 -15.5v15q0 39 -31 64.5t-77 25.5q-68 0 -115 -57l-95 65q78 98 213 98q114 0 174 -53.5t60 -158.5v-294h-129v52z
M358 199q-23 11 -47.5 17.5t-53.5 6.5q-47 0 -72.5 -20.5t-25.5 -50.5t24.5 -48t56.5 -18q26 0 48 9.5t37.5 25t24 36t8.5 42.5zM270 579q-27 0 -52 10t-43.5 28t-30 43t-11.5 55h93q0 -18 11.5 -32t32.5 -14q20 0 31.5 14t11.5 32h92q0 -30 -11 -55t-29.5 -43t-43 -28
t-51.5 -10z" />
    <glyph glyph-name="Aogonek" unicode="&#x104;" horiz-adv-x="716" 
d="M496 171h-276l-59 -171h-149l269 716h154l269 -716q-29 -20 -49 -41t-20 -47q0 -18 11.5 -29.5t28.5 -11.5q11 0 24 5l33 -83q-15 -8 -36 -12.5t-42 -4.5q-61 0 -95.5 32.5t-34.5 83.5q0 37 18 62.5t35 40.5l-2 5h-20zM452 295l-64 179l-26 87h-8l-26 -87l-64 -179h188z
" />
    <glyph glyph-name="aogonek" unicode="&#x105;" horiz-adv-x="535" 
d="M211 -16q-38 0 -71.5 12.5t-58.5 34.5t-39 53t-14 68q0 38 15 68.5t42 52.5t63.5 33.5t79.5 11.5q48 0 79 -7.5t51 -15.5v15q0 39 -31 64.5t-77 25.5q-68 0 -115 -57l-95 65q78 98 213 98q114 0 174 -53.5t60 -158.5v-294q-28 -20 -48 -41t-20 -47q0 -18 11 -29.5
t28 -11.5q11 0 24 5l33 -83q-15 -8 -36 -12.5t-42 -4.5q-61 0 -95.5 32t-34.5 83q0 37 18.5 61.5t37.5 41.5l-5 6v52h-8q-23 -28 -55.5 -48t-83.5 -20zM358 199q-23 11 -47.5 17.5t-53.5 6.5q-47 0 -72.5 -20.5t-25.5 -50.5t24.5 -48t56.5 -18q26 0 48 9.5t37.5 25t24 36
t8.5 42.5z" />
    <glyph glyph-name="Cacute" unicode="&#x106;" horiz-adv-x="734" 
d="M352 772l42 136h153l-90 -136h-105zM698 115q-53 -64 -125 -97.5t-161 -33.5q-80 0 -148.5 29t-118.5 79t-79 118.5t-29 147.5t29 147.5t79 118.5t118.5 79t148.5 29q86 0 151.5 -30t116.5 -87l-95 -92q-32 37 -73.5 59t-98.5 22q-50 0 -94 -17.5t-76.5 -49.5
t-51.5 -77.5t-19 -101.5t19 -101.5t51.5 -77.5t76.5 -49.5t94 -17.5q60 0 106.5 24.5t82.5 69.5z" />
    <glyph glyph-name="cacute" unicode="&#x107;" horiz-adv-x="545" 
d="M219 588l42 136h153l-90 -136h-105zM521 125q-32 -62 -89.5 -101.5t-143.5 -39.5q-57 0 -104.5 19.5t-82 54.5t-54 82.5t-19.5 104.5t19.5 105t54 82.5t82 54t104.5 19.5q85 0 143 -39t85 -101l-120 -50q-17 34 -43.5 51.5t-66.5 17.5q-26 0 -49 -10t-40.5 -28t-27.5 -44
t-10 -58t10 -58t27.5 -44t40.5 -28t49 -10q41 0 69.5 18.5t45.5 53.5z" />
    <glyph glyph-name="Ccircumflex" unicode="&#x108;" horiz-adv-x="734" 
d="M240 775l114 126h114l114 -126v-8h-125l-40 59h-12l-40 -59h-125v8zM698 115q-53 -64 -125 -97.5t-161 -33.5q-80 0 -148.5 29t-118.5 79t-79 118.5t-29 147.5t29 147.5t79 118.5t118.5 79t148.5 29q86 0 151.5 -30t116.5 -87l-95 -92q-32 37 -73.5 59t-98.5 22
q-50 0 -94 -17.5t-76.5 -49.5t-51.5 -77.5t-19 -101.5t19 -101.5t51.5 -77.5t76.5 -49.5t94 -17.5q60 0 106.5 24.5t82.5 69.5z" />
    <glyph glyph-name="ccircumflex" unicode="&#x109;" horiz-adv-x="545" 
d="M113 590l114 126h114l114 -126v-8h-125l-40 59h-12l-40 -59h-125v8zM521 125q-32 -62 -89.5 -101.5t-143.5 -39.5q-57 0 -104.5 19.5t-82 54.5t-54 82.5t-19.5 104.5t19.5 105t54 82.5t82 54t104.5 19.5q85 0 143 -39t85 -101l-120 -50q-17 34 -43.5 51.5t-66.5 17.5
q-26 0 -49 -10t-40.5 -28t-27.5 -44t-10 -58t10 -58t27.5 -44t40.5 -28t49 -10q41 0 69.5 18.5t45.5 53.5z" />
    <glyph glyph-name="Cdotaccent" unicode="&#x10a;" horiz-adv-x="734" 
d="M397 785q-29 0 -50 21t-21 50t21 50t50 21t49.5 -21t20.5 -50t-20.5 -50t-49.5 -21zM698 115q-53 -64 -125 -97.5t-161 -33.5q-80 0 -148.5 29t-118.5 79t-79 118.5t-29 147.5t29 147.5t79 118.5t118.5 79t148.5 29q86 0 151.5 -30t116.5 -87l-95 -92q-32 37 -73.5 59
t-98.5 22q-50 0 -94 -17.5t-76.5 -49.5t-51.5 -77.5t-19 -101.5t19 -101.5t51.5 -77.5t76.5 -49.5t94 -17.5q60 0 106.5 24.5t82.5 69.5z" />
    <glyph glyph-name="cdotaccent" unicode="&#x10b;" horiz-adv-x="545" 
d="M521 125q-32 -62 -89.5 -101.5t-143.5 -39.5q-57 0 -104.5 19.5t-82 54.5t-54 82.5t-19.5 104.5t19.5 105t54 82.5t82 54t104.5 19.5q85 0 143 -39t85 -101l-120 -50q-17 34 -43.5 51.5t-66.5 17.5q-26 0 -49 -10t-40.5 -28t-27.5 -44t-10 -58t10 -58t27.5 -44t40.5 -28
t49 -10q41 0 69.5 18.5t45.5 53.5zM285 575q-32 0 -54 22.5t-22 53.5q0 32 22 54t54 22t53.5 -22t21.5 -54q0 -31 -21.5 -53.5t-53.5 -22.5z" />
    <glyph glyph-name="Ccaron" unicode="&#x10c;" horiz-adv-x="734" 
d="M228 912h125l40 -59h12l40 59h125v-8l-114 -126h-114l-114 126v8zM698 115q-53 -64 -125 -97.5t-161 -33.5q-80 0 -148.5 29t-118.5 79t-79 118.5t-29 147.5t29 147.5t79 118.5t118.5 79t148.5 29q86 0 151.5 -30t116.5 -87l-95 -92q-32 37 -73.5 59t-98.5 22
q-50 0 -94 -17.5t-76.5 -49.5t-51.5 -77.5t-19 -101.5t19 -101.5t51.5 -77.5t76.5 -49.5t94 -17.5q60 0 106.5 24.5t82.5 69.5z" />
    <glyph glyph-name="ccaron" unicode="&#x10d;" horiz-adv-x="545" 
d="M118 716h125l40 -59h12l40 59h125v-8l-114 -126h-114l-114 126v8zM521 125q-32 -62 -89.5 -101.5t-143.5 -39.5q-57 0 -104.5 19.5t-82 54.5t-54 82.5t-19.5 104.5t19.5 105t54 82.5t82 54t104.5 19.5q85 0 143 -39t85 -101l-120 -50q-17 34 -43.5 51.5t-66.5 17.5
q-26 0 -49 -10t-40.5 -28t-27.5 -44t-10 -58t10 -58t27.5 -44t40.5 -28t49 -10q41 0 69.5 18.5t45.5 53.5z" />
    <glyph glyph-name="Dcaron" unicode="&#x10e;" horiz-adv-x="719" 
d="M156 900h125l40 -59h12l40 59h125v-8l-114 -126h-114l-114 126v8zM72 716h242q85 0 153 -26t116 -73.5t73.5 -113.5t25.5 -145q0 -80 -25.5 -146t-73.5 -113t-116 -73t-153 -26h-242v716zM308 128q59 0 104 16.5t75 46.5t45 72.5t15 94.5t-15 94.5t-45 72.5t-75 46.5
t-104 16.5h-101v-460h101z" />
    <glyph glyph-name="dcaron" unicode="&#x10f;" horiz-adv-x="713" 
d="M599 495v221h138l-45 -221h-93zM421 59h-8q-18 -31 -56 -53t-94 -22q-47 0 -89.5 19.5t-75 54t-51.5 82.5t-19 105t19 105t51.5 82.5t75 54t89.5 19.5q56 0 94 -22t56 -53h8l-8 70v215h131v-716h-123v59zM290 105q26 0 49.5 9.5t41.5 27.5t29 44t11 59t-11 59t-29 44
t-41.5 27.5t-49.5 9.5t-49.5 -10t-41.5 -28t-29 -44t-11 -58t11 -58t29 -44t41.5 -28t49.5 -10z" />
    <glyph glyph-name="Dcroat" unicode="&#x110;" horiz-adv-x="712" 
d="M65 317h-73v110h73v289h242q85 0 153.5 -26t116 -73.5t73 -113.5t25.5 -145q0 -80 -25.5 -146t-73 -113t-116 -73t-153.5 -26h-242v317zM302 128q59 0 103.5 16.5t74.5 46.5t45 72.5t15 94.5t-15 94.5t-45 72.5t-74.5 46.5t-103.5 16.5h-102v-161h184v-110h-184v-189h102
z" />
    <glyph glyph-name="dcroat" unicode="&#x111;" horiz-adv-x="595" 
d="M421 59h-8q-18 -31 -56 -53t-94 -22q-47 0 -89.5 19.5t-75 54t-51.5 82.5t-19 105t19 105t51.5 82.5t75 54t89.5 19.5q56 0 94 -22t56 -53h8l-8 70v62h-133v90h133v63h131v-63h59v-90h-59v-563h-123v59zM290 105q26 0 49.5 9.5t41.5 27.5t29 44t11 59t-11 59t-29 44
t-41.5 27.5t-49.5 9.5t-49.5 -10t-41.5 -28t-29 -44t-11 -58t11 -58t29 -44t41.5 -28t49.5 -10z" />
    <glyph glyph-name="Emacron" unicode="&#x112;" horiz-adv-x="578" 
d="M207 588v-166h287v-128h-287v-166h319v-128h-454v716h454v-128h-319zM145 793v100h296v-100h-296z" />
    <glyph glyph-name="emacron" unicode="&#x113;" horiz-adv-x="556" 
d="M520 118q-34 -60 -91.5 -97t-140.5 -37q-56 0 -103.5 19.5t-82.5 54.5t-54.5 82.5t-19.5 104.5q0 53 19 100.5t53 83t80.5 56.5t102.5 21q59 0 105 -19.5t77 -54t47 -81.5t16 -102v-12q-1 -6 -1 -11q-1 -5 -1 -11h-369q4 -30 16.5 -51.5t31 -36t40.5 -21t45 -6.5
q45 0 74.5 20.5t46.5 51.5zM401 308q-1 13 -8.5 29t-22 30t-36 23t-51.5 9q-42 0 -74 -24t-45 -67h237zM134 609v100h296v-100h-296z" />
    <glyph glyph-name="Ebreve" unicode="&#x114;" horiz-adv-x="578" 
d="M207 588v-166h287v-128h-287v-166h319v-128h-454v716h454v-128h-319zM301 763q-27 0 -52 10t-43.5 28t-30 43t-11.5 55h93q0 -18 11.5 -32t32.5 -14q20 0 31.5 14t11.5 32h92q0 -30 -11 -55t-29.5 -43t-43 -28t-51.5 -10z" />
    <glyph glyph-name="ebreve" unicode="&#x115;" horiz-adv-x="556" 
d="M520 118q-34 -60 -91.5 -97t-140.5 -37q-56 0 -103.5 19.5t-82.5 54.5t-54.5 82.5t-19.5 104.5q0 53 19 100.5t53 83t80.5 56.5t102.5 21q59 0 105 -19.5t77 -54t47 -81.5t16 -102v-12q-1 -6 -1 -11q-1 -5 -1 -11h-369q4 -30 16.5 -51.5t31 -36t40.5 -21t45 -6.5
q45 0 74.5 20.5t46.5 51.5zM401 308q-1 13 -8.5 29t-22 30t-36 23t-51.5 9q-42 0 -74 -24t-45 -67h237zM282 579q-27 0 -52 10t-43.5 28t-30 43t-11.5 55h93q0 -18 11.5 -32t32.5 -14q20 0 31.5 14t11.5 32h92q0 -30 -11 -55t-29.5 -43t-43 -28t-51.5 -10z" />
    <glyph glyph-name="Edotaccent" unicode="&#x116;" horiz-adv-x="578" 
d="M301 785q-29 0 -50 21t-21 50t21 50t50 21t49.5 -21t20.5 -50t-20.5 -50t-49.5 -21zM207 588v-166h287v-128h-287v-166h319v-128h-454v716h454v-128h-319z" />
    <glyph glyph-name="edotaccent" unicode="&#x117;" horiz-adv-x="556" 
d="M520 118q-34 -60 -91.5 -97t-140.5 -37q-56 0 -103.5 19.5t-82.5 54.5t-54.5 82.5t-19.5 104.5q0 53 19 100.5t53 83t80.5 56.5t102.5 21q59 0 105 -19.5t77 -54t47 -81.5t16 -102v-12q-1 -6 -1 -11q-1 -5 -1 -11h-369q4 -30 16.5 -51.5t31 -36t40.5 -21t45 -6.5
q45 0 74.5 20.5t46.5 51.5zM401 308q-1 13 -8.5 29t-22 30t-36 23t-51.5 9q-42 0 -74 -24t-45 -67h237zM282 575q-32 0 -54 22.5t-22 53.5q0 32 22 54t54 22t53.5 -22t21.5 -54q0 -31 -21.5 -53.5t-53.5 -22.5z" />
    <glyph glyph-name="Eogonek" unicode="&#x118;" horiz-adv-x="578" 
d="M207 588v-166h287v-128h-287v-166h319v-128q-29 -20 -49 -41t-20 -47q0 -18 11 -29.5t28 -11.5q12 0 25 5l33 -83q-15 -8 -36 -12.5t-42 -4.5q-61 0 -95.5 32t-34.5 83q0 20 6.5 37t16 31t20.5 24t20 17h-337v716h454v-128h-319z" />
    <glyph glyph-name="eogonek" unicode="&#x119;" horiz-adv-x="556" 
d="M520 118q-15 -26 -34.5 -47.5t-43.5 -40.5q-19 -15 -37 -30.5t-32.5 -31t-23.5 -30t-9 -27.5q0 -19 11 -29.5t28 -10.5q11 0 24 5l33 -83q-15 -8 -36 -12.5t-42 -4.5q-61 0 -95.5 31t-34.5 76q0 29 17 56t39 45q-56 1 -103 21t-81 54.5t-53 82t-19 103.5q0 53 19 100.5
t53 83t80.5 56.5t102.5 21q59 0 105 -19.5t77 -54t47 -81.5t16 -102v-12q-1 -6 -1 -11q-1 -5 -1 -11h-369q4 -30 16.5 -51.5t31 -36t40.5 -21t45 -6.5q45 0 74.5 20.5t46.5 51.5zM401 308q-1 13 -8.5 29t-22 30t-36 23t-51.5 9q-42 0 -74 -24t-45 -67h237z" />
    <glyph glyph-name="Ecaron" unicode="&#x11a;" horiz-adv-x="578" 
d="M128 900h125l40 -59h12l40 59h125v-8l-114 -126h-114l-114 126v8zM207 588v-166h287v-128h-287v-166h319v-128h-454v716h454v-128h-319z" />
    <glyph glyph-name="ecaron" unicode="&#x11b;" horiz-adv-x="556" 
d="M107 716h125l40 -59h12l40 59h125v-8l-114 -126h-114l-114 126v8zM520 118q-34 -60 -91.5 -97t-140.5 -37q-56 0 -103.5 19.5t-82.5 54.5t-54.5 82.5t-19.5 104.5q0 53 19 100.5t53 83t80.5 56.5t102.5 21q59 0 105 -19.5t77 -54t47 -81.5t16 -102v-12q-1 -6 -1 -11
q-1 -5 -1 -11h-369q4 -30 16.5 -51.5t31 -36t40.5 -21t45 -6.5q45 0 74.5 20.5t46.5 51.5zM401 308q-1 13 -8.5 29t-22 30t-36 23t-51.5 9q-42 0 -74 -24t-45 -67h237z" />
    <glyph glyph-name="Gcircumflex" unicode="&#x11c;" horiz-adv-x="810" 
d="M243 775l114 126h114l114 -126v-8h-125l-40 59h-12l-40 -59h-125v8zM412 393h351q3 -12 5 -29t2 -34q0 -69 -21 -130t-66 -109q-48 -51 -115 -79t-153 -28q-78 0 -147 28t-120 78t-81 118.5t-30 149.5t30 149.5t81 118.5t120 78t147 28q87 0 155.5 -30t117.5 -83l-93 -91
q-35 37 -78 56.5t-103 19.5q-49 0 -93 -17.5t-77 -49.5t-52.5 -77.5t-19.5 -101.5t19.5 -101.5t53 -77.5t77.5 -49.5t94 -17.5q57 0 96.5 16.5t67.5 42.5q20 18 34.5 45.5t22.5 61.5h-225v115z" />
    <glyph glyph-name="gcircumflex" unicode="&#x11d;" horiz-adv-x="597" 
d="M116 590l114 126h114l114 -126v-8h-125l-40 59h-12l-40 -59h-125v8zM282 -232q-52 0 -92.5 13.5t-70.5 35t-50 47.5t-29 52l125 50q14 -39 46 -60.5t71 -21.5q62 0 98 38.5t36 107.5v34h-8q-23 -32 -60.5 -50.5t-88.5 -18.5q-44 0 -85.5 18t-73.5 51.5t-52 80.5t-20 105
t20 105.5t52 81t73.5 51.5t85.5 18q51 0 88.5 -18.5t60.5 -50.5h8v53h125v-455q0 -62 -19 -111.5t-53 -84t-81.5 -53t-105.5 -18.5zM287 113q24 0 47.5 9t41.5 26.5t29 43t11 58.5t-11 59t-29 43.5t-41.5 26.5t-47.5 9t-47 -9t-41 -27t-29 -43.5t-11 -58.5t11 -58.5t29 -43
t41 -26.5t47 -9z" />
    <glyph glyph-name="Gbreve" unicode="&#x11e;" horiz-adv-x="810" 
d="M412 393h351q3 -12 5 -29t2 -34q0 -69 -21 -130t-66 -109q-48 -51 -115 -79t-153 -28q-78 0 -147 28t-120 78t-81 118.5t-30 149.5t30 149.5t81 118.5t120 78t147 28q87 0 155.5 -30t117.5 -83l-93 -91q-35 37 -78 56.5t-103 19.5q-49 0 -93 -17.5t-77 -49.5t-52.5 -77.5
t-19.5 -101.5t19.5 -101.5t53 -77.5t77.5 -49.5t94 -17.5q57 0 96.5 16.5t67.5 42.5q20 18 34.5 45.5t22.5 61.5h-225v115zM412 763q-27 0 -52 10t-43.5 28t-30 43t-11.5 55h93q0 -18 11.5 -32t32.5 -14q20 0 31.5 14t11.5 32h92q0 -30 -11 -55t-29.5 -43t-43 -28t-51.5 -10
z" />
    <glyph glyph-name="gbreve" unicode="&#x11f;" horiz-adv-x="597" 
d="M282 -232q-52 0 -92.5 13.5t-70.5 35t-50 47.5t-29 52l125 50q14 -39 46 -60.5t71 -21.5q62 0 98 38.5t36 107.5v34h-8q-23 -32 -60.5 -50.5t-88.5 -18.5q-44 0 -85.5 18t-73.5 51.5t-52 80.5t-20 105t20 105.5t52 81t73.5 51.5t85.5 18q51 0 88.5 -18.5t60.5 -50.5h8v53
h125v-455q0 -62 -19 -111.5t-53 -84t-81.5 -53t-105.5 -18.5zM287 113q24 0 47.5 9t41.5 26.5t29 43t11 58.5t-11 59t-29 43.5t-41.5 26.5t-47.5 9t-47 -9t-41 -27t-29 -43.5t-11 -58.5t11 -58.5t29 -43t41 -26.5t47 -9zM301 579q-27 0 -52 10t-43.5 28t-30 43t-11.5 55h93
q0 -18 11.5 -32t32.5 -14q20 0 31.5 14t11.5 32h92q0 -30 -11 -55t-29.5 -43t-43 -28t-51.5 -10z" />
    <glyph glyph-name="Gdotaccent" unicode="&#x120;" horiz-adv-x="810" 
d="M401 785q-29 0 -50 21t-21 50t21 50t50 21t49.5 -21t20.5 -50t-20.5 -50t-49.5 -21zM412 393h351q3 -12 5 -29t2 -34q0 -69 -21 -130t-66 -109q-48 -51 -115 -79t-153 -28q-78 0 -147 28t-120 78t-81 118.5t-30 149.5t30 149.5t81 118.5t120 78t147 28q87 0 155.5 -30
t117.5 -83l-93 -91q-35 37 -78 56.5t-103 19.5q-49 0 -93 -17.5t-77 -49.5t-52.5 -77.5t-19.5 -101.5t19.5 -101.5t53 -77.5t77.5 -49.5t94 -17.5q57 0 96.5 16.5t67.5 42.5q20 18 34.5 45.5t22.5 61.5h-225v115z" />
    <glyph glyph-name="gdotaccent" unicode="&#x121;" horiz-adv-x="597" 
d="M282 -232q-52 0 -92.5 13.5t-70.5 35t-50 47.5t-29 52l125 50q14 -39 46 -60.5t71 -21.5q62 0 98 38.5t36 107.5v34h-8q-23 -32 -60.5 -50.5t-88.5 -18.5q-44 0 -85.5 18t-73.5 51.5t-52 80.5t-20 105t20 105.5t52 81t73.5 51.5t85.5 18q51 0 88.5 -18.5t60.5 -50.5h8v53
h125v-455q0 -62 -19 -111.5t-53 -84t-81.5 -53t-105.5 -18.5zM287 113q24 0 47.5 9t41.5 26.5t29 43t11 58.5t-11 59t-29 43.5t-41.5 26.5t-47.5 9t-47 -9t-41 -27t-29 -43.5t-11 -58.5t11 -58.5t29 -43t41 -26.5t47 -9zM295 575q-32 0 -54 22.5t-22 53.5q0 32 22 54t54 22
t53.5 -22t21.5 -54q0 -31 -21.5 -53.5t-53.5 -22.5z" />
    <glyph glyph-name="uni0122" unicode="&#x122;" horiz-adv-x="810" 
d="M353 -253l45 70q-20 8 -31.5 25t-11.5 39q0 29 20.5 50t50.5 21t50.5 -21t20.5 -51q0 -12 -3.5 -22.5t-9.5 -21.5l-82 -121zM412 393h351q3 -12 5 -29t2 -34q0 -69 -21 -130t-66 -109q-48 -51 -115 -79t-153 -28q-78 0 -147 28t-120 78t-81 118.5t-30 149.5t30 149.5
t81 118.5t120 78t147 28q87 0 155.5 -30t117.5 -83l-93 -91q-35 37 -78 56.5t-103 19.5q-49 0 -93 -17.5t-77 -49.5t-52.5 -77.5t-19.5 -101.5t19.5 -101.5t53 -77.5t77.5 -49.5t94 -17.5q57 0 96.5 16.5t67.5 42.5q20 18 34.5 45.5t22.5 61.5h-225v115z" />
    <glyph glyph-name="uni0123" unicode="&#x123;" horiz-adv-x="597" 
d="M363.017 776.969l-44.9941 -69.9912q19.9971 -7.99902 31.4961 -24.9971t11.499 -38.9951q0 -28.9961 -20.498 -49.9941q-20.4971 -20.9971 -50.4941 -20.9971q-29.9961 0 -50.4932 20.9971q-20.498 20.998 -20.498 50.9941q0 11.999 3.5 22.4971
q3.49902 10.499 9.49902 21.498l81.9893 120.984zM282 -232q-52 0 -92.5 13.5t-70.5 35t-50 47.5t-29 52l125 50q14 -39 46 -60.5t71 -21.5q62 0 98 38.5t36 107.5v34h-8q-23 -32 -60.5 -50.5t-88.5 -18.5q-44 0 -85.5 18t-73.5 51.5t-52 80.5t-20 105t20 105.5t52 81
t73.5 51.5t85.5 18q51 0 88.5 -18.5t60.5 -50.5h8v53h125v-455q0 -62 -19 -111.5t-53 -84t-81.5 -53t-105.5 -18.5zM287 113q24 0 47.5 9t41.5 26.5t29 43t11 58.5t-11 59t-29 43.5t-41.5 26.5t-47.5 9t-47 -9t-41 -27t-29 -43.5t-11 -58.5t11 -58.5t29 -43t41 -26.5t47 -9z
" />
    <glyph glyph-name="Hcircumflex" unicode="&#x124;" horiz-adv-x="715" 
d="M187 774l114 126h114l114 -126v-8h-125l-40 59h-12l-40 -59h-125v8zM72 716h135v-286h301v286h135v-716h-135v302h-301v-302h-135v716z" />
    <glyph glyph-name="hcircumflex" unicode="&#x125;" 
d="M127 774l114 126h114l114 -126v-8h-125l-40 59h-12l-40 -59h-125v8zM56 716h131v-201l-8 -89h8q21 35 60.5 57.5t88.5 22.5q95 0 140.5 -56t45.5 -153v-297h-131v281q0 51 -24 77.5t-67 26.5q-27 0 -48 -11.5t-35.5 -31.5t-22 -46.5t-7.5 -56.5v-239h-131v716z" />
    <glyph glyph-name="Hbar" unicode="&#x126;" horiz-adv-x="715" 
d="M72 493h-63v98h63v125h135v-125h301v125h135v-125h63v-98h-63v-493h-135v302h-301v-302h-135v493zM508 430v63h-301v-63h301z" />
    <glyph glyph-name="hbar" unicode="&#x127;" 
d="M56 563h-58v90h58v63h131v-63h134v-90h-134v-48l-8 -89h8q21 35 60.5 57.5t88.5 22.5q95 0 140.5 -56t45.5 -153v-297h-131v281q0 51 -24 77.5t-67 26.5q-27 0 -48 -11.5t-35.5 -31.5t-22 -46.5t-7.5 -56.5v-239h-131v563z" />
    <glyph glyph-name="Itilde" unicode="&#x128;" horiz-adv-x="279" 
d="M72 716h135v-716h-135v716zM201 771q-21 0 -39 6.5t-33 15.5q-15 8 -27 14.5t-21 6.5q-25 0 -26 -29h-92q0 33 9.5 57t26 39.5t37 23.5t43.5 8q21 0 39.5 -6.5t33.5 -14.5q15 -9 27 -15.5t20 -6.5q24 0 27 29h92q0 -33 -10 -57t-26 -39.5t-37.5 -23.5t-43.5 -8z" />
    <glyph glyph-name="itilde" unicode="&#x129;" horiz-adv-x="259" 
d="M64 0v490h131v-490h-131zM191 587q-21 0 -39 6.5t-33 15.5q-15 8 -27 14.5t-21 6.5q-25 0 -26 -29h-92q0 33 9.5 57t26 39.5t37 23.5t43.5 8q21 0 39.5 -6.5t33.5 -14.5q15 -9 27 -15.5t20 -6.5q24 0 27 29h92q0 -33 -10 -57t-26 -39.5t-37.5 -23.5t-43.5 -8z" />
    <glyph glyph-name="Imacron" unicode="&#x12a;" horiz-adv-x="279" 
d="M2 793v100h275v-100h-275zM72 716h135v-716h-135v716z" />
    <glyph glyph-name="imacron" unicode="&#x12b;" horiz-adv-x="259" 
d="M64 0v490h131v-490h-131zM-18 609v100h296v-100h-296z" />
    <glyph glyph-name="Ibreve" unicode="&#x12c;" horiz-adv-x="279" 
d="M72 716h135v-716h-135v716zM141 763q-27 0 -52 10t-43.5 28t-30 43t-11.5 55h93q0 -18 11.5 -32t32.5 -14q20 0 31.5 14t11.5 32h92q0 -30 -11 -55t-29.5 -43t-43 -28t-51.5 -10z" />
    <glyph glyph-name="ibreve" unicode="&#x12d;" horiz-adv-x="259" 
d="M64 0v490h131v-490h-131zM131 579q-27 0 -52 10t-43.5 28t-30 43t-11.5 55h93q0 -18 11.5 -32t32.5 -14q20 0 31.5 14t11.5 32h92q0 -30 -11 -55t-29.5 -43t-43 -28t-51.5 -10z" />
    <glyph glyph-name="Iogonek" unicode="&#x12e;" horiz-adv-x="279" 
d="M72 716h135v-716q-29 -20 -49 -41t-20 -47q0 -18 11 -29.5t28 -11.5q12 0 25 5l33 -83q-15 -8 -36 -12.5t-43 -4.5q-60 0 -94.5 32t-34.5 83q0 19 5.5 35t14 29t18 23t18.5 17l-2 5h-9v716z" />
    <glyph glyph-name="iogonek" unicode="&#x12f;" horiz-adv-x="259" 
d="M129 561q-17 0 -32.5 6.5t-27 18t-18 26.5t-6.5 33t6.5 33t18 26.5t27 18t32.5 6.5q35 0 60 -24.5t25 -59.5t-25 -59.5t-60 -24.5zM195 0q-29 -20 -49 -41t-20 -47q0 -18 11 -29.5t28 -11.5q12 0 24 5l34 -83q-16 -8 -36.5 -12.5t-42.5 -4.5q-60 0 -94.5 32t-34.5 83
q0 18 5 33.5t13 28.5t17.5 23t18.5 17l-5 7v490h131v-490z" />
    <glyph glyph-name="Idotaccent" unicode="&#x130;" horiz-adv-x="279" 
d="M72 716h135v-716h-135v716zM140 785q-29 0 -50 21t-21 50t21 50t50 21t49.5 -21t20.5 -50t-20.5 -50t-49.5 -21z" />
    <glyph glyph-name="dotlessi" unicode="&#x131;" horiz-adv-x="259" 
d="M64 0v490h131v-490h-131z" />
    <glyph glyph-name="Jcircumflex" unicode="&#x134;" horiz-adv-x="555" 
d="M262 774l114 126h114l114 -126v-8h-125l-40 59h-12l-40 -59h-125v8zM261 -16q-85 0 -148.5 46t-88.5 127l124 51q13 -48 42 -72t71 -24q47 0 73 30t26 84v490h135v-489q0 -60 -18.5 -105.5t-50 -76t-74 -46t-91.5 -15.5z" />
    <glyph glyph-name="jcircumflex" unicode="&#x135;" horiz-adv-x="259" 
d="M34 -226q-25 0 -45 3.5t-37 10.5l33 116q8 -5 15.5 -7t18.5 -2q45 0 45 59v536h131v-540q0 -48 -13 -81.5t-35 -54.5t-51 -30.5t-62 -9.5zM-41 590l114 126h114l114 -126v-8h-125l-40 59h-12l-40 -59h-125v8z" />
    <glyph glyph-name="uni0136" unicode="&#x136;" horiz-adv-x="665" 
d="M267 -253l45 70q-20 8 -31.5 25t-11.5 39q0 29 20.5 50t50.5 21t50.5 -21t20.5 -51q0 -12 -3.5 -22.5t-9.5 -21.5l-82 -121zM72 716h135v-307h8l262 307h163v-8l-259 -296l286 -404v-8h-165l-213 305l-82 -95v-210h-135v716z" />
    <glyph glyph-name="uni0137" unicode="&#x137;" horiz-adv-x="527" 
d="M196 -253l45 70q-20 8 -31.5 25t-11.5 39q0 29 20.5 50t50.5 21t50.5 -21t20.5 -51q0 -12 -3.5 -22.5t-9.5 -21.5l-82 -121zM56 716h131v-390h6l164 164h162v-8l-182 -177l197 -297v-8h-155l-134 215l-58 -57v-158h-131v716z" />
    <glyph glyph-name="kgreenlandic" unicode="&#x138;" horiz-adv-x="514" 
d="M195 234h-8v-234h-131v490h131v-209h8l158 209h154v-8l-175 -223l186 -251v-8h-154z" />
    <glyph glyph-name="Lacute" unicode="&#x139;" horiz-adv-x="534" 
d="M80 772l42 136h153l-90 -136h-105zM72 716h135v-588h303v-128h-438v716z" />
    <glyph glyph-name="lacute" unicode="&#x13a;" horiz-adv-x="243" 
d="M63 772l42 136h153l-90 -136h-105zM56 0v716h131v-716h-131z" />
    <glyph glyph-name="uni013B" unicode="&#x13b;" horiz-adv-x="534" 
d="M218 -253l45 70q-20 8 -31.5 25t-11.5 39q0 29 20.5 50t50.5 21t50.5 -21t20.5 -51q0 -12 -3.5 -22.5t-9.5 -21.5l-82 -121zM72 716h135v-588h303v-128h-438v716z" />
    <glyph glyph-name="uni013C" unicode="&#x13c;" horiz-adv-x="243" 
d="M49 -253l45 70q-20 8 -31.5 25t-11.5 39q0 29 20.5 50t50.5 21t50.5 -21t20.5 -51q0 -12 -3.5 -22.5t-9.5 -21.5l-82 -121zM56 0v716h131v-716h-131z" />
    <glyph glyph-name="Lcaron" unicode="&#x13d;" horiz-adv-x="534" 
d="M341 495v221h138l-45 -221h-93zM72 716h135v-588h303v-128h-438v716z" />
    <glyph glyph-name="lcaron" unicode="&#x13e;" horiz-adv-x="383" 
d="M269 495v221h138l-45 -221h-93zM76 0v716h131v-716h-131z" />
    <glyph glyph-name="Ldot" unicode="&#x13f;" horiz-adv-x="534" 
d="M72 716h135v-588h303v-128h-438v716zM377 257q-36 0 -61.5 25.5t-25.5 61.5t25.5 61.5t61.5 25.5t61 -25.5t25 -61.5t-25 -61.5t-61 -25.5z" />
    <glyph glyph-name="Lslash" unicode="&#x141;" horiz-adv-x="617" 
d="M155 247l-54 -33l-59 93l113 71v338h135v-251l110 69l57 -92l-167 -105v-209h303v-128h-438v247z" />
    <glyph glyph-name="lslash" unicode="&#x142;" horiz-adv-x="419" 
d="M141 0v256l-46 -33l-65 86l111 81v326h131v-234l61 44l65 -86l-126 -93v-347h-131z" />
    <glyph glyph-name="Nacute" unicode="&#x143;" horiz-adv-x="723" 
d="M321 772l42 136h153l-90 -136h-105zM72 716h157l288 -480h8l-8 138v342h134v-716h-142l-304 507h-8l8 -138v-369h-133v716z" />
    <glyph glyph-name="nacute" unicode="&#x144;" 
d="M243 588l42 136h153l-90 -136h-105zM179 426h8q23 37 62 58.5t89 21.5q46 0 81 -15t57.5 -42.5t34 -66t11.5 -85.5v-297h-131v281q0 53 -23.5 78.5t-68.5 25.5q-27 0 -47.5 -11.5t-35 -31t-22 -46t-7.5 -56.5v-240h-131v490h123v-64z" />
    <glyph glyph-name="uni0145" unicode="&#x145;" horiz-adv-x="723" 
d="M288 -253l45 70q-20 8 -31.5 25t-11.5 39q0 29 20.5 50t50.5 21t50.5 -21t20.5 -51q0 -12 -3.5 -22.5t-9.5 -21.5l-82 -121zM72 716h157l288 -480h8l-8 138v342h134v-716h-142l-304 507h-8l8 -138v-369h-133v716z" />
    <glyph glyph-name="uni0146" unicode="&#x146;" 
d="M216 -253l45 70q-20 8 -31.5 25t-11.5 39q0 29 20.5 50t50.5 21t50.5 -21t20.5 -51q0 -12 -3.5 -22.5t-9.5 -21.5l-82 -121zM179 426h8q23 37 62 58.5t89 21.5q46 0 81 -15t57.5 -42.5t34 -66t11.5 -85.5v-297h-131v281q0 53 -23.5 78.5t-68.5 25.5q-27 0 -47.5 -11.5
t-35 -31t-22 -46t-7.5 -56.5v-240h-131v490h123v-64z" />
    <glyph glyph-name="Ncaron" unicode="&#x147;" horiz-adv-x="723" 
d="M195 900h125l40 -59h12l40 59h125v-8l-114 -126h-114l-114 126v8zM72 716h157l288 -480h8l-8 138v342h134v-716h-142l-304 507h-8l8 -138v-369h-133v716z" />
    <glyph glyph-name="ncaron" unicode="&#x148;" 
d="M120 716h125l40 -59h12l40 59h125v-8l-114 -126h-114l-114 126v8zM179 426h8q23 37 62 58.5t89 21.5q46 0 81 -15t57.5 -42.5t34 -66t11.5 -85.5v-297h-131v281q0 53 -23.5 78.5t-68.5 25.5q-27 0 -47.5 -11.5t-35 -31t-22 -46t-7.5 -56.5v-240h-131v490h123v-64z" />
    <glyph glyph-name="Eng" unicode="&#x14a;" horiz-adv-x="723" 
d="M72 716h157l288 -470h8l-8 138v332h134v-755q0 -52 -13.5 -88t-36.5 -58t-54 -31.5t-65 -9.5q-23 0 -40.5 3.5t-34.5 10.5l31 116q8 -5 15.5 -7t18.5 -2q24 0 34.5 15t10.5 44v47l-312 506h-8l8 -138v-369h-133v716z" />
    <glyph glyph-name="eng" unicode="&#x14b;" 
d="M179 426h8q23 37 62 58.5t89 21.5q46 0 81 -15t57.5 -42.5t34 -66t11.5 -85.5v-347q0 -48 -13 -81.5t-35 -54.5t-51 -30.5t-62 -9.5q-25 0 -45 3.5t-37 10.5l33 116q8 -5 15.5 -7t18.5 -2q24 0 34.5 15t10.5 44v327q0 53 -23.5 78.5t-68.5 25.5q-27 0 -47.5 -11.5
t-35 -31t-22 -46t-7.5 -56.5v-240h-131v490h123v-64z" />
    <glyph glyph-name="Omacron" unicode="&#x14c;" horiz-adv-x="822" 
d="M263 793v100h296v-100h-296zM411 -16q-80 0 -148.5 29t-118.5 79.5t-78.5 119t-28.5 146.5t28.5 146.5t78.5 119t118.5 79.5t148.5 29t148.5 -29t118.5 -79.5t78.5 -119t28.5 -146.5t-28.5 -146.5t-78.5 -119t-118.5 -79.5t-148.5 -29zM411 112q50 0 93.5 18t76 50
t51 77.5t18.5 100.5t-18.5 100.5t-51 77.5t-76 50t-93.5 18t-93.5 -18t-76 -50t-51 -77.5t-18.5 -100.5t18.5 -100.5t51 -77.5t76 -50t93.5 -18z" />
    <glyph glyph-name="omacron" unicode="&#x14d;" horiz-adv-x="576" 
d="M140 609v100h296v-100h-296zM288 506q57 0 104.5 -19.5t82 -54t54 -82.5t19.5 -105t-19.5 -105t-54 -82.5t-82 -54t-104.5 -19.5t-104.5 19.5t-82 54t-54 82.5t-19.5 105t19.5 105t54 82.5t82 54t104.5 19.5zM288 105q25 0 48.5 9.5t41.5 27.5t28.5 44t10.5 59t-10.5 59
t-28.5 44t-41.5 27.5t-48.5 9.5q-26 0 -49 -9.5t-41 -27.5t-28.5 -44t-10.5 -59t10.5 -59t28.5 -44t41 -27.5t49 -9.5z" />
    <glyph glyph-name="Obreve" unicode="&#x14e;" horiz-adv-x="822" 
d="M411 -16q-80 0 -148.5 29t-118.5 79.5t-78.5 119t-28.5 146.5t28.5 146.5t78.5 119t118.5 79.5t148.5 29t148.5 -29t118.5 -79.5t78.5 -119t28.5 -146.5t-28.5 -146.5t-78.5 -119t-118.5 -79.5t-148.5 -29zM411 112q50 0 93.5 18t76 50t51 77.5t18.5 100.5t-18.5 100.5
t-51 77.5t-76 50t-93.5 18t-93.5 -18t-76 -50t-51 -77.5t-18.5 -100.5t18.5 -100.5t51 -77.5t76 -50t93.5 -18zM412 763q-27 0 -52 10t-43.5 28t-30 43t-11.5 55h93q0 -18 11.5 -32t32.5 -14q20 0 31.5 14t11.5 32h92q0 -30 -11 -55t-29.5 -43t-43 -28t-51.5 -10z" />
    <glyph glyph-name="obreve" unicode="&#x14f;" horiz-adv-x="576" 
d="M288 506q57 0 104.5 -19.5t82 -54t54 -82.5t19.5 -105t-19.5 -105t-54 -82.5t-82 -54t-104.5 -19.5t-104.5 19.5t-82 54t-54 82.5t-19.5 105t19.5 105t54 82.5t82 54t104.5 19.5zM288 105q25 0 48.5 9.5t41.5 27.5t28.5 44t10.5 59t-10.5 59t-28.5 44t-41.5 27.5
t-48.5 9.5q-26 0 -49 -9.5t-41 -27.5t-28.5 -44t-10.5 -59t10.5 -59t28.5 -44t41 -27.5t49 -9.5zM289 579q-27 0 -52 10t-43.5 28t-30 43t-11.5 55h93q0 -18 11.5 -32t32.5 -14q20 0 31.5 14t11.5 32h92q0 -30 -11 -55t-29.5 -43t-43 -28t-51.5 -10z" />
    <glyph glyph-name="Ohungarumlaut" unicode="&#x150;" horiz-adv-x="822" 
d="M411 -16q-80 0 -148.5 29t-118.5 79.5t-78.5 119t-28.5 146.5t28.5 146.5t78.5 119t118.5 79.5t148.5 29t148.5 -29t118.5 -79.5t78.5 -119t28.5 -146.5t-28.5 -146.5t-78.5 -119t-118.5 -79.5t-148.5 -29zM411 112q50 0 93.5 18t76 50t51 77.5t18.5 100.5t-18.5 100.5
t-51 77.5t-76 50t-93.5 18t-93.5 -18t-76 -50t-51 -77.5t-18.5 -100.5t18.5 -100.5t51 -77.5t76 -50t93.5 -18zM265 772l42 136h153l-90 -136h-105zM463 772l42 136h153l-90 -136h-105z" />
    <glyph glyph-name="ohungarumlaut" unicode="&#x151;" horiz-adv-x="576" 
d="M138 588l42 136h153l-90 -136h-105zM335 588l42 136h153l-90 -136h-105zM288 506q57 0 104.5 -19.5t82 -54t54 -82.5t19.5 -105t-19.5 -105t-54 -82.5t-82 -54t-104.5 -19.5t-104.5 19.5t-82 54t-54 82.5t-19.5 105t19.5 105t54 82.5t82 54t104.5 19.5zM288 105
q25 0 48.5 9.5t41.5 27.5t28.5 44t10.5 59t-10.5 59t-28.5 44t-41.5 27.5t-48.5 9.5q-26 0 -49 -9.5t-41 -27.5t-28.5 -44t-10.5 -59t10.5 -59t28.5 -44t41 -27.5t49 -9.5z" />
    <glyph glyph-name="OE" unicode="&#x152;" horiz-adv-x="1146" 
d="M774 588v-166h288v-128h-288v-166h320v-128h-454v75h-7q-35 -42 -94 -66.5t-140 -24.5q-76 0 -142 29t-115 79.5t-77 119t-28 146.5t28 146.5t77 119t115 79.5t142 29q81 0 140 -25t94 -67h7v76h454v-128h-320zM411 112q50 0 93.5 18t76 50t51 77.5t18.5 100.5
t-18.5 100.5t-51 77.5t-76 50t-93.5 18t-93.5 -18t-76 -50t-51 -77.5t-18.5 -100.5t18.5 -100.5t51 -77.5t76 -50t93.5 -18z" />
    <glyph glyph-name="oe" unicode="&#x153;" horiz-adv-x="948" 
d="M680 -16q-66 0 -115.5 28t-80.5 71q-35 -47 -84 -73t-112 -26q-57 0 -104.5 19.5t-82 54.5t-54 82.5t-19.5 104.5t19.5 105t54 82.5t82 54t104.5 19.5q63 0 112 -26t85 -74q32 45 81 72.5t109 27.5q59 0 105 -19.5t77 -54t47 -81.5t16 -102v-12q-1 -6 -1 -11
q-1 -5 -1 -11h-370q4 -30 17 -51.5t31.5 -36t40.5 -21t45 -6.5q45 0 74.5 20.5t46.5 51.5l109 -54q-34 -60 -91.5 -97t-140.5 -37zM288 105q25 0 48.5 9.5t41.5 27.5t28.5 44t10.5 59t-10.5 59t-28.5 44t-41.5 27.5t-48.5 9.5q-26 0 -49 -9.5t-41 -27.5t-28.5 -44t-10.5 -59
t10.5 -59t28.5 -44t41 -27.5t49 -9.5zM793 308q-1 13 -8.5 29t-22 30t-36 23t-51.5 9q-42 0 -74.5 -24t-45.5 -67h238z" />
    <glyph glyph-name="Racute" unicode="&#x154;" horiz-adv-x="620" 
d="M245 772l42 136h153l-90 -136h-105zM72 716h261q54 0 98 -17t75.5 -47t48.5 -71.5t17 -90.5q0 -36 -12 -67.5t-33 -57t-49 -45t-59 -30.5l-1 -7l192 -275v-8h-155l-185 269h-63v-269h-135v716zM332 393q46 0 75.5 28t29.5 71q0 19 -6.5 37t-19.5 32t-32.5 22.5t-44.5 8.5
h-127v-199h125z" />
    <glyph glyph-name="racute" unicode="&#x155;" horiz-adv-x="407" 
d="M170 588l42 136h153l-90 -136h-105zM56 490h123v-68h8q9 18 24 33t33.5 26t40 17t42.5 6q26 0 44.5 -5t31.5 -13l-35 -119q-12 6 -26.5 9.5t-35.5 3.5q-27 0 -49 -10.5t-37.5 -29.5t-24 -44.5t-8.5 -55.5v-240h-131v490z" />
    <glyph glyph-name="uni0156" unicode="&#x156;" horiz-adv-x="615" 
d="M252 -253l45 70q-20 8 -31.5 25t-11.5 39q0 29 20.5 50t50.5 21t50.5 -21t20.5 -51q0 -12 -3.5 -22.5t-9.5 -21.5l-82 -121zM72 716h261q54 0 98 -17t75.5 -47t48.5 -71.5t17 -90.5q0 -36 -12 -67.5t-33 -57t-49 -45t-59 -30.5l-1 -7l192 -275v-8h-155l-185 269h-63v-269
h-135v716zM332 393q46 0 75.5 28t29.5 71q0 19 -6.5 37t-19.5 32t-32.5 22.5t-44.5 8.5h-127v-199h125z" />
    <glyph glyph-name="uni0157" unicode="&#x157;" horiz-adv-x="407" 
d="M51 -253l45 70q-20 8 -31.5 25t-11.5 39q0 29 20.5 50t50.5 21t50.5 -21t20.5 -51q0 -12 -3.5 -22.5t-9.5 -21.5l-82 -121zM56 490h123v-68h8q9 18 24 33t33.5 26t40 17t42.5 6q26 0 44.5 -5t31.5 -13l-35 -119q-12 6 -26.5 9.5t-35.5 3.5q-27 0 -49 -10.5t-37.5 -29.5
t-24 -44.5t-8.5 -55.5v-240h-131v490z" />
    <glyph glyph-name="Rcaron" unicode="&#x158;" horiz-adv-x="620" 
d="M130 900h125l40 -59h12l40 59h125v-8l-114 -126h-114l-114 126v8zM72 716h261q54 0 98 -17t75.5 -47t48.5 -71.5t17 -90.5q0 -36 -12 -67.5t-33 -57t-49 -45t-59 -30.5l-1 -7l192 -275v-8h-155l-185 269h-63v-269h-135v716zM332 393q46 0 75.5 28t29.5 71q0 19 -6.5 37
t-19.5 32t-32.5 22.5t-44.5 8.5h-127v-199h125z" />
    <glyph glyph-name="rcaron" unicode="&#x159;" horiz-adv-x="407" 
d="M45 716h125l40 -59h12l40 59h125v-8l-114 -126h-114l-114 126v8zM56 490h123v-68h8q9 18 24 33t33.5 26t40 17t42.5 6q26 0 44.5 -5t31.5 -13l-35 -119q-12 6 -26.5 9.5t-35.5 3.5q-27 0 -49 -10.5t-37.5 -29.5t-24 -44.5t-8.5 -55.5v-240h-131v490z" />
    <glyph glyph-name="Sacute" unicode="&#x15a;" horiz-adv-x="575" 
d="M229 772l42 136h153l-90 -136h-105zM291 -16q-46 0 -88 13t-77 39t-61 63.5t-41 87.5l127 50q14 -54 49 -89.5t92 -35.5q21 0 40.5 5.5t35 16t24.5 26.5t9 37q0 20 -7 36t-23.5 30t-43 27t-65.5 27l-44 16q-29 10 -58.5 27t-53.5 41t-39.5 56.5t-15.5 73.5
q0 42 16.5 78.5t47 64t73 43t94.5 15.5q54 0 93.5 -14.5t67 -37t44.5 -49.5t25 -51l-119 -50q-10 30 -36.5 54t-72.5 24q-44 0 -73 -20.5t-29 -53.5q0 -32 28 -54.5t89 -43.5l45 -15q43 -15 78.5 -34.5t61 -46.5t39 -61.5t13.5 -79.5q0 -56 -22.5 -96.5t-57.5 -66.5t-79 -39
t-86 -13z" />
    <glyph glyph-name="sacute" unicode="&#x15b;" horiz-adv-x="483" 
d="M185 588l42 136h153l-90 -136h-105zM250 -16q-48 0 -85.5 12t-65 31.5t-46.5 45t-29 51.5l117 50q17 -38 45.5 -56.5t63.5 -18.5q36 0 57 13t21 31q0 20 -17.5 32.5t-60.5 22.5l-69 15q-23 5 -47.5 16t-44.5 28t-33 41t-13 56q0 36 15.5 64t42.5 47.5t63.5 30t78.5 10.5
q70 0 125 -27.5t81 -87.5l-113 -46q-14 29 -41 42t-54 13q-28 0 -49 -11.5t-21 -29.5q0 -17 17.5 -27t47.5 -18l75 -18q75 -18 111.5 -57.5t36.5 -93.5q0 -32 -15 -61t-42.5 -51.5t-66 -35.5t-85.5 -13z" />
    <glyph glyph-name="Scircumflex" unicode="&#x15c;" horiz-adv-x="575" 
d="M108 775l114 126h114l114 -126v-8h-125l-40 59h-12l-40 -59h-125v8zM291 -16q-46 0 -88 13t-77 39t-61 63.5t-41 87.5l127 50q14 -54 49 -89.5t92 -35.5q21 0 40.5 5.5t35 16t24.5 26.5t9 37q0 20 -7 36t-23.5 30t-43 27t-65.5 27l-44 16q-29 10 -58.5 27t-53.5 41
t-39.5 56.5t-15.5 73.5q0 42 16.5 78.5t47 64t73 43t94.5 15.5q54 0 93.5 -14.5t67 -37t44.5 -49.5t25 -51l-119 -50q-10 30 -36.5 54t-72.5 24q-44 0 -73 -20.5t-29 -53.5q0 -32 28 -54.5t89 -43.5l45 -15q43 -15 78.5 -34.5t61 -46.5t39 -61.5t13.5 -79.5
q0 -56 -22.5 -96.5t-57.5 -66.5t-79 -39t-86 -13z" />
    <glyph glyph-name="scircumflex" unicode="&#x15d;" horiz-adv-x="483" 
d="M74 590l114 126h114l114 -126v-8h-125l-40 59h-12l-40 -59h-125v8zM250 -16q-48 0 -85.5 12t-65 31.5t-46.5 45t-29 51.5l117 50q17 -38 45.5 -56.5t63.5 -18.5q36 0 57 13t21 31q0 20 -17.5 32.5t-60.5 22.5l-69 15q-23 5 -47.5 16t-44.5 28t-33 41t-13 56q0 36 15.5 64
t42.5 47.5t63.5 30t78.5 10.5q70 0 125 -27.5t81 -87.5l-113 -46q-14 29 -41 42t-54 13q-28 0 -49 -11.5t-21 -29.5q0 -17 17.5 -27t47.5 -18l75 -18q75 -18 111.5 -57.5t36.5 -93.5q0 -32 -15 -61t-42.5 -51.5t-66 -35.5t-85.5 -13z" />
    <glyph glyph-name="uni015E" unicode="&#x15e;" horiz-adv-x="575" 
d="M298 -237q-36 0 -62 19t-37 47l64 27q4 -12 13 -20t22 -8q16 0 24.5 9.5t8.5 22.5t-8.5 23.5t-24.5 10.5q-9 0 -15.5 -4.5t-11.5 -9.5l-61 28l31 80q-76 12 -134 62.5t-83 136.5l127 50q14 -54 49 -89.5t92 -35.5q21 0 40.5 5.5t35 16t24.5 26.5t9 37q0 20 -7 36
t-23.5 30t-43 27t-65.5 27l-44 16q-29 10 -58.5 27t-53.5 41t-39.5 56.5t-15.5 73.5q0 42 16.5 78.5t47 64t73 43t94.5 15.5q54 0 93.5 -14.5t67 -37t44.5 -49.5t25 -51l-119 -50q-10 30 -36.5 54t-72.5 24q-44 0 -73 -20.5t-29 -53.5q0 -32 28 -54.5t89 -43.5l45 -15
q43 -15 78.5 -34.5t61 -46.5t39 -61.5t13.5 -79.5q0 -53 -20.5 -92.5t-53 -66t-73.5 -40.5t-82 -16l-14 -31q5 1 9 1h9q39 0 66.5 -25t27.5 -70q0 -42 -29.5 -69t-77.5 -27z" />
    <glyph glyph-name="uni015F" unicode="&#x15f;" horiz-adv-x="483" 
d="M264 -237q-36 0 -62 19t-37 47l64 27q4 -12 13 -20t22 -8q16 0 24.5 9.5t8.5 22.5t-8.5 23.5t-24.5 10.5q-9 0 -15.5 -4.5t-11.5 -9.5l-61 28l31 79q-38 5 -68 18t-52.5 32t-38 41.5t-24.5 45.5l117 50q17 -38 45.5 -56.5t63.5 -18.5q36 0 57 13t21 31q0 20 -17.5 32.5
t-60.5 22.5l-69 15q-23 5 -47.5 16t-44.5 28t-33 41t-13 56q0 36 15.5 64t42.5 47.5t63.5 30t78.5 10.5q70 0 125 -27.5t81 -87.5l-113 -46q-14 29 -41 42t-54 13q-28 0 -49 -11.5t-21 -29.5q0 -17 17.5 -27t47.5 -18l75 -18q75 -18 111.5 -57.5t36.5 -93.5
q0 -30 -13.5 -57.5t-37.5 -49t-58.5 -36t-76.5 -17.5l-14 -32q5 1 9 1h9q39 0 66.5 -25t27.5 -70q0 -42 -29.5 -69t-77.5 -27z" />
    <glyph glyph-name="Scaron" unicode="&#x160;" horiz-adv-x="575" 
d="M115 900h125l40 -59h12l40 59h125v-8l-114 -126h-114l-114 126v8zM291 -16q-46 0 -88 13t-77 39t-61 63.5t-41 87.5l127 50q14 -54 49 -89.5t92 -35.5q21 0 40.5 5.5t35 16t24.5 26.5t9 37q0 20 -7 36t-23.5 30t-43 27t-65.5 27l-44 16q-29 10 -58.5 27t-53.5 41
t-39.5 56.5t-15.5 73.5q0 42 16.5 78.5t47 64t73 43t94.5 15.5q54 0 93.5 -14.5t67 -37t44.5 -49.5t25 -51l-119 -50q-10 30 -36.5 54t-72.5 24q-44 0 -73 -20.5t-29 -53.5q0 -32 28 -54.5t89 -43.5l45 -15q43 -15 78.5 -34.5t61 -46.5t39 -61.5t13.5 -79.5
q0 -56 -22.5 -96.5t-57.5 -66.5t-79 -39t-86 -13z" />
    <glyph glyph-name="scaron" unicode="&#x161;" horiz-adv-x="483" 
d="M70 716h125l40 -59h12l40 59h125v-8l-114 -126h-114l-114 126v8zM250 -16q-48 0 -85.5 12t-65 31.5t-46.5 45t-29 51.5l117 50q17 -38 45.5 -56.5t63.5 -18.5q36 0 57 13t21 31q0 20 -17.5 32.5t-60.5 22.5l-69 15q-23 5 -47.5 16t-44.5 28t-33 41t-13 56q0 36 15.5 64
t42.5 47.5t63.5 30t78.5 10.5q70 0 125 -27.5t81 -87.5l-113 -46q-14 29 -41 42t-54 13q-28 0 -49 -11.5t-21 -29.5q0 -17 17.5 -27t47.5 -18l75 -18q75 -18 111.5 -57.5t36.5 -93.5q0 -32 -15 -61t-42.5 -51.5t-66 -35.5t-85.5 -13z" />
    <glyph glyph-name="uni0162" unicode="&#x162;" horiz-adv-x="583" 
d="M306 -237q-36 0 -62 19t-37 47l64 27q4 -12 13 -20t22 -8q16 0 24.5 9.5t8.5 22.5t-8.5 23.5t-24.5 10.5q-9 0 -15.5 -4.5t-11.5 -9.5l-61 28l36 92h-30v588h-200v128h535v-128h-200v-588h-37l-21 -47q5 1 9 1h9q39 0 66.5 -25t27.5 -70q0 -42 -29.5 -69t-77.5 -27z" />
    <glyph glyph-name="uni0163" unicode="&#x163;" horiz-adv-x="401" 
d="M110 378h-86v112h86v150h131v-150h120v-112h-120v-191q0 -17 3.5 -31.5t13.5 -24.5q14 -16 40 -16q17 0 27 3.5t19 9.5l37 -114q-23 -11 -49.5 -16.5t-58.5 -5.5h-12l-17 -39q5 1 9 1h9q38 0 65.5 -25t27.5 -70q0 -42 -29 -69t-77 -27q-37 0 -62.5 19t-36.5 47l64 27
q4 -12 12.5 -20.5t22.5 -8.5q15 0 24 10t9 23t-9 23.5t-24 10.5q-9 0 -16 -4.5t-12 -9.5l-60 28l40 98q-26 10 -44 29q-47 45 -47 128v215z" />
    <glyph glyph-name="Tcaron" unicode="&#x164;" horiz-adv-x="583" 
d="M121 912h125l40 -59h12l40 59h125v-8l-114 -126h-114l-114 126v8zM224 0v588h-200v128h535v-128h-200v-588h-135z" />
    <glyph glyph-name="tcaron" unicode="&#x165;" horiz-adv-x="401" 
d="M295 545v171h118l-30 -171h-88zM110 378h-86v112h86v150h131v-150h120v-112h-120v-190q0 -17 3.5 -31.5t13.5 -24.5q14 -16 40 -16q17 0 27 3.5t19 9.5l37 -115q-23 -11 -49.5 -16.5t-58.5 -5.5q-37 0 -66.5 11.5t-49.5 31.5q-47 45 -47 128v215z" />
    <glyph glyph-name="Tbar" unicode="&#x166;" horiz-adv-x="583" 
d="M224 0v321h-127v106h127v161h-200v128h535v-128h-200v-161h126v-106h-126v-321h-135z" />
    <glyph glyph-name="tbar" unicode="&#x167;" horiz-adv-x="401" 
d="M110 214h-86v100h86v64h-86v112h86v150h131v-150h120v-112h-120v-64h106v-100h-106v-26q0 -17 3.5 -31.5t13.5 -24.5q14 -16 40 -16q17 0 27 3.5t19 9.5l37 -115q-23 -11 -49.5 -16.5t-58.5 -5.5q-37 0 -66.5 11.5t-49.5 31.5q-47 45 -47 128v51z" />
    <glyph glyph-name="Utilde" unicode="&#x168;" horiz-adv-x="669" 
d="M334 -16q-63 0 -114.5 20.5t-87.5 59.5t-56 94.5t-20 126.5v431h135v-439q0 -36 9 -66t27 -52t45 -34.5t62 -12.5q36 0 63 12.5t45 34.5t27 52t9 66v439h135v-431q0 -67 -19.5 -122.5t-56 -95t-88 -61.5t-115.5 -22zM395 771q-21 0 -39 6.5t-33 15.5q-15 8 -27 14.5
t-21 6.5q-25 0 -26 -29h-92q0 33 9.5 57t26 39.5t37 23.5t43.5 8q21 0 39.5 -6.5t33.5 -14.5q15 -9 27 -15.5t20 -6.5q24 0 27 29h92q0 -33 -10 -57t-26 -39.5t-37.5 -23.5t-43.5 -8z" />
    <glyph glyph-name="utilde" unicode="&#x169;" 
d="M395 64h-8q-23 -37 -62 -58.5t-89 -21.5q-93 0 -138.5 57t-45.5 152v297h131v-281q0 -53 23.5 -78.5t68.5 -25.5q27 0 47.5 11.5t35 31t22 46t7.5 56.5v240h131v-490h-123v64zM350 587q-21 0 -39 6.5t-33 15.5q-15 8 -27 14.5t-21 6.5q-25 0 -26 -29h-92q0 33 9.5 57
t26 39.5t37 23.5t43.5 8q21 0 39.5 -6.5t33.5 -14.5q15 -9 27 -15.5t20 -6.5q24 0 27 29h92q0 -33 -10 -57t-26 -39.5t-37.5 -23.5t-43.5 -8z" />
    <glyph glyph-name="Umacron" unicode="&#x16a;" horiz-adv-x="669" 
d="M334 -16q-63 0 -114.5 20.5t-87.5 59.5t-56 94.5t-20 126.5v431h135v-439q0 -36 9 -66t27 -52t45 -34.5t62 -12.5q36 0 63 12.5t45 34.5t27 52t9 66v439h135v-431q0 -67 -19.5 -122.5t-56 -95t-88 -61.5t-115.5 -22zM186 793v100h296v-100h-296z" />
    <glyph glyph-name="umacron" unicode="&#x16b;" 
d="M395 64h-8q-23 -37 -62 -58.5t-89 -21.5q-93 0 -138.5 57t-45.5 152v297h131v-281q0 -53 23.5 -78.5t68.5 -25.5q27 0 47.5 11.5t35 31t22 46t7.5 56.5v240h131v-490h-123v64zM139 609v100h296v-100h-296z" />
    <glyph glyph-name="Ubreve" unicode="&#x16c;" horiz-adv-x="669" 
d="M334 -16q-63 0 -114.5 20.5t-87.5 59.5t-56 94.5t-20 126.5v431h135v-439q0 -36 9 -66t27 -52t45 -34.5t62 -12.5q36 0 63 12.5t45 34.5t27 52t9 66v439h135v-431q0 -67 -19.5 -122.5t-56 -95t-88 -61.5t-115.5 -22zM335 763q-27 0 -52 10t-43.5 28t-30 43t-11.5 55h93
q0 -18 11.5 -32t32.5 -14q20 0 31.5 14t11.5 32h92q0 -30 -11 -55t-29.5 -43t-43 -28t-51.5 -10z" />
    <glyph glyph-name="ubreve" unicode="&#x16d;" 
d="M395 64h-8q-23 -37 -62 -58.5t-89 -21.5q-93 0 -138.5 57t-45.5 152v297h131v-281q0 -53 23.5 -78.5t68.5 -25.5q27 0 47.5 11.5t35 31t22 46t7.5 56.5v240h131v-490h-123v64zM289 564q-27 0 -52 10t-43.5 28t-30 43t-11.5 55h93q0 -18 11.5 -32t32.5 -14q20 0 31.5 14
t11.5 32h92q0 -30 -11 -55t-29.5 -43t-43 -28t-51.5 -10z" />
    <glyph glyph-name="Uring" unicode="&#x16e;" horiz-adv-x="669" 
d="M334 748q-23 0 -42.5 8.5t-34 23t-23 34t-8.5 42.5q0 22 8.5 42t23 34.5t34 23t42.5 8.5q22 0 42 -8.5t34.5 -23t23 -34.5t8.5 -42q0 -23 -8.5 -42.5t-23 -34t-34.5 -23t-42 -8.5zM334 821q14 0 24.5 10.5t10.5 24.5t-10.5 24.5t-24.5 10.5t-24.5 -10.5t-10.5 -24.5
t10.5 -24.5t24.5 -10.5zM334 -16q-63 0 -114.5 20.5t-87.5 59.5t-56 94.5t-20 126.5v431h135v-439q0 -36 9 -66t27 -52t45 -34.5t62 -12.5q36 0 63 12.5t45 34.5t27 52t9 66v439h135v-431q0 -67 -19.5 -122.5t-56 -95t-88 -61.5t-115.5 -22z" />
    <glyph glyph-name="uring" unicode="&#x16f;" 
d="M287 564q-23 0 -42.5 8.5t-34 23t-23 34t-8.5 42.5q0 22 8.5 42t23 34.5t34 23t42.5 8.5q22 0 42 -8.5t34.5 -23t23 -34.5t8.5 -42q0 -23 -8.5 -42.5t-23 -34t-34.5 -23t-42 -8.5zM287 637q14 0 24.5 10.5t10.5 24.5t-10.5 24.5t-24.5 10.5t-24.5 -10.5t-10.5 -24.5
t10.5 -24.5t24.5 -10.5zM395 64h-8q-23 -37 -62 -58.5t-89 -21.5q-93 0 -138.5 57t-45.5 152v297h131v-281q0 -53 23.5 -78.5t68.5 -25.5q27 0 47.5 11.5t35 31t22 46t7.5 56.5v240h131v-490h-123v64z" />
    <glyph glyph-name="Uhungarumlaut" unicode="&#x170;" horiz-adv-x="669" 
d="M334 -16q-63 0 -114.5 20.5t-87.5 59.5t-56 94.5t-20 126.5v431h135v-439q0 -36 9 -66t27 -52t45 -34.5t62 -12.5q36 0 63 12.5t45 34.5t27 52t9 66v439h135v-431q0 -67 -19.5 -122.5t-56 -95t-88 -61.5t-115.5 -22zM174 772l42 136h153l-90 -136h-105zM372 772l42 136
h153l-90 -136h-105z" />
    <glyph glyph-name="uhungarumlaut" unicode="&#x171;" 
d="M132 588l42 136h153l-90 -136h-105zM329 588l42 136h153l-90 -136h-105zM395 64h-8q-23 -37 -62 -58.5t-89 -21.5q-93 0 -138.5 57t-45.5 152v297h131v-281q0 -53 23.5 -78.5t68.5 -25.5q27 0 47.5 11.5t35 31t22 46t7.5 56.5v240h131v-490h-123v64z" />
    <glyph glyph-name="Uogonek" unicode="&#x172;" horiz-adv-x="669" 
d="M56 716h135v-439q0 -36 9 -66t27 -52t45 -34.5t62 -12.5q36 0 63 12.5t45 34.5t27 52t9 66v439h135v-431q0 -87 -32 -152t-92 -106q-16 -11 -35 -24t-35 -28t-26.5 -31t-10.5 -32q0 -18 11 -29.5t28 -11.5q12 0 24 5l34 -83q-16 -8 -36.5 -12.5t-42.5 -4.5
q-60 0 -94.5 32t-34.5 83q0 32 15 55.5t32 39.5q-2 -1 -6 -1q-59 4 -106.5 26t-80.5 61t-51 92.5t-18 120.5v431z" />
    <glyph glyph-name="uogonek" unicode="&#x173;" 
d="M468 -224q-61 0 -95.5 32t-34.5 83q0 19 5.5 35t14.5 29t19.5 22.5t20.5 16.5l-3 6v64h-8q-23 -37 -62 -58.5t-89 -21.5q-93 0 -138.5 57t-45.5 152v297h131v-281q0 -53 23.5 -78.5t68.5 -25.5q27 0 47.5 11.5t35 31t22 46t7.5 56.5v240h131v-490q-29 -20 -49 -41
t-20 -47q0 -18 11 -29.5t28 -11.5q12 0 25 5l33 -83q-15 -8 -36 -12.5t-42 -4.5z" />
    <glyph glyph-name="Wcircumflex" unicode="&#x174;" horiz-adv-x="954" 
d="M310 774l114 126h114l114 -126v-8h-125l-40 59h-12l-40 -59h-125v8zM16 716h143l111 -418l16 -77h8l21 77l103 322h126l104 -322l20 -76h8l15 76l104 418h143l-190 -716h-130l-112 345l-21 79h-8l-21 -79l-112 -345h-130z" />
    <glyph glyph-name="wcircumflex" unicode="&#x175;" horiz-adv-x="805" 
d="M230 590l114 126h114l114 -126v-8h-125l-40 59h-12l-40 -59h-125v8zM4 490h147l81 -307h7l97 307h135l98 -307h7l80 307h145l-157 -490h-141l-98 309h-7l-98 -309h-139z" />
    <glyph glyph-name="Ycircumflex" unicode="&#x176;" horiz-adv-x="637" 
d="M253 333l-241 383h161l143 -237h8l138 237h163l-237 -383v-333h-135v333zM149 774l114 126h114l114 -126v-8h-125l-40 59h-12l-40 -59h-125v8z" />
    <glyph glyph-name="ycircumflex" unicode="&#x177;" horiz-adv-x="553" 
d="M210 24l-206 466h149l124 -297h7l119 297h146l-307 -706h-141zM107 590l114 126h114l114 -126v-8h-125l-40 59h-12l-40 -59h-125v8z" />
    <glyph glyph-name="Ydieresis" unicode="&#x178;" horiz-adv-x="637" 
d="M253 333l-241 383h161l143 -237h8l138 237h163l-237 -383v-333h-135v333zM415 771q-29 0 -50 21.5t-21 50.5q0 30 21 51t50 21q31 0 51.5 -21t20.5 -51q0 -29 -20.5 -50.5t-51.5 -21.5zM225 771q-30 0 -51 21.5t-21 50.5q0 30 21 51t51 21t50.5 -21t20.5 -51
q0 -29 -20.5 -50.5t-50.5 -21.5z" />
    <glyph glyph-name="Zacute" unicode="&#x179;" horiz-adv-x="596" 
d="M241 772l42 136h153l-90 -136h-105zM32 136l363 452h-347v128h504v-136l-359 -452h363v-128h-524v136z" />
    <glyph glyph-name="zacute" unicode="&#x17a;" horiz-adv-x="479" 
d="M195 588l42 136h153l-90 -136h-105zM32 108l250 270h-242v112h403v-108l-250 -270h254v-112h-415v108z" />
    <glyph glyph-name="Zdotaccent" unicode="&#x17b;" horiz-adv-x="596" 
d="M302 785q-29 0 -50 21t-21 50t21 50t50 21t49.5 -21t20.5 -50t-20.5 -50t-49.5 -21zM32 136l363 452h-347v128h504v-136l-359 -452h363v-128h-524v136z" />
    <glyph glyph-name="zdotaccent" unicode="&#x17c;" horiz-adv-x="479" 
d="M32 108l250 270h-242v112h403v-108l-250 -270h254v-112h-415v108zM246 575q-32 0 -54 22.5t-22 53.5q0 32 22 54t54 22t53.5 -22t21.5 -54q0 -31 -21.5 -53.5t-53.5 -22.5z" />
    <glyph glyph-name="Zcaron" unicode="&#x17d;" horiz-adv-x="596" 
d="M133 900h125l40 -59h12l40 59h125v-8l-114 -126h-114l-114 126v8zM32 136l363 452h-347v128h504v-136l-359 -452h363v-128h-524v136z" />
    <glyph glyph-name="zcaron" unicode="&#x17e;" horiz-adv-x="479" 
d="M76 716h125l40 -59h12l40 59h125v-8l-114 -126h-114l-114 126v8zM32 108l250 270h-242v112h403v-108l-250 -270h254v-112h-415v108z" />
    <glyph glyph-name="uni0192" unicode="&#x192;" horiz-adv-x="614" 
d="M133 -220q-23 0 -49 4.5t-45 12.5l36 118q16 -11 45 -11q59 0 74 74l65 330h-92v112h114l22 109q18 91 71 141t140 50q48 0 88 -16l-44 -118q-17 10 -44 10q-29 0 -52 -18t-30 -54l-21 -104h113v-112h-135l-72 -365q-7 -35 -21.5 -64.5t-37 -51.5t-54 -34.5t-71.5 -12.5z
" />
    <glyph glyph-name="Aringacute" unicode="&#x1fa;" horiz-adv-x="716" 
d="M263 668q-16 17 -25.5 39.5t-9.5 48.5q0 46 27.5 80.5t69.5 45.5l30 71h116l-50 -84q30 -17 48.5 -46.5t18.5 -66.5q0 -26 -9.5 -48.5t-25.5 -39.5l251 -668h-149l-59 171h-275l-60 -171h-149zM452 295l-64 179l-26 87h-8l-26 -87l-64 -179h188zM358 716q17 0 28.5 11.5
t11.5 28.5t-11.5 28.5t-28.5 11.5t-28.5 -11.5t-11.5 -28.5t11.5 -28.5t28.5 -11.5z" />
    <glyph glyph-name="aringacute" unicode="&#x1fb;" horiz-adv-x="535" 
d="M225 807l32 114h138l-70 -114h-100zM358 52h-8q-23 -28 -55.5 -48t-83.5 -20q-38 0 -71.5 12.5t-58.5 34.5t-39 53t-14 68q0 38 15 68.5t42 52.5t63.5 33.5t79.5 11.5q48 0 79 -7.5t51 -15.5v15q0 39 -31 64.5t-77 25.5q-68 0 -115 -57l-95 65q78 98 213 98
q114 0 174 -53.5t60 -158.5v-294h-129v52zM358 199q-23 11 -47.5 17.5t-53.5 6.5q-47 0 -72.5 -20.5t-25.5 -50.5t24.5 -48t56.5 -18q26 0 48 9.5t37.5 25t24 36t8.5 42.5zM270 564q-23 0 -42.5 8.5t-34 23t-23 34t-8.5 42.5q0 22 8.5 42t23 34.5t34 23t42.5 8.5
q22 0 42 -8.5t34.5 -23t23 -34.5t8.5 -42q0 -23 -8.5 -42.5t-23 -34t-34.5 -23t-42 -8.5zM270 637q14 0 24.5 10.5t10.5 24.5t-10.5 24.5t-24.5 10.5t-24.5 -10.5t-10.5 -24.5t10.5 -24.5t24.5 -10.5z" />
    <glyph glyph-name="AEacute" unicode="&#x1fc;" horiz-adv-x="1005" 
d="M638 772l42 136h153l-90 -136h-105zM4 0l418 716h531v-128h-319v-166h287v-128h-287v-166h319v-128h-454v173h-239l-98 -173h-158zM331 301h168v287h-10l-34 -70z" />
    <glyph glyph-name="aeacute" unicode="&#x1fd;" horiz-adv-x="887" 
d="M382 588l42 136h153l-90 -136h-105zM619 -16q-62 0 -111.5 26.5t-85.5 72.5q-77 -99 -204 -99q-42 0 -76.5 12.5t-60 34.5t-39.5 53t-14 68q0 38 15 68.5t42 52.5t63.5 33.5t79.5 11.5q48 0 79 -7.5t51 -15.5v9q0 44 -30.5 70t-75.5 26q-72 0 -98 -56l-102 45
q29 57 80 87t123 30q61 0 106.5 -22t75.5 -61q32 40 77.5 61.5t100.5 21.5q59 0 104.5 -19.5t76.5 -54t47 -81.5t16 -102v-12q-1 -6 -1 -11q-1 -5 -1 -11h-370q4 -30 17 -51.5t31.5 -36t40.5 -21t45 -6.5q45 0 74.5 20.5t47.5 51.5l108 -54q-33 -60 -91 -97t-141 -37z
M240 86q26 0 48 9.5t37.5 25t24 36t8.5 42.5q-23 11 -47.5 17.5t-53.5 6.5q-47 0 -72.5 -20.5t-25.5 -50.5t24.5 -48t56.5 -18zM733 308q-2 13 -9.5 29t-22 30t-36 23t-51.5 9q-42 0 -75 -24t-46 -67h240z" />
    <glyph glyph-name="Oslashacute" unicode="&#x1fe;" horiz-adv-x="822" 
d="M134 12l35 57q-62 51 -97 125.5t-35 163.5q0 78 28.5 146.5t78.5 119t118.5 79.5t148.5 29q83 0 154 -31l38 62l90 -59l-37 -60q60 -51 94.5 -125t34.5 -161q0 -78 -28.5 -146.5t-78.5 -119t-118.5 -79.5t-148.5 -29q-41 0 -78 7.5t-71 21.5l-37 -60zM172 358
q0 -55 18 -99.5t50 -76.5l255 408q-40 14 -84 14q-50 0 -93.5 -18t-76 -50t-51 -77.5t-18.5 -100.5zM411 112q50 0 93.5 18t76 50t51 77.5t18.5 100.5q0 54 -17.5 97.5t-47.5 75.5l-253 -407q36 -12 79 -12zM359 772l42 136h153l-90 -136h-105z" />
    <glyph glyph-name="oslashacute" unicode="&#x1ff;" horiz-adv-x="576" 
d="M288 506q50 0 94 -15l26 42l90 -51l-28 -45q37 -35 57.5 -84t20.5 -108q0 -57 -19.5 -105t-54 -82.5t-82 -54t-104.5 -19.5q-25 0 -48 4t-44 11l-25 -41l-90 51l26 42q-38 35 -58.5 84.5t-20.5 109.5q0 57 19.5 105t54 82.5t82 54t104.5 19.5zM149 245q0 -26 6.5 -48.5
t17.5 -39.5l145 233q-13 4 -30 4q-27 0 -52.5 -10t-44.5 -29.5t-30.5 -47t-11.5 -62.5zM288 96q27 0 52.5 10t44.5 29.5t30.5 47t11.5 62.5q0 49 -23 86l-145 -232q15 -3 29 -3zM233 588l42 136h153l-90 -136h-105z" />
    <glyph glyph-name="uni0218" unicode="&#x218;" horiz-adv-x="575" 
d="M228 -253l45 70q-20 8 -31.5 25t-11.5 39q0 29 20.5 50t50.5 21t50.5 -21t20.5 -51q0 -12 -3.5 -22.5t-9.5 -21.5l-82 -121zM291 -16q-46 0 -88 13t-77 39t-61 63.5t-41 87.5l127 50q14 -54 49 -89.5t92 -35.5q21 0 40.5 5.5t35 16t24.5 26.5t9 37q0 20 -7 36t-23.5 30
t-43 27t-65.5 27l-44 16q-29 10 -58.5 27t-53.5 41t-39.5 56.5t-15.5 73.5q0 42 16.5 78.5t47 64t73 43t94.5 15.5q54 0 93.5 -14.5t67 -37t44.5 -49.5t25 -51l-119 -50q-10 30 -36.5 54t-72.5 24q-44 0 -73 -20.5t-29 -53.5q0 -32 28 -54.5t89 -43.5l45 -15
q43 -15 78.5 -34.5t61 -46.5t39 -61.5t13.5 -79.5q0 -56 -22.5 -96.5t-57.5 -66.5t-79 -39t-86 -13z" />
    <glyph glyph-name="uni0219" unicode="&#x219;" horiz-adv-x="483" 
d="M180 -253l45 70q-20 8 -31.5 25t-11.5 39q0 29 20.5 50t50.5 21t50.5 -21t20.5 -51q0 -12 -3.5 -22.5t-9.5 -21.5l-82 -121zM250 -16q-48 0 -85.5 12t-65 31.5t-46.5 45t-29 51.5l117 50q17 -38 45.5 -56.5t63.5 -18.5q36 0 57 13t21 31q0 20 -17.5 32.5t-60.5 22.5
l-69 15q-23 5 -47.5 16t-44.5 28t-33 41t-13 56q0 36 15.5 64t42.5 47.5t63.5 30t78.5 10.5q70 0 125 -27.5t81 -87.5l-113 -46q-14 29 -41 42t-54 13q-28 0 -49 -11.5t-21 -29.5q0 -17 17.5 -27t47.5 -18l75 -18q75 -18 111.5 -57.5t36.5 -93.5q0 -32 -15 -61t-42.5 -51.5
t-66 -35.5t-85.5 -13z" />
    <glyph glyph-name="uni021A" unicode="&#x21a;" horiz-adv-x="583" 
d="M218 -253l45 70q-20 8 -31.5 25t-11.5 39q0 29 20.5 50t50.5 21t50.5 -21t20.5 -51q0 -12 -3.5 -22.5t-9.5 -21.5l-82 -121zM224 0v588h-200v128h535v-128h-200v-588h-135z" />
    <glyph glyph-name="uni021B" unicode="&#x21b;" horiz-adv-x="401" 
d="M172 -253l45 70q-20 8 -31.5 25t-11.5 39q0 29 20.5 50t50.5 21t50.5 -21t20.5 -51q0 -12 -3.5 -22.5t-9.5 -21.5l-82 -121zM110 378h-86v112h86v150h131v-150h120v-112h-120v-190q0 -17 3.5 -31.5t13.5 -24.5q14 -16 40 -16q17 0 27 3.5t19 9.5l37 -115
q-23 -11 -49.5 -16.5t-58.5 -5.5q-37 0 -66.5 11.5t-49.5 31.5q-47 45 -47 128v215z" />
    <glyph glyph-name="uni0237" unicode="&#x237;" horiz-adv-x="259" 
d="M34 -226q-25 0 -45 3.5t-37 10.5l33 116q8 -5 15.5 -7t18.5 -2q45 0 45 59v536h131v-540q0 -48 -13 -81.5t-35 -54.5t-51 -30.5t-62 -9.5z" />
    <glyph glyph-name="circumflex" unicode="&#x2c6;" horiz-adv-x="456" 
d="M57 590l114 126h114l114 -126v-8h-125l-40 59h-12l-40 -59h-125v8z" />
    <glyph glyph-name="caron" unicode="&#x2c7;" horiz-adv-x="456" 
d="M57 716h125l40 -59h12l40 59h125v-8l-114 -126h-114l-114 126v8z" />
    <glyph glyph-name="breve" unicode="&#x2d8;" horiz-adv-x="416" 
d="M209 579q-27 0 -52 10t-43.5 28t-30 43t-11.5 55h93q0 -18 11.5 -32t32.5 -14q20 0 31.5 14t11.5 32h92q0 -30 -11 -55t-29.5 -43t-43 -28t-51.5 -10z" />
    <glyph glyph-name="dotaccent" unicode="&#x2d9;" horiz-adv-x="269" 
d="M135 575q-32 0 -54 22.5t-22 53.5q0 32 22 54t54 22t53.5 -22t21.5 -54q0 -31 -21.5 -53.5t-53.5 -22.5z" />
    <glyph glyph-name="ring" unicode="&#x2da;" horiz-adv-x="408" 
d="M204 564q-23 0 -42.5 8.5t-34 23t-23 34t-8.5 42.5q0 22 8.5 42t23 34.5t34 23t42.5 8.5q22 0 42 -8.5t34.5 -23t23 -34.5t8.5 -42q0 -23 -8.5 -42.5t-23 -34t-34.5 -23t-42 -8.5zM204 637q14 0 24.5 10.5t10.5 24.5t-10.5 24.5t-24.5 10.5t-24.5 -10.5t-10.5 -24.5
t10.5 -24.5t24.5 -10.5z" />
    <glyph glyph-name="tilde" unicode="&#x2dc;" horiz-adv-x="419" 
d="M270 587q-21 0 -39 6.5t-33 15.5q-15 8 -27 14.5t-21 6.5q-25 0 -26 -29h-92q0 33 9.5 57t26 39.5t37 23.5t43.5 8q21 0 39.5 -6.5t33.5 -14.5q15 -9 27 -15.5t20 -6.5q24 0 27 29h92q0 -33 -10 -57t-26 -39.5t-37.5 -23.5t-43.5 -8z" />
    <glyph glyph-name="uni0374" unicode="&#x374;" horiz-adv-x="314" 
d="M118 716h156l-127 -221h-107z" />
    <glyph glyph-name="uni0375" unicode="&#x375;" horiz-adv-x="314" 
d="M197 -99h-157l128 221h106z" />
    <glyph glyph-name="uni037E" unicode="&#x37e;" horiz-adv-x="271" 
d="M136 329q-36 0 -61.5 25.5t-25.5 61.5t25.5 61.5t61.5 25.5t61.5 -25.5t25.5 -61.5t-25.5 -61.5t-61.5 -25.5zM44 -83l59 91q-22 8 -37.5 29t-15.5 50q0 36 25.5 61t61.5 25t61 -25t25 -61q0 -19 -6 -33.5t-19 -33.5l-95 -142z" />
    <glyph glyph-name="tonos" unicode="&#x384;" horiz-adv-x="442" 
d="M169 716h153l-88 -136h-105z" />
    <glyph glyph-name="dieresistonos" unicode="&#x385;" horiz-adv-x="464" 
d="M98 593q-27 0 -46.5 19.5t-19.5 46.5q0 28 19.5 47t46.5 19q28 0 47 -19t19 -47q0 -27 -19 -46.5t-47 -19.5zM195 732h74v-144h-74v144zM366 593q-27 0 -46.5 19.5t-19.5 46.5q0 28 19.5 47t46.5 19q28 0 47 -19t19 -47q0 -27 -19 -46.5t-47 -19.5z" />
    <glyph glyph-name="Alphatonos" unicode="&#x386;" horiz-adv-x="716" 
d="M281 716h154l269 -716h-149l-59 171h-276l-59 -171h-149zM452 295l-64 179l-26 87h-8l-26 -87l-64 -179h188zM32 588l42 136h153l-90 -136h-105z" />
    <glyph glyph-name="anoteleia" unicode="&#x387;" horiz-adv-x="213" 
d="M107 237q-36 0 -61.5 25.5t-25.5 61.5t25.5 61.5t61.5 25.5t61 -25.5t25 -61.5t-25 -61.5t-61 -25.5z" />
    <glyph glyph-name="Epsilontonos" unicode="&#x388;" horiz-adv-x="657" 
d="M-79 588l42 136h153l-90 -136h-105zM286 588v-166h287v-128h-287v-166h319v-128h-454v716h454v-128h-319z" />
    <glyph glyph-name="Etatonos" unicode="&#x389;" horiz-adv-x="795" 
d="M151 716h135v-286h301v286h135v-716h-135v302h-301v-302h-135v716zM-79 588l42 136h153l-90 -136h-105z" />
    <glyph glyph-name="Iotatonos" unicode="&#x38a;" horiz-adv-x="358" 
d="M151 716h135v-716h-135v716zM-79 588l42 136h153l-90 -136h-105z" />
    <glyph glyph-name="Omicrontonos" unicode="&#x38c;" horiz-adv-x="800" 
d="M-79 588l42 136h153l-90 -136h-105zM390 -16q-80 0 -148.5 29t-118.5 79.5t-78.5 119t-28.5 146.5t28.5 146.5t78.5 119t118.5 79.5t148.5 29t148.5 -29t118.5 -79.5t78.5 -119t28.5 -146.5t-28.5 -146.5t-78.5 -119t-118.5 -79.5t-148.5 -29zM390 112q50 0 93.5 18
t76 50t51 77.5t18.5 100.5t-18.5 100.5t-51 77.5t-76 50t-93.5 18t-93.5 -18t-76 -50t-51 -77.5t-18.5 -100.5t18.5 -100.5t51 -77.5t76 -50t93.5 -18z" />
    <glyph glyph-name="Upsilontonos" unicode="&#x38e;" horiz-adv-x="767" 
d="M373 333l-241 383h161l143 -237h8l138 237h163l-237 -383v-333h-135v333zM-79 588l42 136h153l-90 -136h-105z" />
    <glyph glyph-name="Omegatonos" unicode="&#x38f;" horiz-adv-x="785" 
d="M432 0v164q36 10 68 30t56 48.5t38 65.5t14 81q0 46 -17.5 85.5t-48 68.5t-71 45t-85.5 16t-85.5 -16t-71 -45t-48 -68.5t-17.5 -85.5q0 -44 14 -81t38 -65.5t56 -48.5t68 -30v-164h-299v117h135v8q-30 18 -57 44t-47 60t-31.5 76.5t-11.5 92.5q0 68 26.5 129t74 106.5
t113 72t143.5 26.5t143.5 -26.5t113 -72t74 -106.5t26.5 -129q0 -50 -11.5 -92.5t-32 -76.5t-47 -60t-56.5 -44v-8h135v-117h-299zM-79 588l42 136h153l-90 -136h-105z" />
    <glyph glyph-name="iotadieresistonos" unicode="&#x390;" horiz-adv-x="259" 
d="M-4 593q-27 0 -46.5 19.5t-19.5 46.5q0 28 19.5 47t46.5 19q28 0 47 -19t19 -47q0 -27 -19 -46.5t-47 -19.5zM93 732h74v-144h-74v144zM264 593q-27 0 -46.5 19.5t-19.5 46.5q0 28 19.5 47t46.5 19q28 0 47 -19t19 -47q0 -27 -19 -46.5t-47 -19.5zM64 0v490h131v-490
h-131z" />
    <glyph glyph-name="Alpha" unicode="&#x391;" horiz-adv-x="716" 
d="M281 716h154l269 -716h-149l-59 171h-276l-59 -171h-149zM452 295l-64 179l-26 87h-8l-26 -87l-64 -179h188z" />
    <glyph glyph-name="Beta" unicode="&#x392;" horiz-adv-x="629" 
d="M72 716h280q46 0 86 -14.5t69.5 -40t46.5 -59.5t17 -73q0 -57 -27.5 -95.5t-68.5 -58.5v-8q55 -20 88.5 -62.5t33.5 -105.5q0 -46 -18.5 -82.5t-50.5 -62.5t-74.5 -40t-91.5 -14h-290v716zM342 424q47 0 72.5 25.5t25.5 60.5t-25 60t-69 25h-139v-171h135zM357 124
q51 0 78 25.5t27 65.5t-27.5 66.5t-81.5 26.5h-146v-184h150z" />
    <glyph glyph-name="Gamma" unicode="&#x393;" horiz-adv-x="534" 
d="M72 716h438v-128h-303v-588h-135v716z" />
    <glyph glyph-name="uni0394" unicode="&#x394;" horiz-adv-x="708" 
d="M277 716h154l265 -716h-684zM203 124h302l-147 425h-8z" />
    <glyph glyph-name="Epsilon" unicode="&#x395;" horiz-adv-x="578" 
d="M207 588v-166h287v-128h-287v-166h319v-128h-454v716h454v-128h-319z" />
    <glyph glyph-name="Zeta" unicode="&#x396;" horiz-adv-x="596" 
d="M32 136l363 452h-347v128h504v-136l-359 -452h363v-128h-524v136z" />
    <glyph glyph-name="Eta" unicode="&#x397;" horiz-adv-x="715" 
d="M72 716h135v-286h301v286h135v-716h-135v302h-301v-302h-135v716z" />
    <glyph glyph-name="Theta" unicode="&#x398;" horiz-adv-x="836" 
d="M259 299v118h309v-118h-309zM411 -16q-80 0 -148.5 29t-118.5 79.5t-78.5 119t-28.5 146.5t28.5 146.5t78.5 119t118.5 79.5t148.5 29t148.5 -29t118.5 -79.5t78.5 -119t28.5 -146.5t-28.5 -146.5t-78.5 -119t-118.5 -79.5t-148.5 -29zM411 112q50 0 93.5 18t76 50
t51 77.5t18.5 100.5t-18.5 100.5t-51 77.5t-76 50t-93.5 18t-93.5 -18t-76 -50t-51 -77.5t-18.5 -100.5t18.5 -100.5t51 -77.5t76 -50t93.5 -18z" />
    <glyph glyph-name="Iota" unicode="&#x399;" horiz-adv-x="279" 
d="M72 716h135v-716h-135v716z" />
    <glyph glyph-name="Kappa" unicode="&#x39a;" horiz-adv-x="655" 
d="M637 708l-277 -353l295 -347v-8h-170l-270 319h-8v-319h-135v716h135v-336h8l256 336h166v-8z" />
    <glyph glyph-name="Lambda" unicode="&#x39b;" horiz-adv-x="700" 
d="M273 716h154l261 -716h-150l-161 477l-23 84h-8l-23 -84l-161 -477h-150z" />
    <glyph glyph-name="Mu" unicode="&#x39c;" horiz-adv-x="857" 
d="M72 716h133l219 -379h8l219 379h134v-716h-134v353l8 120h-8l-182 -321h-81l-183 321h-8l8 -120v-353h-133v716z" />
    <glyph glyph-name="Nu" unicode="&#x39d;" horiz-adv-x="723" 
d="M72 716h157l288 -480h8l-8 138v342h134v-716h-142l-304 507h-8l8 -138v-369h-133v716z" />
    <glyph glyph-name="Xi" unicode="&#x39e;" horiz-adv-x="543" 
d="M28 128h487v-128h-487v128zM60 421h423v-126h-423v126zM28 716h487v-128h-487v128z" />
    <glyph glyph-name="Omicron" unicode="&#x39f;" horiz-adv-x="822" 
d="M411 -16q-80 0 -148.5 29t-118.5 79.5t-78.5 119t-28.5 146.5t28.5 146.5t78.5 119t118.5 79.5t148.5 29t148.5 -29t118.5 -79.5t78.5 -119t28.5 -146.5t-28.5 -146.5t-78.5 -119t-118.5 -79.5t-148.5 -29zM411 112q50 0 93.5 18t76 50t51 77.5t18.5 100.5t-18.5 100.5
t-51 77.5t-76 50t-93.5 18t-93.5 -18t-76 -50t-51 -77.5t-18.5 -100.5t18.5 -100.5t51 -77.5t76 -50t93.5 -18z" />
    <glyph glyph-name="Pi" unicode="&#x3a0;" horiz-adv-x="694" 
d="M72 716h550v-716h-135v588h-280v-588h-135v716z" />
    <glyph glyph-name="Rho" unicode="&#x3a1;" horiz-adv-x="592" 
d="M72 0v716h252q51 0 95.5 -16.5t77.5 -46.5t52 -71.5t19 -91.5q0 -51 -19 -92.5t-52 -71.5t-77.5 -46.5t-95.5 -16.5h-117v-263h-135zM326 391q53 0 80 30t27 69q0 19 -6.5 37t-20 31.5t-33.5 21.5t-47 8h-119v-197h119z" />
    <glyph glyph-name="Sigma" unicode="&#x3a3;" horiz-adv-x="526" 
d="M202 592l188 -226l-188 -242h296v-124h-458v132l190 234l-190 218v132h458v-124h-296z" />
    <glyph glyph-name="Tau" unicode="&#x3a4;" horiz-adv-x="583" 
d="M224 0v588h-200v128h535v-128h-200v-588h-135z" />
    <glyph glyph-name="Upsilon" unicode="&#x3a5;" horiz-adv-x="637" 
d="M253 333l-241 383h161l143 -237h8l138 237h163l-237 -383v-333h-135v333z" />
    <glyph glyph-name="Phi" unicode="&#x3a6;" horiz-adv-x="811" 
d="M338 -32v92q-71 9 -126.5 35.5t-94.5 65.5t-59.5 89.5t-20.5 107.5t20.5 107.5t59.5 89.5t94.5 65.5t126.5 35.5v92h135v-92q70 -9 126 -35.5t95 -65.5t59.5 -89.5t20.5 -107.5t-20.5 -107.5t-59.5 -89.5t-95 -65.5t-126 -35.5v-92h-135zM639 358q0 69 -44 114.5
t-122 59.5v-348q78 14 122 59.5t44 114.5zM172 358q0 -69 44 -114.5t122 -59.5v348q-78 -14 -122 -59.5t-44 -114.5z" />
    <glyph glyph-name="Chi" unicode="&#x3a7;" horiz-adv-x="688" 
d="M251 374l-217 342h167l139 -234h8l139 234h167l-217 -342l235 -374h-168l-156 258h-8l-156 -258h-168z" />
    <glyph glyph-name="Psi" unicode="&#x3a8;" horiz-adv-x="775" 
d="M455 0h-135v156q-53 0 -100.5 20.5t-84 58.5t-58 92t-21.5 122v267h135v-274q0 -32 8 -61t24 -50.5t40.5 -34t56.5 -12.5v432h135v-432q32 0 56.5 12.5t40.5 34t24 50.5t8 61v274h135v-267q0 -68 -21.5 -122t-58 -92t-84.5 -58.5t-100 -20.5v-156z" />
    <glyph glyph-name="uni03A9" unicode="&#x3a9;" horiz-adv-x="800" 
d="M446 0v164q36 10 68 30t56 48.5t38 65.5t14 81q0 46 -17.5 85.5t-48 68.5t-71 45t-85.5 16t-85.5 -16t-71 -45t-48 -68.5t-17.5 -85.5q0 -44 14 -81t38 -65.5t56 -48.5t68 -30v-164h-299v117h135v8q-30 18 -57 44t-47 60t-31.5 76.5t-11.5 92.5q0 68 26.5 129t74 106.5
t113 72t143.5 26.5t143.5 -26.5t113 -72t74 -106.5t26.5 -129q0 -50 -11.5 -92.5t-32 -76.5t-47 -60t-56.5 -44v-8h135v-117h-299z" />
    <glyph glyph-name="Iotadieresis" unicode="&#x3aa;" horiz-adv-x="279" 
d="M229 789q-28 0 -48 20t-20 47q0 28 20 47.5t48 19.5t47.5 -19.5t19.5 -47.5q0 -27 -19.5 -47t-47.5 -20zM72 716h135v-716h-135v716zM51 789q-28 0 -48 20t-20 47q0 28 20 47.5t48 19.5t47.5 -19.5t19.5 -47.5q0 -27 -19.5 -47t-47.5 -20z" />
    <glyph glyph-name="Upsilondieresis" unicode="&#x3ab;" horiz-adv-x="637" 
d="M253 333l-241 383h161l143 -237h8l138 237h163l-237 -383v-333h-135v333zM415 771q-29 0 -50 21.5t-21 50.5q0 30 21 51t50 21q31 0 51.5 -21t20.5 -51q0 -29 -20.5 -50.5t-51.5 -21.5zM225 771q-30 0 -51 21.5t-21 50.5q0 30 21 51t51 21t50.5 -21t20.5 -51
q0 -29 -20.5 -50.5t-50.5 -21.5z" />
    <glyph glyph-name="alphatonos" unicode="&#x3ac;" horiz-adv-x="596" 
d="M230 588l42 136h153l-90 -136h-105zM263 -16q-47 0 -90 19.5t-75 54t-51 82.5t-19 105t19 105t51 82.5t75 54t90 19.5q56 0 94 -22t56 -53h8v59h123v-490h-123v59h-8q-18 -31 -56 -53t-94 -22zM290 105q26 0 49.5 9.5t41.5 27.5t29 44t11 59t-11 59t-29 44t-41.5 27.5
t-49.5 9.5t-49.5 -10t-41.5 -28t-29 -44t-11 -58t11 -58t29 -44t41.5 -28t49.5 -10z" />
    <glyph glyph-name="epsilontonos" unicode="&#x3ad;" horiz-adv-x="517" 
d="M250 506q60 0 105.5 -19t86.5 -60l-78 -75q-23 26 -51 38t-63 12q-34 0 -55.5 -14.5t-21.5 -36.5q0 -26 19.5 -40t50.5 -14h78v-94h-79q-40 0 -60.5 -16t-20.5 -39q0 -25 24.5 -40t66.5 -15q37 0 67.5 15.5t59.5 45.5l80 -81q-38 -41 -89 -65t-118 -24q-101 0 -158.5 41
t-57.5 113q0 36 21.5 65.5t58.5 46.5v8q-28 14 -44 39t-16 67q0 30 15 55.5t41.5 45t61.5 30.5t76 11zM199 588l42 136h153l-90 -136h-105z" />
    <glyph glyph-name="etatonos" unicode="&#x3ae;" 
d="M243 588l42 136h153l-90 -136h-105zM179 426h8q23 37 62 58.5t89 21.5q45 0 79.5 -15.5t58 -43.5t35 -67t11.5 -85v-511h-131v495q0 51 -23.5 78.5t-68.5 27.5q-27 0 -47.5 -11.5t-35 -31t-22 -46t-7.5 -56.5v-240h-131v490h123v-64z" />
    <glyph glyph-name="iotatonos" unicode="&#x3af;" horiz-adv-x="259" 
d="M71 588l42 136h153l-90 -136h-105zM64 0v490h131v-490h-131z" />
    <glyph glyph-name="upsilondieresistonos" unicode="&#x3b0;" horiz-adv-x="567" 
d="M134 593q-27 0 -46.5 19.5t-19.5 46.5q0 28 19.5 47t46.5 19q28 0 47 -19t19 -47q0 -27 -19 -46.5t-47 -19.5zM231 732h74v-144h-74v144zM402 593q-27 0 -46.5 19.5t-19.5 46.5q0 28 19.5 47t46.5 19q28 0 47 -19t19 -47q0 -27 -19 -46.5t-47 -19.5zM284 -16
q-49 0 -91 16.5t-73.5 46.5t-49.5 71.5t-18 90.5v281h131v-252q0 -66 31.5 -99.5t76.5 -33.5q22 0 43.5 8.5t37.5 26t26 43t10 59.5q0 60 -21 120t-59 128h141q30 -55 50 -119.5t20 -133.5q0 -67 -21.5 -115t-57 -78.5t-81.5 -45t-95 -14.5z" />
    <glyph glyph-name="alpha" unicode="&#x3b1;" horiz-adv-x="596" 
d="M263 -16q-47 0 -90 19.5t-75 54t-51 82.5t-19 105t19 105t51 82.5t75 54t90 19.5q56 0 94 -22t56 -53h8v59h123v-490h-123v59h-8q-18 -31 -56 -53t-94 -22zM290 105q26 0 49.5 9.5t41.5 27.5t29 44t11 59t-11 59t-29 44t-41.5 27.5t-49.5 9.5t-49.5 -10t-41.5 -28
t-29 -44t-11 -58t11 -58t29 -44t41.5 -28t49.5 -10z" />
    <glyph glyph-name="beta" unicode="&#x3b2;" horiz-adv-x="585" 
d="M439 383q51 -23 82.5 -65.5t31.5 -113.5q0 -50 -17.5 -90.5t-47 -69.5t-69 -44.5t-82.5 -15.5t-75.5 14.5t-58.5 44.5h-8l8 -76v-183h-131v723q0 48 16 89.5t45.5 71.5t71.5 47t95 17q48 0 88 -14t69 -39t45.5 -60.5t16.5 -77.5q0 -56 -24 -93t-56 -57v-8zM313 105
q23 0 43 8.5t34.5 23t23 35t8.5 44.5q0 23 -9.5 42.5t-25.5 34t-38 23t-47 8.5h-29v115h21q46 0 72.5 25t26.5 65q0 36 -26.5 59t-66.5 23q-46 0 -71.5 -29.5t-25.5 -74.5v-285q0 -58 29.5 -87.5t80.5 -29.5z" />
    <glyph glyph-name="gamma" unicode="&#x3b3;" horiz-adv-x="578" 
d="M222 -216v220l-218 486h149l132 -316h8l134 316h147l-221 -486v-220h-131z" />
    <glyph glyph-name="delta" unicode="&#x3b4;" horiz-adv-x="576" 
d="M288 -16q-57 0 -104.5 19.5t-82 54.5t-54 82.5t-19.5 104.5q0 51 16 93t42 73.5t60.5 52.5t72.5 30l-150 122v100h425v-112h-234l185 -149q53 -42 78 -96t25 -114q0 -57 -19.5 -104.5t-54 -82.5t-82 -54.5t-104.5 -19.5zM288 105q25 0 48.5 9.5t41.5 27.5t28.5 44
t10.5 59t-10.5 59t-28.5 44t-41.5 27.5t-48.5 9.5q-26 0 -49 -9.5t-41 -27.5t-28.5 -44t-10.5 -59t10.5 -59t28.5 -44t41 -27.5t49 -9.5z" />
    <glyph glyph-name="epsilon" unicode="&#x3b5;" horiz-adv-x="499" 
d="M250 506q60 0 105.5 -19t86.5 -60l-78 -75q-23 26 -51 38t-63 12q-34 0 -55.5 -14.5t-21.5 -36.5q0 -26 19.5 -40t50.5 -14h78v-94h-79q-40 0 -60.5 -16t-20.5 -39q0 -25 24.5 -40t66.5 -15q37 0 67.5 15.5t59.5 45.5l80 -81q-38 -41 -89 -65t-118 -24q-101 0 -158.5 41
t-57.5 113q0 36 21.5 65.5t58.5 46.5v8q-28 14 -44 39t-16 67q0 30 15 55.5t41.5 45t61.5 30.5t76 11z" />
    <glyph glyph-name="zeta" unicode="&#x3b6;" horiz-adv-x="495" 
d="M311 -64q19 0 28.5 9t9.5 23t-9.5 23t-28.5 9h-117q-85 0 -127.5 40.5t-42.5 101.5q0 76 68 124q16 11 43 30t53 37q31 21 65 45h-215v112h403v-107q-67 -47 -122 -84q-23 -16 -46 -31q-23 -16 -41 -28q-18 -13 -30 -21q-13 -9 -15 -11q-12 -8 -21 -20t-9 -29
q0 -23 17.5 -35t43.5 -12h105q66 0 107 -36.5t41 -97.5q0 -37 -12 -64.5t-33.5 -45.5t-51 -27t-63.5 -9v104z" />
    <glyph glyph-name="eta" unicode="&#x3b7;" 
d="M179 426h8q23 37 62 58.5t89 21.5q45 0 79.5 -15.5t58 -43.5t35 -67t11.5 -85v-511h-131v495q0 51 -23.5 78.5t-68.5 27.5q-27 0 -47.5 -11.5t-35 -31t-22 -46t-7.5 -56.5v-240h-131v490h123v-64z" />
    <glyph glyph-name="theta" unicode="&#x3b8;" horiz-adv-x="679" 
d="M331 -16q-66 0 -119 27.5t-90.5 75.5t-57.5 113.5t-20 141.5t20 141.5t57.5 113.5t90.5 75.5t119 27.5t119 -27.5t90.5 -75.5t57.5 -113.5t20 -141.5t-20 -141.5t-57.5 -113.5t-90.5 -75.5t-119 -27.5zM331 108q33 0 60.5 14.5t47.5 40.5t32 62t16 79h-312q4 -43 16 -79
t32 -62t47.5 -40.5t60.5 -14.5zM331 576q-60 0 -99 -44t-53 -116h304q-14 72 -53 116t-99 44z" />
    <glyph glyph-name="iota" unicode="&#x3b9;" horiz-adv-x="259" 
d="M64 0v490h131v-490h-131z" />
    <glyph glyph-name="kappa" unicode="&#x3ba;" horiz-adv-x="514" 
d="M195 234h-8v-234h-131v490h131v-209h8l158 209h154v-8l-175 -223l186 -251v-8h-154z" />
    <glyph glyph-name="lambda" unicode="&#x3bb;" horiz-adv-x="553" 
d="M210 466.003l-206 -465.943h149l124 296.964h7l119 -296.964h146l-307 705.914h-141z" />
    <glyph glyph-name="nu" unicode="&#x3bd;" horiz-adv-x="557" 
d="M4 490h149l122 -312h7l123 312h148l-211 -490h-129z" />
    <glyph glyph-name="xi" unicode="&#x3be;" horiz-adv-x="535" 
d="M272 732q41 0 73.5 -8t59 -21.5t47.5 -31.5t39 -39l-91 -88q-48 71 -119 71q-51 0 -76 -26t-25 -63q0 -24 9 -42t24 -30t34.5 -18t40.5 -6h102v-112h-108q-57 0 -92 -27t-35 -71q0 -46 33.5 -71t99.5 -25h54q42 0 73.5 -11.5t53 -31t32 -46t10.5 -56.5q0 -75 -45.5 -111
t-114.5 -36v104q19 0 28.5 9t9.5 23t-9.5 23t-28.5 9h-79q-59 0 -105.5 16t-78 43.5t-48 65t-16.5 81.5q0 35 9.5 62t25.5 47.5t35.5 35.5t39.5 25v8q-17 10 -32.5 23t-27 31t-18.5 42t-7 57q0 41 17 76.5t47 62t70.5 41.5t88.5 15z" />
    <glyph glyph-name="omicron" unicode="&#x3bf;" horiz-adv-x="576" 
d="M288 506q57 0 104.5 -19.5t82 -54t54 -82.5t19.5 -105t-19.5 -105t-54 -82.5t-82 -54t-104.5 -19.5t-104.5 19.5t-82 54t-54 82.5t-19.5 105t19.5 105t54 82.5t82 54t104.5 19.5zM288 105q25 0 48.5 9.5t41.5 27.5t28.5 44t10.5 59t-10.5 59t-28.5 44t-41.5 27.5
t-48.5 9.5q-26 0 -49 -9.5t-41 -27.5t-28.5 -44t-10.5 -59t10.5 -59t28.5 -44t41 -27.5t49 -9.5z" />
    <glyph glyph-name="pi" unicode="&#x3c0;" horiz-adv-x="737" 
d="M713 14q-17 -8 -42.5 -15t-56.5 -7q-80 0 -126 51t-46 136v199h-172v-378h-131v378h-115v112h669v-112h-120v-193q0 -32 15.5 -53t45.5 -21q14 0 23 3.5t18 8.5z" />
    <glyph glyph-name="rho" unicode="&#x3c1;" horiz-adv-x="600" 
d="M347 -16q-60 0 -98.5 22t-61.5 53h-8l8 -70v-205h-131v447q0 60 18.5 110.5t52.5 87t80.5 57t103.5 20.5q62 0 110.5 -20.5t82 -55.5t51 -82.5t17.5 -102.5q0 -57 -17.5 -105t-48 -82.5t-71.5 -54t-88 -19.5zM310 105q26 0 49.5 10t41.5 28t29 44t11 58t-11 58t-29 44
t-41.5 28t-49.5 10t-49.5 -10t-41.5 -28t-29 -44t-11 -58q0 -33 11 -59t29 -44t41.5 -27.5t49.5 -9.5z" />
    <glyph glyph-name="uni03C2" unicode="&#x3c2;" horiz-adv-x="540" 
d="M315 -16q-69 0 -122.5 19.5t-90 54.5t-55.5 82.5t-19 104.5t19.5 105t54 82.5t82 54t104.5 19.5q85 0 143 -39t85 -101l-120 -50q-31 69 -110 69q-26 0 -49 -10t-40.5 -28t-27.5 -44t-10 -58q0 -63 41.5 -101.5t118.5 -38.5h28q37 0 67 -10.5t51.5 -29.5t33.5 -45.5
t12 -57.5q0 -37 -12 -64.5t-33.5 -45.5t-51 -27t-63.5 -9v104q19 0 28 9t9 23t-9 23t-28 9h-36z" />
    <glyph glyph-name="sigma" unicode="&#x3c3;" horiz-adv-x="607" 
d="M283 -16q-56 0 -102.5 19t-80.5 53t-53 80.5t-19 100.5t19 100.5t53 80.5t80.5 53t102.5 19h312v-112h-45l-75 8v-8q28 -24 45 -61t17 -80q0 -54 -19 -100.5t-53 -80.5t-80.5 -53t-101.5 -19zM283 105q25 0 47 9t39 26t27 41.5t10 55.5t-10 55.5t-27 41.5t-39 26t-47 9
t-47.5 -9t-39.5 -26t-27 -41.5t-10 -55.5t10 -55.5t27 -41.5t39.5 -26t47.5 -9z" />
    <glyph glyph-name="tau" unicode="&#x3c4;" horiz-adv-x="481" 
d="M24 490h433v-121h-151v-369h-131v369h-151v121z" />
    <glyph glyph-name="upsilon" unicode="&#x3c5;" horiz-adv-x="567" 
d="M284 -16q-49 0 -91 16.5t-73.5 46.5t-49.5 71.5t-18 90.5v281h131v-252q0 -66 31.5 -99.5t76.5 -33.5q22 0 43.5 8.5t37.5 26t26 43t10 59.5q0 60 -21 120t-59 128h141q30 -55 50 -119.5t20 -133.5q0 -67 -21.5 -115t-57 -78.5t-81.5 -45t-95 -14.5z" />
    <glyph glyph-name="phi" unicode="&#x3c6;" horiz-adv-x="738" 
d="M300 -216v205q-58 7 -105 29t-80.5 55.5t-52 79t-18.5 99.5q0 52 15 92.5t39 71t53 53t56 37.5l59 -109q-36 -22 -63.5 -57t-27.5 -88q0 -60 34.5 -96t90.5 -49v237q0 38 12.5 68t34 51t51 32t63.5 11q51 0 94 -19t73.5 -52.5t48 -79t17.5 -98.5q0 -55 -19 -100.5
t-54 -80t-83.5 -57t-106.5 -30.5v-205h-131zM431 107q59 13 95.5 52t36.5 110q0 24 -6.5 46t-18.5 38.5t-28 26t-35 9.5q-18 0 -31 -14.5t-13 -38.5v-229z" />
    <glyph glyph-name="chi" unicode="&#x3c7;" horiz-adv-x="514" 
d="M178 249l-168 241h155l89 -136h7l84 136h160l-172 -241l172 -249h-154l-92 140h-7l-89 -140h-155z" />
    <glyph glyph-name="psi" unicode="&#x3c8;" horiz-adv-x="719" 
d="M305 -16q-54 0 -100 17t-80 49.5t-53.5 78t-19.5 102.5v259h131v-257q0 -36 10.5 -60.5t27.5 -39.5t39 -21.5t45 -6.5v385h131v-385q22 0 44 8t40 25.5t29 45t11 66.5q0 65 -14.5 121t-47.5 119h135q28 -54 43 -118t15 -127q0 -70 -25 -119.5t-63 -81t-82.5 -46
t-84.5 -14.5v-200h-131v200z" />
    <glyph glyph-name="omega" unicode="&#x3c9;" horiz-adv-x="799" 
d="M552 -16q-106 0 -153 94q-45 -94 -152 -94q-44 0 -83.5 15.5t-69.5 46.5t-48 78.5t-18 112.5q0 70 19.5 134.5t48.5 118.5h148q-38 -64 -59.5 -123t-21.5 -125q0 -60 25 -95t65 -35q35 0 60 29.5t25 94.5v134h123v-134q0 -65 25 -94.5t60 -29.5q40 0 65 35t25 95
q0 66 -21.5 125t-59.5 123h148q29 -54 48.5 -118.5t19.5 -134.5q0 -65 -18 -112.5t-48 -78.5t-70 -46.5t-83 -15.5z" />
    <glyph glyph-name="iotadieresis" unicode="&#x3ca;" horiz-adv-x="259" 
d="M45 590q-28 0 -48.5 20.5t-20.5 48.5q0 29 20.5 49t48.5 20q29 0 49 -20t20 -49q0 -28 -20 -48.5t-49 -20.5zM213 590q-28 0 -48.5 20.5t-20.5 48.5q0 29 20.5 49t48.5 20q29 0 49 -20t20 -49q0 -28 -20 -48.5t-49 -20.5zM64 0v490h131v-490h-131z" />
    <glyph glyph-name="upsilondieresis" unicode="&#x3cb;" horiz-adv-x="567" 
d="M358 587q-29 0 -50 21.5t-21 50.5q0 30 21 51t50 21q31 0 51.5 -21t20.5 -51q0 -29 -20.5 -50.5t-51.5 -21.5zM168 587q-30 0 -51 21.5t-21 50.5q0 30 21 51t51 21t50.5 -21t20.5 -51q0 -29 -20.5 -50.5t-50.5 -21.5zM284 -16q-49 0 -91 16.5t-73.5 46.5t-49.5 71.5
t-18 90.5v281h131v-252q0 -66 31.5 -99.5t76.5 -33.5q22 0 43.5 8.5t37.5 26t26 43t10 59.5q0 60 -21 120t-59 128h141q30 -55 50 -119.5t20 -133.5q0 -67 -21.5 -115t-57 -78.5t-81.5 -45t-95 -14.5z" />
    <glyph glyph-name="omicrontonos" unicode="&#x3cc;" horiz-adv-x="576" 
d="M233 588l42 136h153l-90 -136h-105zM288 506q57 0 104.5 -19.5t82 -54t54 -82.5t19.5 -105t-19.5 -105t-54 -82.5t-82 -54t-104.5 -19.5t-104.5 19.5t-82 54t-54 82.5t-19.5 105t19.5 105t54 82.5t82 54t104.5 19.5zM288 105q25 0 48.5 9.5t41.5 27.5t28.5 44t10.5 59
t-10.5 59t-28.5 44t-41.5 27.5t-48.5 9.5q-26 0 -49 -9.5t-41 -27.5t-28.5 -44t-10.5 -59t10.5 -59t28.5 -44t41 -27.5t49 -9.5z" />
    <glyph glyph-name="upsilontonos" unicode="&#x3cd;" horiz-adv-x="567" 
d="M284 -16q-49 0 -91 16.5t-73.5 46.5t-49.5 71.5t-18 90.5v281h131v-252q0 -66 31.5 -99.5t76.5 -33.5q22 0 43.5 8.5t37.5 26t26 43t10 59.5q0 60 -21 120t-59 128h141q30 -55 50 -119.5t20 -133.5q0 -67 -21.5 -115t-57 -78.5t-81.5 -45t-95 -14.5zM211 588l42 136h153
l-90 -136h-105z" />
    <glyph glyph-name="omegatonos" unicode="&#x3ce;" horiz-adv-x="799" 
d="M348 588l42 136h153l-90 -136h-105zM552 -16q-106 0 -153 94q-45 -94 -152 -94q-44 0 -83.5 15.5t-69.5 46.5t-48 78.5t-18 112.5q0 70 19.5 134.5t48.5 118.5h148q-38 -64 -59.5 -123t-21.5 -125q0 -60 25 -95t65 -35q35 0 60 29.5t25 94.5v134h123v-134q0 -65 25 -94.5
t60 -29.5q40 0 65 35t25 95q0 66 -21.5 125t-59.5 123h148q29 -54 48.5 -118.5t19.5 -134.5q0 -65 -18 -112.5t-48 -78.5t-70 -46.5t-83 -15.5z" />
    <glyph glyph-name="uni03D1" unicode="&#x3d1;" horiz-adv-x="650" 
d="M298 -16q-57 0 -102.5 17.5t-77.5 49t-49 76t-17 98.5v265h124v-256q0 -66 35.5 -99.5t86.5 -33.5t83 33.5t32 99.5v40q-43 13 -81 39.5t-66 63.5t-44.5 83t-16.5 98q0 42 12.5 74.5t34 54.5t51.5 33.5t65 11.5q79 0 124 -47.5t45 -123.5v-186h89v-107h-89v-42
q0 -56 -16.5 -100.5t-47 -76t-75 -48.5t-100.5 -17zM413 568q0 26 -12 41.5t-33 15.5q-19 0 -31.5 -16.5t-12.5 -50.5q0 -54 22 -101.5t67 -70.5v182z" />
    <glyph glyph-name="uni03D2" unicode="&#x3d2;" horiz-adv-x="657" 
d="M559 724q29 0 53.5 -7.5t40.5 -19.5l-41 -100q-5 3 -13.5 5.5t-17.5 2.5q-18 0 -32 -10t-27 -36l-126 -247v-312h-135v312l-125 247q-14 26 -28 36t-32 10q-9 0 -17.5 -2.5t-13.5 -5.5l-41 100q16 12 40.5 19.5t53.5 7.5q19 0 38 -4t37.5 -15t36 -31t33.5 -52l82 -166h8
l82 166q16 32 33.5 52t35.5 31t37 15t38 4z" />
    <glyph glyph-name="uni03D3" unicode="&#x3d3;" horiz-adv-x="779" 
d="M681 724q29 0 53.5 -7.5t40.5 -19.5l-41 -100q-5 3 -13.5 5.5t-17.5 2.5q-18 0 -32 -10t-27 -36l-126 -247v-312h-135v312l-125 247q-14 26 -28 36t-32 10q-9 0 -17.5 -2.5t-13.5 -5.5l-41 100q16 12 40.5 19.5t53.5 7.5q19 0 38 -4t37.5 -15t36 -31t33.5 -52l82 -166h8
l82 166q16 32 33.5 52t35.5 31t37 15t38 4zM-79 588l42 136h153l-90 -136h-105z" />
    <glyph glyph-name="uni03D4" unicode="&#x3d4;" horiz-adv-x="657" 
d="M559 724q29 0 53.5 -7.5t40.5 -19.5l-41 -100q-5 3 -13.5 5.5t-17.5 2.5q-18 0 -32 -10t-27 -36l-126 -247v-312h-135v312l-125 247q-14 26 -28 36t-32 10q-9 0 -17.5 -2.5t-13.5 -5.5l-41 100q16 12 40.5 19.5t53.5 7.5q19 0 38 -4t37.5 -15t36 -31t33.5 -52l82 -166h8
l82 166q16 32 33.5 52t35.5 31t37 15t38 4zM425 771q-29 0 -50 21.5t-21 50.5q0 30 21 51t50 21q31 0 51.5 -21t20.5 -51q0 -29 -20.5 -50.5t-51.5 -21.5zM235 771q-30 0 -51 21.5t-21 50.5q0 30 21 51t51 21t50.5 -21t20.5 -51q0 -29 -20.5 -50.5t-50.5 -21.5z" />
    <glyph glyph-name="uni03D6" unicode="&#x3d6;" horiz-adv-x="915" 
d="M305 -16q-44 0 -83.5 15.5t-69.5 46.5t-48 78.5t-18 112.5q0 41 7.5 79t20.5 74h-74v100h835v-100h-74q12 -36 20 -74t8 -79q0 -65 -18 -112.5t-48 -78.5t-70 -46.5t-84 -15.5q-54 0 -91.5 25t-60.5 68q-23 -43 -60.5 -68t-91.5 -25zM396 326h123v-86q0 -68 25 -98
t60 -30q39 0 64.5 35t25.5 95q0 39 -8.5 75.5t-23.5 72.5h-409q-15 -36 -23.5 -72.5t-8.5 -75.5q0 -60 25.5 -95t64.5 -35q35 0 60 30t25 98v86z" />
    <glyph glyph-name="uni0400" unicode="&#x400;" horiz-adv-x="578" 
d="M207 588v-166h287v-128h-287v-166h319v-128h-454v716h454v-128h-319zM253 772l-89 136h153l42 -136h-106z" />
    <glyph glyph-name="uni0401" unicode="&#x401;" horiz-adv-x="578" 
d="M390 771q-29 0 -50 21.5t-21 50.5q0 30 21 51t50 21q31 0 51.5 -21t20.5 -51q0 -29 -20.5 -50.5t-51.5 -21.5zM200 771q-30 0 -51 21.5t-21 50.5q0 30 21 51t51 21t50.5 -21t20.5 -51q0 -29 -20.5 -50.5t-50.5 -21.5zM207 588v-166h287v-128h-287v-166h319v-128h-454v716
h454v-128h-319z" />
    <glyph glyph-name="uni0402" unicode="&#x402;" horiz-adv-x="788" 
d="M756 218q0 -56 -17.5 -97t-48.5 -68t-73.5 -40t-93.5 -13h-30v121h22q51 0 78.5 26t27.5 68q0 45 -31.5 72t-84.5 27q-49 0 -90.5 -22t-62.5 -54v-238h-135v588h-193v128h525v-128h-197v-147l-8 -75h8q30 32 75 52t105 20q45 0 85.5 -15.5t71 -44t49 -69t18.5 -91.5z" />
    <glyph glyph-name="uni0403" unicode="&#x403;" horiz-adv-x="547" 
d="M72 716h451v-128h-316v-588h-135v716zM241 772l42 136h153l-90 -136h-105z" />
    <glyph glyph-name="uni0404" unicode="&#x404;" horiz-adv-x="733" 
d="M408 -16q-80 0 -148 29t-117.5 79t-77.5 118.5t-28 147.5t28 147.5t77.5 118.5t117.5 79t148 29q85 0 152.5 -30t118.5 -87l-94 -92q-31 37 -75.5 59t-101.5 22q-44 0 -82.5 -13t-70 -37t-53 -58.5t-30.5 -78.5h316v-118h-316q9 -44 30.5 -78.5t53 -58.5t70 -37t82.5 -13
q60 0 109 24.5t85 69.5l95 -91q-53 -64 -127 -97.5t-162 -33.5z" />
    <glyph glyph-name="uni0405" unicode="&#x405;" horiz-adv-x="575" 
d="M291 -16q-46 0 -88 13t-77 39t-61 63.5t-41 87.5l127 50q14 -54 49 -89.5t92 -35.5q21 0 40.5 5.5t35 16t24.5 26.5t9 37q0 20 -7 36t-23.5 30t-43 27t-65.5 27l-44 16q-29 10 -58.5 27t-53.5 41t-39.5 56.5t-15.5 73.5q0 42 16.5 78.5t47 64t73 43t94.5 15.5
q54 0 93.5 -14.5t67 -37t44.5 -49.5t25 -51l-119 -50q-10 30 -36.5 54t-72.5 24q-44 0 -73 -20.5t-29 -53.5q0 -32 28 -54.5t89 -43.5l45 -15q43 -15 78.5 -34.5t61 -46.5t39 -61.5t13.5 -79.5q0 -56 -22.5 -96.5t-57.5 -66.5t-79 -39t-86 -13z" />
    <glyph glyph-name="uni0406" unicode="&#x406;" horiz-adv-x="279" 
d="M72 716h135v-716h-135v716z" />
    <glyph glyph-name="uni0407" unicode="&#x407;" horiz-adv-x="279" 
d="M229 780q-28 0 -48 20t-20 47q0 29 20 48.5t48 19.5t47.5 -19.5t19.5 -48.5q0 -27 -19.5 -47t-47.5 -20zM72 716h135v-716h-135v716zM51 780q-28 0 -48 20t-20 47q0 29 20 48.5t48 19.5t47.5 -19.5t19.5 -48.5q0 -27 -19.5 -47t-47.5 -20z" />
    <glyph glyph-name="uni0408" unicode="&#x408;" horiz-adv-x="555" 
d="M261 -16q-85 0 -148.5 46t-88.5 127l124 51q13 -48 42 -72t71 -24q47 0 73 30t26 84v490h135v-489q0 -60 -18.5 -105.5t-50 -76t-74 -46t-91.5 -15.5z" />
    <glyph glyph-name="uni0409" unicode="&#x409;" horiz-adv-x="1095" 
d="M58 119q40 0 60 23q18 20 24.5 61.5t6.5 116.5v396h508v-285h156q52 0 97.5 -14t79.5 -41t53.5 -67t19.5 -93t-19.5 -93.5t-53.5 -67.5t-79.5 -41t-97.5 -14h-291v588h-238v-323q0 -85 -16.5 -139t-50.5 -86q-26 -26 -62.5 -37t-84.5 -11q-10 0 -24 1.5t-22 3.5v127
q7 -3 16.5 -4t17.5 -1zM657 307v-183h161q49 0 76 26.5t27 65.5t-27 65t-76 26h-161z" />
    <glyph glyph-name="uni040A" unicode="&#x40a;" horiz-adv-x="1069" 
d="M72 0v716h135v-285h288v285h135v-285h157q52 0 97.5 -14t79.5 -41t53.5 -67t19.5 -93t-19.5 -93.5t-53.5 -67.5t-79.5 -41t-97.5 -14h-292v307h-288v-307h-135zM630 307v-183h162q49 0 76 26.5t27 65.5t-27 65t-76 26h-162z" />
    <glyph glyph-name="uni040B" unicode="&#x40b;" horiz-adv-x="784" 
d="M352 0h-135v588h-193v128h525v-128h-197v-147l-8 -75h8q29 32 73.5 52t104.5 20q43 0 80 -14t64 -40.5t42.5 -66t15.5 -90.5v-227h-129v198q0 56 -29.5 86t-83.5 30q-45 0 -81 -22t-57 -54v-238z" />
    <glyph glyph-name="uni040C" unicode="&#x40c;" horiz-adv-x="655" 
d="M637 708l-277 -353l295 -347v-8h-170l-270 319h-8v-319h-135v716h135v-336h8l256 336h166v-8zM276 772l42 136h153l-90 -136h-105z" />
    <glyph glyph-name="uni040D" unicode="&#x40d;" horiz-adv-x="715" 
d="M643 0h-134v351l8 138h-8l-285 -489h-152v716h133v-360l-8 -138h8l291 498h147v-716zM289 772l-89 136h153l42 -136h-106z" />
    <glyph glyph-name="uni040E" unicode="&#x40e;" horiz-adv-x="630" 
d="M346 117q-32 -72 -77 -102.5t-102 -30.5q-29 0 -52 6t-40 14l36 115q11 -6 22.5 -10t24.5 -4q21 0 36.5 9t27.5 33l25 51l-235 518h146l153 -362h8l155 362h144zM317 763q-27 0 -52 10t-43.5 28t-30 43t-11.5 55h93q0 -18 11.5 -32t32.5 -14q20 0 31.5 14t11.5 32h92
q0 -30 -11 -55t-29.5 -43t-43 -28t-51.5 -10z" />
    <glyph glyph-name="uni040F" unicode="&#x40f;" horiz-adv-x="695" 
d="M282 -163v163h-210v716h135v-588h281v588h135v-716h-210v-163h-131z" />
    <glyph glyph-name="uni0410" unicode="&#x410;" horiz-adv-x="716" 
d="M281 716h154l269 -716h-149l-59 171h-276l-59 -171h-149zM452 295l-64 179l-26 87h-8l-26 -87l-64 -179h188z" />
    <glyph glyph-name="uni0411" unicode="&#x411;" horiz-adv-x="627" 
d="M352 434q49 0 93.5 -14t77.5 -41.5t52.5 -68t19.5 -92.5t-19.5 -92.5t-52.5 -68.5t-77.5 -42.5t-93.5 -14.5h-280v716h451v-124h-316v-158h145zM357 124q49 0 76 27.5t27 66.5t-26 65.5t-77 26.5h-150v-186h150z" />
    <glyph glyph-name="uni0412" unicode="&#x412;" horiz-adv-x="629" 
d="M72 716h280q46 0 86 -14.5t69.5 -40t46.5 -59.5t17 -73q0 -57 -27.5 -95.5t-68.5 -58.5v-8q55 -20 88.5 -62.5t33.5 -105.5q0 -46 -18.5 -82.5t-50.5 -62.5t-74.5 -40t-91.5 -14h-290v716zM342 424q47 0 72.5 25.5t25.5 60.5t-25 60t-69 25h-139v-171h135zM357 124
q51 0 78 25.5t27 65.5t-27.5 66.5t-81.5 26.5h-146v-184h150z" />
    <glyph glyph-name="uni0413" unicode="&#x413;" horiz-adv-x="534" 
d="M72 716h438v-128h-303v-588h-135v716z" />
    <glyph glyph-name="uni0414" unicode="&#x414;" horiz-adv-x="799" 
d="M40 -152v280h89q18 31 30.5 73.5t20.5 92t11.5 104t3.5 110.5v208h485v-588h79v-280h-129v152h-461v-152h-129zM330 485q0 -103 -14.5 -195t-46.5 -162h276v460h-215v-103z" />
    <glyph glyph-name="uni0415" unicode="&#x415;" horiz-adv-x="578" 
d="M207 588v-166h287v-128h-287v-166h319v-128h-454v716h454v-128h-319z" />
    <glyph glyph-name="uni0416" unicode="&#x416;" horiz-adv-x="961" 
d="M548 0h-135v313h-8l-231 -313h-172v8l267 345l-252 355v8h164l224 -327h8v327h135v-327h8l224 327h164v-8l-252 -355l267 -345v-8h-172l-231 313h-8v-313z" />
    <glyph glyph-name="uni0417" unicode="&#x417;" horiz-adv-x="569" 
d="M285 -16q-42 0 -81.5 11.5t-72.5 34t-57.5 57t-37.5 81.5l122 48q13 -53 46 -80.5t81 -27.5q24 0 45 8t36.5 21.5t24.5 32.5t9 41t-10 41.5t-27 34t-41.5 22.5t-52.5 8h-57v112h51q23 0 44 6t37 18t25.5 30.5t9.5 42.5q0 38 -28 63.5t-73 25.5q-23 0 -40.5 -7t-31 -18.5
t-23 -26t-14.5 -29.5l-114 47q9 26 27.5 53t46 48.5t65.5 35.5t86 14q51 0 93 -14.5t71.5 -40.5t46 -62t16.5 -78q0 -60 -24 -95.5t-59 -58.5v-8q46 -22 76.5 -65t30.5 -108q0 -45 -18 -84.5t-50.5 -69.5t-78 -47t-99.5 -17z" />
    <glyph glyph-name="uni0418" unicode="&#x418;" horiz-adv-x="715" 
d="M643 0h-134v351l8 138h-8l-285 -489h-152v716h133v-360l-8 -138h8l291 498h147v-716z" />
    <glyph glyph-name="uni0419" unicode="&#x419;" horiz-adv-x="715" 
d="M643 0h-134v351l8 138h-8l-285 -489h-152v716h133v-360l-8 -138h8l291 498h147v-716zM355 763q-27 0 -52 10t-43.5 28t-30 43t-11.5 55h93q0 -18 11.5 -32t32.5 -14q20 0 31.5 14t11.5 32h92q0 -30 -11 -55t-29.5 -43t-43 -28t-51.5 -10z" />
    <glyph glyph-name="uni041A" unicode="&#x41a;" horiz-adv-x="655" 
d="M637 708l-277 -353l295 -347v-8h-170l-270 319h-8v-319h-135v716h135v-336h8l256 336h166v-8z" />
    <glyph glyph-name="uni041B" unicode="&#x41b;" horiz-adv-x="729" 
d="M58 120q40 0 60 23q18 20 24.5 61.5t6.5 116.5v395h508v-716h-135v588h-238v-323q0 -85 -16.5 -139t-50.5 -86q-26 -26 -62.5 -37t-84.5 -11q-10 0 -24 1.5t-22 3.5v128q7 -3 16.5 -4t17.5 -1z" />
    <glyph glyph-name="uni041C" unicode="&#x41c;" horiz-adv-x="881" 
d="M72 716h133l219 -379h8l219 379h134v-716h-134v353l8 120h-8l-182 -321h-81l-183 321h-8l8 -120v-353h-133v716z" />
    <glyph glyph-name="uni041D" unicode="&#x41d;" horiz-adv-x="715" 
d="M72 716h135v-286h301v286h135v-716h-135v302h-301v-302h-135v716z" />
    <glyph glyph-name="uni041E" unicode="&#x41e;" horiz-adv-x="829" 
d="M411 -16q-80 0 -148.5 29t-118.5 79.5t-78.5 119t-28.5 146.5t28.5 146.5t78.5 119t118.5 79.5t148.5 29t148.5 -29t118.5 -79.5t78.5 -119t28.5 -146.5t-28.5 -146.5t-78.5 -119t-118.5 -79.5t-148.5 -29zM411 112q50 0 93.5 18t76 50t51 77.5t18.5 100.5t-18.5 100.5
t-51 77.5t-76 50t-93.5 18t-93.5 -18t-76 -50t-51 -77.5t-18.5 -100.5t18.5 -100.5t51 -77.5t76 -50t93.5 -18z" />
    <glyph glyph-name="uni041F" unicode="&#x41f;" horiz-adv-x="694" 
d="M72 716h550v-716h-135v588h-280v-588h-135v716z" />
    <glyph glyph-name="uni0420" unicode="&#x420;" horiz-adv-x="592" 
d="M72 0v716h252q51 0 95.5 -16.5t77.5 -46.5t52 -71.5t19 -91.5q0 -51 -19 -92.5t-52 -71.5t-77.5 -46.5t-95.5 -16.5h-117v-263h-135zM326 391q53 0 80 30t27 69q0 19 -6.5 37t-20 31.5t-33.5 21.5t-47 8h-119v-197h119z" />
    <glyph glyph-name="uni0421" unicode="&#x421;" horiz-adv-x="734" 
d="M698 115q-53 -64 -125 -97.5t-161 -33.5q-80 0 -148.5 29t-118.5 79t-79 118.5t-29 147.5t29 147.5t79 118.5t118.5 79t148.5 29q86 0 151.5 -30t116.5 -87l-95 -92q-32 37 -73.5 59t-98.5 22q-50 0 -94 -17.5t-76.5 -49.5t-51.5 -77.5t-19 -101.5t19 -101.5t51.5 -77.5
t76.5 -49.5t94 -17.5q60 0 106.5 24.5t82.5 69.5z" />
    <glyph glyph-name="uni0422" unicode="&#x422;" horiz-adv-x="589" 
d="M224 0v588h-200v128h535v-128h-200v-588h-135z" />
    <glyph glyph-name="uni0423" unicode="&#x423;" horiz-adv-x="630" 
d="M346 117q-32 -72 -77 -102.5t-102 -30.5q-29 0 -52 6t-40 14l36 115q11 -6 22.5 -10t24.5 -4q21 0 36.5 9t27.5 33l25 51l-235 518h146l153 -362h8l155 362h144z" />
    <glyph glyph-name="uni0424" unicode="&#x424;" horiz-adv-x="827" 
d="M346 -48v108q-69 9 -126 34.5t-97.5 64.5t-63 89.5t-22.5 109.5t22.5 109.5t63 89.5t97.5 64.5t126 34.5v108h135v-108q69 -9 126 -34.5t97.5 -64.5t63 -89.5t22.5 -109.5t-22.5 -109.5t-63 -89.5t-97.5 -64.5t-126 -34.5v-108h-135zM172 358q0 -70 46 -116.5t128 -60.5
v354q-82 -14 -128 -60.5t-46 -116.5zM655 358q0 70 -46 116.5t-128 60.5v-354q82 14 128 60.5t46 116.5z" />
    <glyph glyph-name="uni0425" unicode="&#x425;" horiz-adv-x="688" 
d="M251 374l-217 342h167l139 -234h8l139 234h167l-217 -342l235 -374h-168l-156 258h-8l-156 -258h-168z" />
    <glyph glyph-name="uni0426" unicode="&#x426;" horiz-adv-x="754" 
d="M583 -168v168h-511v716h135v-588h283v588h135v-588h89v-296h-131z" />
    <glyph glyph-name="uni0427" unicode="&#x427;" horiz-adv-x="610" 
d="M423 716h135v-716h-135v309q-29 -23 -67 -36t-83 -13q-50 0 -92.5 15.5t-74 45t-49 72t-17.5 96.5v227h135v-205q0 -61 35 -92t89 -31q40 0 69 14t55 40v274z" />
    <glyph glyph-name="uni0428" unicode="&#x428;" horiz-adv-x="933" 
d="M72 0v716h135v-588h192v588h135v-588h192v588h135v-716h-789z" />
    <glyph glyph-name="uni0429" unicode="&#x429;" horiz-adv-x="981" 
d="M810 -168v168h-738v716h135v-588h192v588h135v-588h192v588h135v-588h80v-296h-131z" />
    <glyph glyph-name="uni042A" unicode="&#x42a;" horiz-adv-x="776" 
d="M215 0v592h-191v124h326v-245h133q52 0 99.5 -15t83.5 -44.5t57 -73.5t21 -101t-21 -101.5t-57 -74.5t-83.5 -45.5t-99.5 -15.5h-268zM350 347v-223h145q27 0 48 9.5t35.5 25t22.5 36t8 42.5t-8 42t-22.5 35t-35.5 24t-48 9h-145z" />
    <glyph glyph-name="uni042B" unicode="&#x42b;" horiz-adv-x="870" 
d="M72 0v716h135v-245h133q52 0 99.5 -15t83.5 -44.5t57 -73.5t21 -101t-21 -101.5t-57 -74.5t-83.5 -45.5t-99.5 -15.5h-268zM207 347v-223h145q27 0 48 9.5t35.5 25t22.5 36t8 42.5t-8 42t-22.5 35t-35.5 24t-48 9h-145zM663 716h135v-716h-135v716z" />
    <glyph glyph-name="uni042C" unicode="&#x42c;" horiz-adv-x="633" 
d="M72 0v716h135v-245h133q52 0 99.5 -15t83.5 -44.5t57 -73.5t21 -101t-21 -101.5t-57 -74.5t-83.5 -45.5t-99.5 -15.5h-268zM207 347v-223h145q27 0 48 9.5t35.5 25t22.5 36t8 42.5t-8 42t-22.5 35t-35.5 24t-48 9h-145z" />
    <glyph glyph-name="uni042D" unicode="&#x42d;" horiz-adv-x="733" 
d="M325 -16q-88 0 -162 33.5t-127 97.5l95 91q36 -45 85 -69.5t109 -24.5q43 0 82 13t70.5 37t53 58.5t30.5 78.5h-316v118h316q-9 44 -30.5 78.5t-53 58.5t-70.5 37t-82 13q-57 0 -101.5 -22t-75.5 -59l-94 92q51 57 118.5 87t152.5 30q80 0 148 -29t117.5 -79t77.5 -118.5
t28 -147.5t-28 -147.5t-77.5 -118.5t-117.5 -79t-148 -29z" />
    <glyph glyph-name="uni042E" unicode="&#x42e;" horiz-adv-x="1092" 
d="M681 -16q-73 0 -136.5 24t-112.5 66.5t-80.5 101t-40.5 126.5h-104v-302h-135v716h135v-286h106q12 65 44.5 120t80.5 95.5t110 63.5t133 23q80 0 148.5 -29t118.5 -79.5t78.5 -119t28.5 -146.5t-28.5 -146.5t-78.5 -119t-118.5 -79.5t-148.5 -29zM681 112q50 0 93.5 18
t76 50t51 77.5t18.5 100.5t-18.5 100.5t-51 77.5t-76 50t-93.5 18t-93.5 -18t-76 -50t-51 -77.5t-18.5 -100.5t18.5 -100.5t51 -77.5t76 -50t93.5 -18z" />
    <glyph glyph-name="uni042F" unicode="&#x42f;" horiz-adv-x="643" 
d="M571.009 716h-260.968q-53.9941 0 -97.9883 -17q-43.9951 -17 -75.4912 -47t-48.4941 -71.5q-16.9971 -41.5 -16.9971 -90.5q0 -36 11.998 -67.5t32.9961 -57q20.9971 -25.5 48.9941 -45q27.9961 -19.5 58.9922 -30.5l1 -7l-191.977 -275v-8h154.981l184.978 269h62.9922
v-269h134.983v716zM311.041 393q-45.9951 0 -75.4912 28t-29.4961 71q0 19 6.49902 37t19.4971 32q12.999 14 32.4961 22.5q19.498 8.5 44.4951 8.5h126.984v-199h-124.984z" />
    <glyph glyph-name="uni0430" unicode="&#x430;" horiz-adv-x="537" 
d="M358 52h-8q-23 -28 -55.5 -48t-83.5 -20q-38 0 -71.5 12.5t-58.5 34.5t-39 53t-14 68q0 38 15 68.5t42 52.5t63.5 33.5t79.5 11.5q48 0 79 -7.5t51 -15.5v15q0 39 -31 64.5t-77 25.5q-68 0 -115 -57l-95 65q78 98 213 98q114 0 174 -53.5t60 -158.5v-294h-129v52z
M358 199q-23 11 -47.5 17.5t-53.5 6.5q-47 0 -72.5 -20.5t-25.5 -50.5t24.5 -48t56.5 -18q26 0 48 9.5t37.5 25t24 36t8.5 42.5z" />
    <glyph glyph-name="uni0431" unicode="&#x431;" horiz-adv-x="607" 
d="M360 596q-41 0 -66.5 -9.5t-45.5 -24.5q-26 -20 -42 -52t-21 -75h8q26 32 65 51.5t92 19.5q46 0 88 -20.5t73 -56t49.5 -83t18.5 -101.5q0 -57 -19.5 -105t-54 -82.5t-82.5 -54t-104 -19.5q-54 0 -102 19t-84 59t-56.5 102t-20.5 148q0 67 8 119t23 92t35.5 69t45.5 50
q73 61 183 61q27 0 44.5 1.5t27.5 5.5t14.5 9.5t7.5 13.5h113q-4 -40 -18 -66.5t-38.5 -42t-60 -22t-81.5 -6.5zM319 385q-26 0 -49 -9.5t-40.5 -27.5t-28 -44t-10.5 -59q0 -31 10.5 -57t28 -44.5t40.5 -28.5t49 -10q25 0 48.5 10t41.5 28t28.5 44t10.5 58t-10.5 58
t-28.5 44t-41.5 28t-48.5 10z" />
    <glyph glyph-name="uni0432" unicode="&#x432;" horiz-adv-x="515" 
d="M56 0v490h261q32 0 60.5 -10.5t49.5 -28.5t33.5 -42t12.5 -51q0 -39 -17.5 -63.5t-46.5 -38.5v-8q36 -16 59 -44t23 -67q0 -33 -14 -58.5t-37 -43t-52 -26.5t-58 -9h-274zM180 205v-102h135q23 0 39.5 14t16.5 37q0 22 -16.5 36.5t-39.5 14.5h-135zM180 391v-93h116
q20 0 35 13t15 34q0 20 -15 33t-35 13h-116z" />
    <glyph glyph-name="uni0433" unicode="&#x433;" horiz-adv-x="439" 
d="M56 490h359v-112h-228v-378h-131v490z" />
    <glyph glyph-name="uni0434" unicode="&#x434;" horiz-adv-x="656" 
d="M28 -152v267h63q9 16 16.5 39.5t13.5 52t9 60t3 61.5v162h420v-375h75v-267h-117v152h-366v-152h-117zM257 317q0 -54 -9 -106t-26 -96h206v260h-171v-58z" />
    <glyph glyph-name="uni0435" unicode="&#x435;" horiz-adv-x="556" 
d="M520 118q-34 -60 -91.5 -97t-140.5 -37q-56 0 -103.5 19.5t-82.5 54.5t-54.5 82.5t-19.5 104.5q0 53 19 100.5t53 83t80.5 56.5t102.5 21q59 0 105 -19.5t77 -54t47 -81.5t16 -102v-12q-1 -6 -1 -11q-1 -5 -1 -11h-369q4 -30 16.5 -51.5t31 -36t40.5 -21t45 -6.5
q45 0 74.5 20.5t46.5 51.5zM401 308q-1 13 -8.5 29t-22 30t-36 23t-51.5 9q-42 0 -74 -24t-45 -67h237z" />
    <glyph glyph-name="uni0436" unicode="&#x436;" horiz-adv-x="763" 
d="M316 0v229h-8l-163 -229h-149v8l182 251l-172 223v8h149l153 -205h8v205h131v-205h8l153 205h149v-8l-172 -223l182 -251v-8h-149l-163 229h-8v-229h-131z" />
    <glyph glyph-name="uni0437" unicode="&#x437;" horiz-adv-x="499" 
d="M249 506q41 0 76.5 -11t61.5 -30.5t41 -45t15 -55.5q0 -42 -16 -67t-44 -39v-8q37 -17 58.5 -46.5t21.5 -65.5q0 -72 -57.5 -113t-158.5 -41q-67 0 -118 24t-89 65l81 81q28 -30 58.5 -45.5t67.5 -15.5q42 0 66.5 15t24.5 40q0 23 -20.5 39t-60.5 16h-78v94h77
q31 0 50.5 14t19.5 40q0 22 -21 36.5t-56 14.5t-63 -12t-51 -38l-78 75q41 41 86.5 60t105.5 19z" />
    <glyph glyph-name="uni0438" unicode="&#x438;" horiz-adv-x="570" 
d="M514 0h-131v199l8 96h-8l-196 -295h-131v490h131v-199l-8 -96h8l196 295h131v-490z" />
    <glyph glyph-name="uni0439" unicode="&#x439;" horiz-adv-x="570" 
d="M514 0h-131v199l8 96h-8l-196 -295h-131v490h131v-199l-8 -96h8l196 295h131v-490zM293 564q-27 0 -52 10t-43.5 28t-30 43t-11.5 55h93q0 -18 11.5 -32t32.5 -14q20 0 31.5 14t11.5 32h92q0 -30 -11 -55t-29.5 -43t-43 -28t-51.5 -10z" />
    <glyph glyph-name="uni043A" unicode="&#x43a;" horiz-adv-x="514" 
d="M195 234h-8v-234h-131v490h131v-209h8l158 209h154v-8l-175 -223l186 -251v-8h-154z" />
    <glyph glyph-name="uni043B" unicode="&#x43b;" horiz-adv-x="625" 
d="M101 -8q-16 0 -32 2t-27 6v115q10 -3 17.5 -4t14.5 -1q15 0 26 7.5t17.5 25t10 46t3.5 71.5v230h438v-490h-125v373h-190v-142q0 -68 -11.5 -114t-32 -73.5t-48.5 -39.5t-61 -12z" />
    <glyph glyph-name="uni043C" unicode="&#x43c;" horiz-adv-x="686" 
d="M509 0v200l8 96h-8l-120 -232h-92l-120 232h-8l8 -96v-200h-125v490h156l131 -257h8l131 257h156v-490h-125z" />
    <glyph glyph-name="uni043D" unicode="&#x43d;" horiz-adv-x="578" 
d="M391 0v189h-204v-189h-131v490h131v-180h204v180h131v-490h-131z" />
    <glyph glyph-name="uni043E" unicode="&#x43e;" horiz-adv-x="576" 
d="M288 506q57 0 104.5 -19.5t82 -54t54 -82.5t19.5 -105t-19.5 -105t-54 -82.5t-82 -54t-104.5 -19.5t-104.5 19.5t-82 54t-54 82.5t-19.5 105t19.5 105t54 82.5t82 54t104.5 19.5zM288 105q25 0 48.5 9.5t41.5 27.5t28.5 44t10.5 59t-10.5 59t-28.5 44t-41.5 27.5
t-48.5 9.5q-26 0 -49 -9.5t-41 -27.5t-28.5 -44t-10.5 -59t10.5 -59t28.5 -44t41 -27.5t49 -9.5z" />
    <glyph glyph-name="uni043F" unicode="&#x43f;" horiz-adv-x="565" 
d="M56 490h453v-490h-131v369h-191v-369h-131v490z" />
    <glyph glyph-name="uni0440" unicode="&#x440;" horiz-adv-x="596" 
d="M52 490h123v-59h8q18 31 56 53t94 22q47 0 89.5 -19.5t75 -54t51.5 -82.5t19 -105t-19 -105t-51.5 -82.5t-75 -54t-89.5 -19.5q-56 0 -94 22t-56 53h-8l8 -70v-205h-131v706zM306 105q26 0 49.5 10t41.5 28t29 44t11 58t-11 58t-29 44t-41.5 28t-49.5 10t-49.5 -9.5
t-41.5 -27.5t-29 -44t-11 -59t11 -59t29 -44t41.5 -27.5t49.5 -9.5z" />
    <glyph glyph-name="uni0441" unicode="&#x441;" horiz-adv-x="545" 
d="M521 125q-32 -62 -89.5 -101.5t-143.5 -39.5q-57 0 -104.5 19.5t-82 54.5t-54 82.5t-19.5 104.5t19.5 105t54 82.5t82 54t104.5 19.5q85 0 143 -39t85 -101l-120 -50q-17 34 -43.5 51.5t-66.5 17.5q-26 0 -49 -10t-40.5 -28t-27.5 -44t-10 -58t10 -58t27.5 -44t40.5 -28
t49 -10q41 0 69.5 18.5t45.5 53.5z" />
    <glyph glyph-name="uni0442" unicode="&#x442;" horiz-adv-x="457" 
d="M24 490h433v-121h-151v-369h-131v369h-151v121z" />
    <glyph glyph-name="uni0443" unicode="&#x443;" horiz-adv-x="553" 
d="M210 24l-206 466h149l124 -297h7l119 297h146l-307 -706h-141z" />
    <glyph glyph-name="uni0444" unicode="&#x444;" horiz-adv-x="761" 
d="M315 -12q-62 7 -113 27t-88 53t-57 77.5t-20 99.5q0 54 20 98.5t57 77.5t88 53.5t113 27.5v214h131v-214q62 -8 113 -28.5t88 -53t57 -77t20 -98.5q0 -55 -20 -99.5t-57 -77t-88 -53t-113 -27.5v-204h-131v204zM164 245q0 -58 39.5 -94.5t111.5 -47.5v284
q-72 -11 -111.5 -47.5t-39.5 -94.5zM597 245q0 58 -39.5 94.5t-111.5 47.5v-284q72 11 111.5 47.5t39.5 94.5z" />
    <glyph glyph-name="uni0445" unicode="&#x445;" horiz-adv-x="514" 
d="M178 249l-168 241h155l89 -136h7l84 136h160l-172 -241l172 -249h-154l-92 140h-7l-89 -140h-155z" />
    <glyph glyph-name="uni0446" unicode="&#x446;" horiz-adv-x="609" 
d="M463 -152v152h-407v490h131v-373h191v373h131v-373h72v-269h-118z" />
    <glyph glyph-name="uni0447" unicode="&#x447;" horiz-adv-x="529" 
d="M260 279q21 0 42.5 5t39.5 15v191h131v-490h-131v175q-23 -9 -50 -13t-57 -4q-45 0 -82.5 13.5t-64.5 39t-41.5 62.5t-14.5 83v134h131v-124q0 -45 24.5 -66t72.5 -21z" />
    <glyph glyph-name="uni0448" unicode="&#x448;" horiz-adv-x="803" 
d="M56 0v490h128v-373h143v373h128v-373h144v373h128v-490h-671z" />
    <glyph glyph-name="uni0449" unicode="&#x449;" horiz-adv-x="847" 
d="M681 -152v152h-625v490h128v-373h143v373h128v-373h144v373h128v-373h72v-269h-118z" />
    <glyph glyph-name="uni044A" unicode="&#x44a;" horiz-adv-x="607" 
d="M24 490h245v-159h129q39 0 72.5 -11.5t58.5 -32.5t39.5 -51.5t14.5 -69.5t-14.5 -69.5t-39.5 -52t-58.5 -33t-72.5 -11.5h-253v387h-121v103zM393 103q29 0 49.5 16.5t20.5 46.5q0 29 -20.5 46t-49.5 17h-124v-126h124z" />
    <glyph glyph-name="uni044B" unicode="&#x44b;" horiz-adv-x="731" 
d="M551 0v490h124v-490h-124zM56 0v490h124v-159h129q39 0 72.5 -11.5t58 -32.5t39 -51.5t14.5 -69.5t-14.5 -69.5t-39 -52t-58 -33t-72.5 -11.5h-253zM304 103q29 0 49 16.5t20 46.5q0 29 -20 46t-49 17h-124v-126h124z" />
    <glyph glyph-name="uni044C" unicode="&#x44c;" horiz-adv-x="517" 
d="M56 0v490h124v-159h129q39 0 72.5 -11.5t58 -32.5t39 -51.5t14.5 -69.5t-14.5 -69.5t-39 -52t-58 -33t-72.5 -11.5h-253zM304 103q29 0 49 16.5t20 46.5q0 29 -20 46t-49 17h-124v-126h124z" />
    <glyph glyph-name="uni044D" unicode="&#x44d;" horiz-adv-x="535" 
d="M254 -16q-86 0 -144 40t-86 102l105 46q17 -38 48.5 -59t79.5 -21t83 27t47 79h-201v93h201q-11 52 -46.5 79.5t-83.5 27.5q-45 0 -76 -21t-47 -54l-105 43q27 61 83.5 100.5t141.5 39.5q57 0 103.5 -19.5t79.5 -54t51.5 -82.5t18.5 -105t-18.5 -104.5t-51.5 -82.5
t-79.5 -54.5t-103.5 -19.5z" />
    <glyph glyph-name="uni044E" unicode="&#x44e;" horiz-adv-x="813" 
d="M525 506q57 0 104.5 -19.5t82 -54t54 -82.5t19.5 -105t-19.5 -105t-54 -82.5t-82 -54t-104.5 -19.5q-50 0 -92.5 15t-75.5 42t-55.5 64.5t-31.5 83.5h-75v-189h-131v490h131v-180h77q10 44 32.5 80t55.5 62t75 40t90 14zM525 105q25 0 48.5 9.5t41.5 27.5t28.5 44
t10.5 59t-10.5 59t-28.5 44t-41.5 27.5t-48.5 9.5q-26 0 -49.5 -9.5t-41.5 -27.5t-28.5 -44t-10.5 -59t10.5 -59t28.5 -44t41.5 -27.5t49.5 -9.5z" />
    <glyph glyph-name="uni044F" unicode="&#x44f;" horiz-adv-x="504" 
d="M0 0v8l123 164l-3 6q-46 19 -75.5 57.5t-29.5 91.5q0 37 15 67t40.5 51.5t59 33t70.5 11.5h248v-490h-124v163h-68l-117 -163h-139zM140 326q0 -30 21 -46t50 -16h113v123h-113q-29 0 -50 -16t-21 -45z" />
    <glyph glyph-name="uni0450" unicode="&#x450;" horiz-adv-x="552" 
d="M520 118q-34 -60 -91.5 -97t-140.5 -37q-56 0 -103.5 19.5t-82.5 54.5t-54.5 82.5t-19.5 104.5q0 53 19 100.5t53 83t80.5 56.5t102.5 21q59 0 105 -19.5t77 -54t47 -81.5t16 -102v-12q-1 -6 -1 -11q-1 -5 -1 -11h-369q4 -30 16.5 -51.5t31 -36t40.5 -21t45 -6.5
q45 0 74.5 20.5t46.5 51.5zM401 308q-1 13 -8.5 29t-22 30t-36 23t-51.5 9q-42 0 -74 -24t-45 -67h237zM227 588l-89 136h153l42 -136h-106z" />
    <glyph glyph-name="uni0451" unicode="&#x451;" horiz-adv-x="552" 
d="M371 587q-29 0 -50 21.5t-21 50.5q0 30 21 51t50 21q31 0 51.5 -21t20.5 -51q0 -29 -20.5 -50.5t-51.5 -21.5zM181 587q-30 0 -51 21.5t-21 50.5q0 30 21 51t51 21t50.5 -21t20.5 -51q0 -29 -20.5 -50.5t-50.5 -21.5zM520 118q-34 -60 -91.5 -97t-140.5 -37
q-56 0 -103.5 19.5t-82.5 54.5t-54.5 82.5t-19.5 104.5q0 53 19 100.5t53 83t80.5 56.5t102.5 21q59 0 105 -19.5t77 -54t47 -81.5t16 -102v-12q-1 -6 -1 -11q-1 -5 -1 -11h-369q4 -30 16.5 -51.5t31 -36t40.5 -21t45 -6.5q45 0 74.5 20.5t46.5 51.5zM401 308q-1 13 -8.5 29
t-22 30t-36 23t-51.5 9q-42 0 -74 -24t-45 -67h237z" />
    <glyph glyph-name="uni0452" unicode="&#x452;" 
d="M187 563v-48l-8 -89h8q21 35 60.5 57.5t88.5 22.5q95 0 140.5 -56t45.5 -153v-347q0 -48 -13 -81.5t-35 -54.5t-51 -30.5t-62 -9.5q-25 0 -45 3.5t-37 10.5l33 116q8 -5 15.5 -7t18.5 -2q24 0 34.5 15t10.5 44v327q0 51 -24 77.5t-67 26.5q-27 0 -48 -11.5t-35.5 -31.5
t-22 -46.5t-7.5 -56.5v-239h-131v563h-58v90h58v63h131v-63h134v-90h-134z" />
    <glyph glyph-name="uni0453" unicode="&#x453;" horiz-adv-x="419" 
d="M165 588l42 136h153l-90 -136h-105zM56 490h359v-112h-228v-378h-131v490z" />
    <glyph glyph-name="uni0454" unicode="&#x454;" horiz-adv-x="535" 
d="M148 198q13 -52 49 -79t84 -27t78.5 21t47.5 59l104 -46q-27 -62 -84 -102t-144 -40q-57 0 -103.5 19.5t-80.5 54.5t-52.5 82.5t-18.5 104.5t19 105t53 82.5t81 54t102 19.5q85 0 140.5 -39.5t82.5 -100.5l-104 -43q-17 33 -47 54t-74 21q-48 0 -84.5 -27.5t-48.5 -79.5
h201v-93h-201z" />
    <glyph glyph-name="uni0455" unicode="&#x455;" horiz-adv-x="483" 
d="M250 -16q-48 0 -85.5 12t-65 31.5t-46.5 45t-29 51.5l117 50q17 -38 45.5 -56.5t63.5 -18.5q36 0 57 13t21 31q0 20 -17.5 32.5t-60.5 22.5l-69 15q-23 5 -47.5 16t-44.5 28t-33 41t-13 56q0 36 15.5 64t42.5 47.5t63.5 30t78.5 10.5q70 0 125 -27.5t81 -87.5l-113 -46
q-14 29 -41 42t-54 13q-28 0 -49 -11.5t-21 -29.5q0 -17 17.5 -27t47.5 -18l75 -18q75 -18 111.5 -57.5t36.5 -93.5q0 -32 -15 -61t-42.5 -51.5t-66 -35.5t-85.5 -13z" />
    <glyph glyph-name="uni0456" unicode="&#x456;" horiz-adv-x="259" 
d="M129 561q-17 0 -32.5 6.5t-27 18t-18 26.5t-6.5 33t6.5 33t18 26.5t27 18t32.5 6.5q35 0 60 -24.5t25 -59.5t-25 -59.5t-60 -24.5zM64 0v490h131v-490h-131z" />
    <glyph glyph-name="uni0457" unicode="&#x457;" horiz-adv-x="259" 
d="M45 590q-28 0 -48.5 20.5t-20.5 48.5q0 29 20.5 49t48.5 20q29 0 49 -20t20 -49q0 -28 -20 -48.5t-49 -20.5zM213 590q-28 0 -48.5 20.5t-20.5 48.5q0 29 20.5 49t48.5 20q29 0 49 -20t20 -49q0 -28 -20 -48.5t-49 -20.5zM64 0v490h131v-490h-131z" />
    <glyph glyph-name="uni0458" unicode="&#x458;" horiz-adv-x="259" 
d="M-15 -96q8 -5 15.5 -7t18.5 -2q45 0 45 59v536h131v-540q0 -48 -13 -81.5t-35 -54.5t-51 -30.5t-62 -9.5q-25 0 -45 3.5t-37 10.5zM129 561q-17 0 -32.5 6.5t-27 18t-18 26.5t-6.5 33t6.5 33t18 26.5t27 18t32.5 6.5q35 0 60 -24.5t25 -59.5t-25 -59.5t-60 -24.5z" />
    <glyph glyph-name="uni0459" unicode="&#x459;" horiz-adv-x="900" 
d="M101 -8q-16 0 -32 2t-27 6v115q10 -3 17.5 -4t14.5 -1q15 0 26 7.5t17.5 25t10 46t3.5 71.5v230h438v-167h125q38 0 71.5 -11.5t58 -32.5t38.5 -51t14 -67t-14 -67t-38.5 -51t-58 -32t-71.5 -11h-250v373h-190v-142q0 -68 -11.5 -114t-32 -73.5t-48.5 -39.5t-61 -12z
M569 220v-117h120q28 0 47.5 15.5t19.5 42.5t-19.5 43t-47.5 16h-120z" />
    <glyph glyph-name="uni045A" unicode="&#x45a;" horiz-adv-x="874" 
d="M384 0v220h-197v-220h-131v490h131v-167h197v167h131v-167h153q38 0 71.5 -11.5t58 -32.5t38.5 -51t14 -67t-14 -67t-38.5 -51t-58 -32t-71.5 -11h-284zM663 103q28 0 47.5 15.5t19.5 42.5t-19.5 43t-47.5 16h-148v-117h148z" />
    <glyph glyph-name="uni045B" unicode="&#x45b;" 
d="M56 563h-58v90h58v63h131v-63h134v-90h-134v-48l-8 -89h8q21 35 60.5 57.5t88.5 22.5q95 0 140.5 -56t45.5 -153v-297h-131v281q0 51 -24 77.5t-67 26.5q-27 0 -48 -11.5t-35.5 -31.5t-22 -46.5t-7.5 -56.5v-239h-131v563z" />
    <glyph glyph-name="uni045C" unicode="&#x45c;" horiz-adv-x="514" 
d="M208 588l42 136h153l-90 -136h-105zM195 234h-8v-234h-131v490h131v-209h8l158 209h154v-8l-175 -223l186 -251v-8h-154z" />
    <glyph glyph-name="uni045D" unicode="&#x45d;" horiz-adv-x="570" 
d="M514 0h-131v199l8 96h-8l-196 -295h-131v490h131v-199l-8 -96h8l196 295h131v-490zM243 588l-89 136h153l42 -136h-106z" />
    <glyph glyph-name="uni045E" unicode="&#x45e;" horiz-adv-x="553" 
d="M210 24l-206 466h149l124 -297h7l119 297h146l-307 -706h-141zM280 579q-27 0 -52 10t-43.5 28t-30 43t-11.5 55h93q0 -18 11.5 -32t32.5 -14q20 0 31.5 14t11.5 32h92q0 -30 -11 -55t-29.5 -43t-43 -28t-51.5 -10z" />
    <glyph glyph-name="uni045F" unicode="&#x45f;" horiz-adv-x="571" 
d="M227 -152v152h-171v490h131v-369h197v369h131v-490h-171v-152h-117z" />
    <glyph glyph-name="uni0490" unicode="&#x490;" horiz-adv-x="549" 
d="M72 716h318v123h135v-251h-318v-588h-135v716z" />
    <glyph glyph-name="uni0491" unicode="&#x491;" horiz-adv-x="439" 
d="M56 490h245v107h114v-219h-228v-378h-131v490z" />
    <glyph glyph-name="uni04B0" unicode="&#x4b0;" horiz-adv-x="637" 
d="M253 263h-172v98h154l-223 355h161l143 -237h8l138 237h163l-220 -355h155v-98h-172v-263h-135v263z" />
    <glyph glyph-name="uni04B1" unicode="&#x4b1;" horiz-adv-x="541" 
d="M4 490h147l119 -325l122 325h145l-151 -364l-15 -36h105v-90h-141v-216h-131v216h-142v90h106l-15 36z" />
    <glyph glyph-name="Wgrave" unicode="&#x1e80;" horiz-adv-x="954" 
d="M16 716h143l111 -418l16 -77h8l21 77l103 322h126l104 -322l20 -76h8l15 76l104 418h143l-190 -716h-130l-112 345l-21 79h-8l-21 -79l-112 -345h-130zM422 772l-89 136h153l42 -136h-106z" />
    <glyph glyph-name="wgrave" unicode="&#x1e81;" horiz-adv-x="805" 
d="M4 490h147l81 -307h7l97 307h135l98 -307h7l80 307h145l-157 -490h-141l-98 309h-7l-98 -309h-139zM347 588l-89 136h153l42 -136h-106z" />
    <glyph glyph-name="Wacute" unicode="&#x1e82;" horiz-adv-x="954" 
d="M435 772l42 136h153l-90 -136h-105zM16 716h143l111 -418l16 -77h8l21 77l103 322h126l104 -322l20 -76h8l15 76l104 418h143l-190 -716h-130l-112 345l-21 79h-8l-21 -79l-112 -345h-130z" />
    <glyph glyph-name="wacute" unicode="&#x1e83;" horiz-adv-x="805" 
d="M355 588l42 136h153l-90 -136h-105zM4 490h147l81 -307h7l97 307h135l98 -307h7l80 307h145l-157 -490h-141l-98 309h-7l-98 -309h-139z" />
    <glyph glyph-name="Wdieresis" unicode="&#x1e84;" horiz-adv-x="954" 
d="M576 771q-29 0 -50 21.5t-21 50.5q0 30 21 51t50 21q31 0 51.5 -21t20.5 -51q0 -29 -20.5 -50.5t-51.5 -21.5zM386 771q-30 0 -51 21.5t-21 50.5q0 30 21 51t51 21t50.5 -21t20.5 -51q0 -29 -20.5 -50.5t-50.5 -21.5zM16 716h143l111 -418l16 -77h8l21 77l103 322h126
l104 -322l20 -76h8l15 76l104 418h143l-190 -716h-130l-112 345l-21 79h-8l-21 -79l-112 -345h-130z" />
    <glyph glyph-name="wdieresis" unicode="&#x1e85;" horiz-adv-x="805" 
d="M496 587q-29 0 -50 21.5t-21 50.5q0 30 21 51t50 21q31 0 51.5 -21t20.5 -51q0 -29 -20.5 -50.5t-51.5 -21.5zM306 587q-30 0 -51 21.5t-21 50.5q0 30 21 51t51 21t50.5 -21t20.5 -51q0 -29 -20.5 -50.5t-50.5 -21.5zM4 490h147l81 -307h7l97 307h135l98 -307h7l80 307
h145l-157 -490h-141l-98 309h-7l-98 -309h-139z" />
    <glyph glyph-name="Ygrave" unicode="&#x1ef2;" horiz-adv-x="637" 
d="M253 333l-241 383h161l143 -237h8l138 237h163l-237 -383v-333h-135v333zM269 772l-89 136h153l42 -136h-106z" />
    <glyph glyph-name="ygrave" unicode="&#x1ef3;" horiz-adv-x="553" 
d="M210 24l-206 466h149l124 -297h7l119 297h146l-307 -706h-141zM224 588l-89 136h153l42 -136h-106z" />
    <glyph glyph-name="endash" unicode="&#x2013;" horiz-adv-x="611" 
d="M56 368h499v-116h-499v116z" />
    <glyph glyph-name="emdash" unicode="&#x2014;" horiz-adv-x="917" 
d="M56 368h805v-116h-805v116z" />
    <glyph glyph-name="quoteleft" unicode="&#x2018;" horiz-adv-x="269" 
d="M219 693l-51 -78q23 -8 38 -28.5t15 -49.5q0 -36 -25 -61.5t-61 -25.5t-61.5 25.5t-25.5 61.5q0 19 6.5 34t18.5 32l87 129z" />
    <glyph glyph-name="quoteright" unicode="&#x2019;" horiz-adv-x="269" 
d="M50 489l51 78q-22 8 -37.5 28.5t-15.5 49.5q0 36 25.5 61.5t61.5 25.5t61 -25.5t25 -61.5q0 -19 -6.5 -34t-18.5 -32l-87 -129z" />
    <glyph glyph-name="quotesinglbase" unicode="&#x201a;" horiz-adv-x="269" 
d="M50 -77l51 78q-22 8 -37.5 28.5t-15.5 49.5q0 36 25.5 61.5t61.5 25.5t61 -25.5t25 -61.5q0 -19 -6.5 -34t-18.5 -32l-87 -129z" />
    <glyph glyph-name="quotedblleft" unicode="&#x201c;" horiz-adv-x="488" 
d="M219 693l-51 -78q23 -8 38 -28.5t15 -49.5q0 -36 -25 -61.5t-61 -25.5t-61.5 25.5t-25.5 61.5q0 19 6.5 34t18.5 32l87 129zM438 693l-51 -78q23 -8 38 -28.5t15 -49.5q0 -36 -25 -61.5t-61 -25.5t-61.5 25.5t-25.5 61.5q0 19 6.5 34t18.5 32l87 129z" />
    <glyph glyph-name="quotedblright" unicode="&#x201d;" horiz-adv-x="488" 
d="M50 489l51 78q-22 8 -37.5 28.5t-15.5 49.5q0 36 25.5 61.5t61.5 25.5t61 -25.5t25 -61.5q0 -19 -6.5 -34t-18.5 -32l-87 -129zM269 489l51 78q-22 8 -37.5 28.5t-15.5 49.5q0 36 25.5 61.5t61.5 25.5t61 -25.5t25 -61.5q0 -19 -6.5 -34t-18.5 -32l-87 -129z" />
    <glyph glyph-name="quotedblbase" unicode="&#x201e;" horiz-adv-x="479" 
d="M50 -77l51 78q-22 8 -37.5 28.5t-15.5 49.5q0 36 25.5 61.5t61.5 25.5t61 -25.5t25 -61.5q0 -19 -6.5 -34t-18.5 -32l-87 -129zM259 -77l51 78q-22 8 -37.5 28.5t-15.5 49.5q0 36 25.5 61.5t61.5 25.5t61 -25.5t25 -61.5q0 -19 -6.5 -34t-18.5 -32l-87 -129z" />
    <glyph glyph-name="bullet" unicode="&#x2022;" horiz-adv-x="421" 
d="M211 193q-27 0 -51 10.5t-41.5 28t-28 41.5t-10.5 51t10.5 51t28 41.5t41.5 28t51 10.5t50.5 -10.5t41.5 -28t28 -41.5t10 -51t-10 -51t-28 -41.5t-41.5 -28t-50.5 -10.5z" />
    <glyph glyph-name="ellipsis" unicode="&#x2026;" horiz-adv-x="752" 
d="M135 -6q-36 0 -61.5 25.5t-25.5 61.5t25.5 61t61.5 25t61 -25t25 -61t-25 -61.5t-61 -25.5zM376 -6q-36 0 -61.5 25.5t-25.5 61.5t25.5 61t61.5 25t61 -25t25 -61t-25 -61.5t-61 -25.5zM618 -6q-36 0 -61.5 25.5t-25.5 61.5t25.5 61t61.5 25t61 -25t25 -61t-25 -61.5
t-61 -25.5z" />
    <glyph glyph-name="guilsinglleft" unicode="&#x2039;" horiz-adv-x="387" 
d="M327 110l-75 -69l-212 230l212 230l75 -69l-150 -161z" />
    <glyph glyph-name="guilsinglright" unicode="&#x203a;" horiz-adv-x="387" 
d="M210 271l-150 161l75 69l212 -230l-212 -230l-75 69z" />
    <glyph glyph-name="fraction" unicode="&#x2044;" horiz-adv-x="192" 
d="M-176 37l465 694l79 -53l-465 -694z" />
    <glyph glyph-name="uni2074" unicode="&#x2074;" horiz-adv-x="362" 
d="M200 350v65h-172v64l171 237h87v-227h48v-74h-48v-65h-86zM200 489v107h-8l-76 -107h84z" />
    <glyph glyph-name="uni20A3" unicode="&#x20a3;" horiz-adv-x="570" 
d="M93 0v114h-69v76h69v494h441v-116h-318v-176h286v-116h-286v-86h128v-76h-128v-114h-123z" />
    <glyph glyph-name="uni20A4" unicode="&#x20a4;" horiz-adv-x="548" 
d="M368 505q-3 15 -10.5 29t-19.5 25t-28.5 18t-37.5 7q-43 0 -67 -26.5t-24 -63.5q0 -26 7 -48.5t17 -43.5h155v-76h-119q5 -14 8.5 -29t4.5 -32h106v-76h-114q-6 -20 -17 -36t-25 -29l5 -8h149q56 0 72 59l102 -44q-18 -60 -59 -95.5t-113 -35.5h-318v106q32 13 54.5 35
t33.5 48h-98v76h105q-3 17 -8.5 32t-12.5 29h-84v76h46q-9 21 -15 44t-6 52q0 41 15.5 77.5t44 64.5t68 44t87.5 16q47 0 83 -12.5t62 -33.5t42.5 -47.5t24.5 -54.5z" />
    <glyph glyph-name="uni20A9" unicode="&#x20a9;" horiz-adv-x="1002" 
d="M872 326l-85 -326h-139l-95 326h-100l-100 -326h-132l-87 326h-102v76h82l-75 282h146l68 -282h93l90 282h136l86 -282h93l68 282h146l-74 -282h74v-76h-93zM476 402h55l-7 25l-16 83h-8l-16 -83zM315 303l7 23h-51l6 -23l13 -79h8zM727 303l5 23h-50l7 -23l17 -78h7z
" />
    <glyph glyph-name="uni20AB" unicode="&#x20ab;" horiz-adv-x="587" 
d="M260 -16q-45 0 -87 18t-74.5 51t-51.5 80t-19 104t19 104t51.5 80t74.5 51t87 18q56 0 91.5 -22t53.5 -53h8l-8 70v54h-140v74h140v71h131v-71h59v-74h-59v-539h-123v59h-8q-18 -31 -53.5 -53t-91.5 -22zM60 -84h476v-96h-476v96zM287 105q26 0 49 8.5t40 25.5t27 41.5
t10 56.5t-10 56.5t-27 41.5t-40 25.5t-49 8.5t-49 -9t-40.5 -25.5t-28 -41.5t-10.5 -56q0 -32 10.5 -56.5t28 -41t40.5 -25.5t49 -9z" />
    <glyph glyph-name="Euro" unicode="&#x20ac;" horiz-adv-x="653" 
d="M24 469h99q18 52 50 94.5t74.5 73t95 47t112.5 16.5q87 0 160 -44l-62 -107q-22 14 -45.5 20.5t-51.5 6.5q-60 0 -110.5 -28t-79.5 -79h202v-94h-232q-1 -7 -1.5 -16t-0.5 -17q0 -9 0.5 -18t1.5 -15h232v-94h-202q29 -51 79.5 -79t110.5 -28q38 0 65.5 9t52.5 25l55 -113
q-42 -24 -85 -34.5t-89 -10.5q-60 0 -112.5 16.5t-95 47t-74.5 73t-50 94.5h-99v94h81q-1 7 -1.5 16t-0.5 17t0.5 17t1.5 16h-81v94z" />
    <glyph glyph-name="uni20AE" unicode="&#x20ae;" horiz-adv-x="557" 
d="M217 101l-113 -71h-6v109l119 75v56l-119 -75v114l119 75v184h-193v116h509v-116h-193v-113l112 71h7v-110l-119 -75v-55l119 75v-114l-119 -75v-172h-123v101z" />
    <glyph glyph-name="uni20B1" unicode="&#x20b1;" horiz-adv-x="659" 
d="M100 0v434h-76v76h76v174h251q45 0 84.5 -11.5t70 -34t50.5 -55t26 -73.5h61v-76h-61q-6 -42 -26 -74.5t-50.5 -55t-70 -34t-84.5 -11.5h-128v-259h-123zM359 375q37 0 62 16.5t36 42.5h-234v-59h136zM223 510h234q-11 26 -36 42t-62 16h-136v-58z" />
    <glyph glyph-name="uni20B8" unicode="&#x20b8;" horiz-adv-x="557" 
d="M217 0v400h-193v112h509v-112h-193v-400h-123zM24 572v112h509v-112h-509z" />
    <glyph glyph-name="uni20B9" unicode="&#x20b9;" horiz-adv-x="581" 
d="M106 376h164q35 0 61 16t37 44h-344v76h344q-11 26 -35.5 43t-60.5 17h-248v112h533v-76h-110q35 -38 46 -96h64v-76h-64q-6 -38 -24 -68.5t-44.5 -53t-59 -36t-67.5 -16.5h-7l-1 -8l241 -246v-8h-173l-252 259v117z" />
    <glyph glyph-name="uni20BA" unicode="&#x20ba;" horiz-adv-x="550" 
d="M24 395l117 73v216h122v-145l122 77v-114l-122 -77v-76l122 78v-114l-122 -77v-126q32 3 58.5 16.5t45.5 33.5t29.5 46t10.5 55h119q0 -55 -20.5 -102.5t-56 -83t-85 -55.5t-108.5 -20h-115v165l-117 -73v113l117 73v76l-117 -73v114z" />
    <glyph glyph-name="uni20BD" unicode="&#x20bd;" horiz-adv-x="609" 
d="M100 0v114h-76v76h76v69h-76v112h76v313h251q50 0 93 -14.5t74.5 -41.5t49 -66.5t17.5 -89.5q0 -51 -17.5 -90.5t-49 -66.5t-74.5 -41.5t-93 -14.5h-128v-69h131v-76h-131v-114h-123zM359 375q49 0 77 27.5t28 69.5q0 41 -28 68.5t-77 27.5h-136v-193h136z" />
    <glyph glyph-name="uni2116" unicode="&#x2116;" horiz-adv-x="1093" 
d="M72 716h157l288 -480h8l-8 138v342h134v-716h-142l-304 507h-8l8 -138v-369h-133v716zM889 390q-37 0 -68.5 13.5t-54.5 36.5t-36 54.5t-13 66.5t13 66t36 54.5t54.5 37t68.5 13.5t68.5 -13.5t54.5 -37t36 -54.5t13 -66t-13 -66.5t-36 -54.5t-54.5 -36.5t-68.5 -13.5z
M889 476q33 0 56 23.5t23 61.5t-23 61.5t-56 23.5q-32 0 -55.5 -23.5t-23.5 -61.5t23.5 -61.5t55.5 -23.5zM749 323h280v-85h-280v85z" />
    <glyph glyph-name="minus" unicode="&#x2212;" horiz-adv-x="569" 
d="M56 213v116h457v-116h-457z" />
    <glyph glyph-name="uni2215" unicode="&#x2215;" horiz-adv-x="480" 
d="M27 0l297 716h129l-297 -716h-129z" />
    <glyph glyph-name="uniF8FF" horiz-adv-x="1000" 
d="M891 451q4 -21 5.5 -42t1.5 -44q0 -89 -28.5 -163.5t-81 -128.5t-126 -84t-163.5 -30q-86 0 -162 32.5t-132.5 89t-89 132.5t-32.5 162t32.5 162t89 132.5t132.5 89t162 32.5q85 0 154.5 -28.5t123.5 -79.5l-119 -120q-65 62 -159 62q-51 0 -96 -20t-78 -54t-52.5 -79.5
t-19.5 -96.5t19.5 -96.5t52.5 -80t78 -54.5t96 -20q46 0 84 12.5t67 34.5t47.5 52.5t25.5 66.5h-224v161h392z" />
    <glyph glyph-name="one.numerator" horiz-adv-x="272" 
d="M123 350v263l-66 -29l-33 75l123 57h65v-366h-89z" />
    <glyph glyph-name="two.denominator" horiz-adv-x="317" 
d="M28 0v63q32 33 59 60l43.5 43.5l25.5 25.5q18 17 29.5 32t11.5 35q0 14 -11.5 25t-29.5 11q-20 0 -33.5 -12t-18.5 -38l-80 31q11 45 47 71.5t85 26.5q28 0 52 -8t41.5 -22t27.5 -34t10 -44q0 -18 -6.5 -34.5t-16 -31t-20 -26.5t-19.5 -21l-45 -45q-14 -14 -30 -29h139
v-79h-261z" />
    <glyph glyph-name="two.numerator" horiz-adv-x="317" 
d="M28 350v63q32 33 59 60l43.5 43.5l25.5 25.5q18 17 29.5 32t11.5 35q0 14 -11.5 25t-29.5 11q-20 0 -33.5 -12t-18.5 -38l-80 31q11 45 47 71.5t85 26.5q28 0 52 -8t41.5 -22t27.5 -34t10 -44q0 -18 -6.5 -34.5t-16 -31t-20 -26.5t-19.5 -21l-45 -45q-14 -14 -30 -29h139
v-79h-261z" />
    <glyph glyph-name="three.numerator" horiz-adv-x="335" 
d="M165 342q-48 0 -87.5 24t-53.5 77l83 30q6 -30 22.5 -42t35.5 -12q20 0 34.5 12t14.5 32t-16 31t-41 11h-38v70h34q23 0 36.5 9.5t13.5 28.5q0 16 -11.5 25t-27.5 9q-23 0 -35 -11.5t-17 -25.5l-78 31q13 36 45.5 59.5t86.5 23.5q28 0 50.5 -8t39 -22.5t25.5 -33t9 -39.5
q0 -48 -43 -78q24 -13 40 -34.5t16 -49.5t-11.5 -49.5t-30.5 -36.5t-44 -23t-52 -8z" />
    <glyph glyph-name="four.denominator" horiz-adv-x="362" 
d="M200 0v65h-172v64l171 237h87v-227h48v-74h-48v-65h-86zM200 139v107h-8l-76 -107h84z" />
    <glyph glyph-name="four.numerator" horiz-adv-x="362" 
d="M200 350v65h-172v64l171 237h87v-227h48v-74h-48v-65h-86zM200 489v107h-8l-76 -107h84z" />
    <glyph glyph-name="r.alt" horiz-adv-x="401" 
d="M179 422h8q20 37 58.5 59.5t85.5 22.5q17 0 27 -1t19 -4v-130q-11 5 -24.5 8t-32.5 3q-62 0 -97.5 -37.5t-35.5 -102.5v-240h-131v490h123v-68z" />
    <glyph glyph-name="uni03BC" 
d="M395 0v54h-8q-21 -33 -51.5 -51.5t-75.5 -18.5q-23 0 -42.5 6.5t-34.5 17.5h-8l8 -65v-159h-131v706h131v-278q0 -53 25 -80t67 -27q27 0 47.5 11.5t35 31t22 46t7.5 56.5v240h131v-490h-123z" />
    <glyph glyph-name="uni2103" horiz-adv-x="969" 
d="M660 -16q-77 0 -142.5 27.5t-114 75.5t-76 113.5t-27.5 141.5t27.5 141.5t76 113.5t114 75.5t142.5 27.5q81 0 143.5 -29.5t111.5 -83.5l-90 -88q-30 35 -70.5 56t-94.5 21q-48 0 -90 -16.5t-72.5 -47t-48.5 -73.5t-18 -97t18 -97t48.5 -73.5t72.5 -47t90 -16.5
q58 0 102 24t79 66l92 -88q-51 -61 -119 -93.5t-154 -32.5zM163 442q-27 0 -51 10t-41.5 27.5t-28 41t-10.5 50.5t10.5 50.5t28 41t41.5 27.5t51 10t50.5 -10t41 -27.5t28 -41t10.5 -50.5t-10.5 -50.5t-28 -41t-41 -27.5t-50.5 -10zM163 519q22 0 36 15.5t14 36.5
q0 22 -14 37t-36 15q-23 0 -37 -15t-14 -37q0 -21 14 -36.5t37 -15.5z" />
    <glyph glyph-name="uni2109" horiz-adv-x="833" 
d="M366 0v684h435v-124h-304v-164h274v-124h-274v-272h-131zM163 442q-27 0 -51 10t-41.5 27.5t-28 41t-10.5 50.5t10.5 50.5t28 41t41.5 27.5t51 10t50.5 -10t41 -27.5t28 -41t10.5 -50.5t-10.5 -50.5t-28 -41t-41 -27.5t-50.5 -10zM163 519q22 0 36 15.5t14 36.5
q0 22 -14 37t-36 15q-23 0 -37 -15t-14 -37q0 -21 14 -36.5t37 -15.5z" />
    <glyph glyph-name="uni2190" horiz-adv-x="1123" 
d="M287 248v-177l-239 239l239 239v-177h780v-124h-780z" />
    <glyph glyph-name="uni2191" horiz-adv-x="559" 
d="M341 -145h-124v740h-177l239 240l240 -240h-178v-740z" />
    <glyph glyph-name="uni2192" horiz-adv-x="1123" 
d="M56 248v124h779v177l240 -239l-240 -239v177h-779z" />
    <glyph glyph-name="uni2193" horiz-adv-x="559" 
d="M341 71h178l-240 -239l-239 239h177v741h124v-741z" />
    <glyph glyph-name="uni2196" horiz-adv-x="792" 
d="M792 67l-88 -88l-538 537l-126 -125v338h339l-126 -125z" />
    <glyph glyph-name="uni2197" horiz-adv-x="792" 
d="M539 604l-126 125h339v-338l-126 125l-538 -537l-88 88z" />
    <glyph glyph-name="uni2198" horiz-adv-x="792" 
d="M253 112l126 -125h-339v338l126 -125l538 537l88 -88z" />
    <glyph glyph-name="uni2199" horiz-adv-x="792" 
d="M0 649l88 88l538 -537l126 125v-338h-339l126 125z" />
    <glyph glyph-name="uni2639" horiz-adv-x="836" 
d="M287 395q-23 0 -39.5 16.5t-16.5 40.5q0 23 16.5 39t39.5 16t39.5 -16t16.5 -39q0 -24 -16.5 -40.5t-39.5 -16.5zM549 395q-23 0 -39.5 16.5t-16.5 40.5q0 23 16.5 39t39.5 16t39.5 -16t16.5 -39q0 -24 -16.5 -40.5t-39.5 -16.5zM418 -16q-77 0 -145 29.5t-119 80.5
t-80.5 119t-29.5 145t29.5 145t80.5 119t119 80.5t145 29.5t145 -29.5t119 -80.5t80.5 -119t29.5 -145t-29.5 -145t-80.5 -119t-119 -80.5t-145 -29.5zM418 48q64 0 120.5 24.5t98.5 67t66.5 99t24.5 119.5q0 64 -24.5 120.5t-66.5 98.5t-98.5 66.5t-120.5 24.5
q-63 0 -119.5 -24.5t-99 -66.5t-67 -98.5t-24.5 -120.5q0 -63 24.5 -119.5t67 -99t99 -67t119.5 -24.5zM418 301q63 0 113 -32.5t74 -86.5l-67 -31q-17 35 -49.5 55t-70.5 20t-70.5 -20t-48.5 -55l-68 31q24 54 74 86.5t113 32.5z" />
    <glyph glyph-name="uni263A" horiz-adv-x="836" 
d="M549 395q-23 0 -39.5 16.5t-16.5 40.5q0 23 16.5 39t39.5 16t39.5 -16t16.5 -39q0 -24 -16.5 -40.5t-39.5 -16.5zM287 395q-23 0 -39.5 16.5t-16.5 40.5q0 23 16.5 39t39.5 16t39.5 -16t16.5 -39q0 -24 -16.5 -40.5t-39.5 -16.5zM418 152q-63 0 -113 32.5t-74 86.5l68 31
q16 -35 48.5 -55t70.5 -20t70.5 20t49.5 55l67 -31q-24 -54 -74 -86.5t-113 -32.5zM418 -16q-77 0 -145 29.5t-119 80.5t-80.5 119t-29.5 145t29.5 145t80.5 119t119 80.5t145 29.5t145 -29.5t119 -80.5t80.5 -119t29.5 -145t-29.5 -145t-80.5 -119t-119 -80.5t-145 -29.5z
M418 48q64 0 120.5 24.5t98.5 67t66.5 99t24.5 119.5q0 64 -24.5 120.5t-66.5 98.5t-98.5 66.5t-120.5 24.5q-63 0 -119.5 -24.5t-99 -66.5t-67 -98.5t-24.5 -120.5q0 -63 24.5 -119.5t67 -99t99 -67t119.5 -24.5z" />
    <glyph glyph-name="uni2780" horiz-adv-x="836" 
d="M418 -16q-77 0 -145 29.5t-119 80.5t-80.5 119t-29.5 145t29.5 145t80.5 119t119 80.5t145 29.5t145 -29.5t119 -80.5t80.5 -119t29.5 -145t-29.5 -145t-80.5 -119t-119 -80.5t-145 -29.5zM418 69q60 0 112.5 23t91.5 62.5t62 92t23 111.5q0 60 -23 112.5t-62 91.5
t-91.5 62t-112.5 23q-59 0 -111.5 -23t-92 -62t-62.5 -91.5t-23 -112.5q0 -59 23 -111.5t62.5 -92t92 -62.5t111.5 -23zM386 177v263l-66 -29l-33 75l123 57h65v-366h-89z" />
    <glyph glyph-name="uni2781" horiz-adv-x="836" 
d="M418 -16q-77 0 -145 29.5t-119 80.5t-80.5 119t-29.5 145t29.5 145t80.5 119t119 80.5t145 29.5t145 -29.5t119 -80.5t80.5 -119t29.5 -145t-29.5 -145t-80.5 -119t-119 -80.5t-145 -29.5zM418 69q60 0 112.5 23t91.5 62.5t62 92t23 111.5q0 60 -23 112.5t-62 91.5
t-91.5 62t-112.5 23q-59 0 -111.5 -23t-92 -62t-62.5 -91.5t-23 -112.5q0 -59 23 -111.5t62.5 -92t92 -62.5t111.5 -23zM287 177v63q32 33 59 60l43.5 43.5l25.5 25.5q18 17 29.5 32t11.5 35q0 14 -11.5 25t-29.5 11q-20 0 -33.5 -12t-18.5 -38l-80 31q11 45 47 71.5
t85 26.5q28 0 52 -8t41.5 -22t27.5 -34t10 -44q0 -18 -6.5 -34.5t-16 -31t-20 -26.5t-19.5 -21l-45 -45q-14 -14 -30 -29h139v-79h-261z" />
    <glyph glyph-name="uni2782" horiz-adv-x="836" 
d="M418 -16q-77 0 -145 29.5t-119 80.5t-80.5 119t-29.5 145t29.5 145t80.5 119t119 80.5t145 29.5t145 -29.5t119 -80.5t80.5 -119t29.5 -145t-29.5 -145t-80.5 -119t-119 -80.5t-145 -29.5zM418 69q60 0 112.5 23t91.5 62.5t62 92t23 111.5q0 60 -23 112.5t-62 91.5
t-91.5 62t-112.5 23q-59 0 -111.5 -23t-92 -62t-62.5 -91.5t-23 -112.5q0 -59 23 -111.5t62.5 -92t92 -62.5t111.5 -23zM417 169q-48 0 -87.5 24t-53.5 77l83 30q6 -30 22.5 -42t35.5 -12q20 0 34.5 12t14.5 32t-16 31t-41 11h-38v70h34q23 0 36.5 9.5t13.5 28.5
q0 16 -11.5 25t-27.5 9q-23 0 -35 -11.5t-17 -25.5l-78 31q13 36 45.5 59.5t86.5 23.5q28 0 50.5 -8t39 -22.5t25.5 -33t9 -39.5q0 -48 -43 -78q24 -13 40 -34.5t16 -49.5t-11.5 -49.5t-30.5 -36.5t-44 -23t-52 -8z" />
    <glyph glyph-name="uni2783" horiz-adv-x="836" 
d="M418 -16q-77 0 -145 29.5t-119 80.5t-80.5 119t-29.5 145t29.5 145t80.5 119t119 80.5t145 29.5t145 -29.5t119 -80.5t80.5 -119t29.5 -145t-29.5 -145t-80.5 -119t-119 -80.5t-145 -29.5zM418 69q60 0 112.5 23t91.5 62.5t62 92t23 111.5q0 60 -23 112.5t-62 91.5
t-91.5 62t-112.5 23q-59 0 -111.5 -23t-92 -62t-62.5 -91.5t-23 -112.5q0 -59 23 -111.5t62.5 -92t92 -62.5t111.5 -23zM419 177v65h-172v64l171 237h87v-227h48v-74h-48v-65h-86zM419 316v107h-8l-76 -107h84z" />
    <glyph glyph-name="uni2784" horiz-adv-x="836" 
d="M418 -16q-77 0 -145 29.5t-119 80.5t-80.5 119t-29.5 145t29.5 145t80.5 119t119 80.5t145 29.5t145 -29.5t119 -80.5t80.5 -119t29.5 -145t-29.5 -145t-80.5 -119t-119 -80.5t-145 -29.5zM418 69q60 0 112.5 23t91.5 62.5t62 92t23 111.5q0 60 -23 112.5t-62 91.5
t-91.5 62t-112.5 23q-59 0 -111.5 -23t-92 -62t-62.5 -91.5t-23 -112.5q0 -59 23 -111.5t62.5 -92t92 -62.5t111.5 -23zM417 169q-21 0 -42 5t-39.5 16t-33 28t-21.5 42l79 31q5 -21 20 -33t36 -12q22 0 36.5 14.5t14.5 37.5t-14.5 37.5t-35.5 14.5q-17 0 -30.5 -8
t-21.5 -21l-73 32l23 189h219v-72h-152l-11 -66q25 17 62 17q24 0 46 -8.5t38.5 -24.5t26.5 -39.5t10 -52.5t-11 -52.5t-30 -40t-44 -25.5t-52 -9z" />
    <glyph glyph-name="uni2785" horiz-adv-x="836" 
d="M418 -16q-77 0 -145 29.5t-119 80.5t-80.5 119t-29.5 145t29.5 145t80.5 119t119 80.5t145 29.5t145 -29.5t119 -80.5t80.5 -119t29.5 -145t-29.5 -145t-80.5 -119t-119 -80.5t-145 -29.5zM418 69q60 0 112.5 23t91.5 62.5t62 92t23 111.5q0 60 -23 112.5t-62 91.5
t-91.5 62t-112.5 23q-59 0 -111.5 -23t-92 -62t-62.5 -91.5t-23 -112.5q0 -59 23 -111.5t62.5 -92t92 -62.5t111.5 -23zM414 169q-30 0 -55 10.5t-43.5 28t-28.5 41t-10 49.5q0 32 13 59t30 52q10 15 28 40l36 50q21 28 44 60l67 -49l-76 -96q3 2 8.5 3t10.5 1q21 0 41.5 -9
t36.5 -25.5t25.5 -39t9.5 -48.5t-10.5 -49t-29 -40.5t-43.5 -27.5t-54 -10zM413 245q23 0 36.5 15t13.5 36q0 20 -13.5 35.5t-36.5 15.5q-22 0 -35.5 -15.5t-13.5 -35.5q0 -21 13.5 -36t35.5 -15z" />
    <glyph glyph-name="uni2786" horiz-adv-x="836" 
d="M418 -16q-77 0 -145 29.5t-119 80.5t-80.5 119t-29.5 145t29.5 145t80.5 119t119 80.5t145 29.5t145 -29.5t119 -80.5t80.5 -119t29.5 -145t-29.5 -145t-80.5 -119t-119 -80.5t-145 -29.5zM418 69q60 0 112.5 23t91.5 62.5t62 92t23 111.5q0 60 -23 112.5t-62 91.5
t-91.5 62t-112.5 23q-59 0 -111.5 -23t-92 -62t-62.5 -91.5t-23 -112.5q0 -59 23 -111.5t62.5 -92t92 -62.5t111.5 -23zM307 202l152 260h-164v81h261v-77l-171 -304z" />
    <glyph glyph-name="uni2787" horiz-adv-x="836" 
d="M418 -16q-77 0 -145 29.5t-119 80.5t-80.5 119t-29.5 145t29.5 145t80.5 119t119 80.5t145 29.5t145 -29.5t119 -80.5t80.5 -119t29.5 -145t-29.5 -145t-80.5 -119t-119 -80.5t-145 -29.5zM418 69q60 0 112.5 23t91.5 62.5t62 92t23 111.5q0 60 -23 112.5t-62 91.5
t-91.5 62t-112.5 23q-59 0 -111.5 -23t-92 -62t-62.5 -91.5t-23 -112.5q0 -59 23 -111.5t62.5 -92t92 -62.5t111.5 -23zM418 169q-26 0 -51 7.5t-44.5 22t-31 36t-11.5 48.5q0 28 14 50.5t38 36.5q-19 12 -29.5 32t-10.5 40q0 25 10 45t27.5 34.5t40 22t48.5 7.5
q25 0 48 -7.5t40.5 -22t27.5 -34.5t10 -45q0 -20 -10.5 -40t-29.5 -32q24 -14 38 -36.5t14 -50.5t-12 -49t-31.5 -35.5t-44 -22t-50.5 -7.5zM418 402q15 0 27.5 10t12.5 27q0 16 -11.5 26.5t-28.5 10.5t-28.5 -10t-11.5 -27t12 -27t28 -10zM418 244q19 0 34.5 12.5
t15.5 32.5t-15.5 32.5t-34.5 12.5q-20 0 -35 -12.5t-15 -32.5t15 -32.5t35 -12.5z" />
    <glyph glyph-name="uni2788" horiz-adv-x="836" 
d="M418 -16q-77 0 -145 29.5t-119 80.5t-80.5 119t-29.5 145t29.5 145t80.5 119t119 80.5t145 29.5t145 -29.5t119 -80.5t80.5 -119t29.5 -145t-29.5 -145t-80.5 -119t-119 -80.5t-145 -29.5zM418 69q60 0 112.5 23t91.5 62.5t62 92t23 111.5q0 60 -23 112.5t-62 91.5
t-91.5 62t-112.5 23q-59 0 -111.5 -23t-92 -62t-62.5 -91.5t-23 -112.5q0 -59 23 -111.5t62.5 -92t92 -62.5t111.5 -23zM415 551q30 0 55 -10.5t43.5 -28t28.5 -41t10 -49.5q0 -32 -13 -59t-30 -52q-11 -15 -28 -40q-18 -26 -36 -50q-21 -29 -44 -60l-67 49l77 96
q-4 -2 -9.5 -3t-10.5 -1q-21 0 -41.5 9t-36.5 25.5t-25.5 39t-9.5 48.5t10.5 49t29.5 40.5t43.5 27.5t53.5 10zM416 475q-23 0 -36.5 -15t-13.5 -36q0 -20 13.5 -35.5t36.5 -15.5q22 0 36 15.5t14 35.5q0 21 -13.5 36t-36.5 15z" />
    <glyph glyph-name="uni278A" horiz-adv-x="836" 
d="M475 543h-65l-123 -57l32 -75l67 29v-263h89v366zM418 -16q-77 0 -145 29.5t-119 80.5t-80.5 119t-29.5 145t29.5 145t80.5 119t119 80.5t145 29.5t145 -29.5t119 -80.5t80.5 -119t29.5 -145t-29.5 -145t-80.5 -119t-119 -80.5t-145 -29.5z" />
    <glyph glyph-name="uni278B" horiz-adv-x="836" 
d="M548 256h-140q16 15 30 29l45 45q9 9 19.5 21t20.5 26.5t16.5 31t6.5 34.5q0 24 -10 44t-28 34t-42 22t-52 8q-49 0 -85 -26.5t-47 -71.5l81 -31q5 26 18.5 38t32.5 12q18 0 29.5 -11t11.5 -25q0 -20 -11.5 -35t-29.5 -32q-2 -2 -8 -9l-16.5 -16.5l-20.5 -20.5l-23 -23
l-60 -60v-63h262v79zM418 -16q-77 0 -145 29.5t-119 80.5t-80.5 119t-29.5 145t29.5 145t80.5 119t119 80.5t145 29.5t145 -29.5t119 -80.5t80.5 -119t29.5 -145t-29.5 -145t-80.5 -119t-119 -80.5t-145 -29.5z" />
    <glyph glyph-name="uni278C" horiz-adv-x="836" 
d="M417 168q27 0 52 8t44 23t30.5 36.5t11.5 49.5q0 27 -18 49.5t-48 34.5q23 10 38 30.5t15 48.5q0 43 -34 72.5t-91 29.5q-53 0 -84.5 -24t-44.5 -60l76 -31q5 14 16.5 26.5t34.5 12.5q17 0 28.5 -9.5t11.5 -25.5q0 -19 -13.5 -28.5t-36.5 -9.5h-35v-71h39
q25 0 40.5 -10.5t15.5 -30.5t-14 -32t-34 -12q-19 0 -36 12t-22 41l-83 -30q13 -52 53 -76t88 -24zM418 -16q-77 0 -145 29.5t-119 80.5t-80.5 119t-29.5 145t29.5 145t80.5 119t119 80.5t145 29.5t145 -29.5t119 -80.5t80.5 -119t29.5 -145t-29.5 -145t-80.5 -119
t-119 -80.5t-145 -29.5z" />
    <glyph glyph-name="uni278D" horiz-adv-x="836" 
d="M504 242h48v74h-48v227h-87l-171 -237v-64h172v-65h86v65zM334 316l76 107h8v-107h-84zM418 -16q-77 0 -145 29.5t-119 80.5t-80.5 119t-29.5 145t29.5 145t80.5 119t119 80.5t145 29.5t145 -29.5t119 -80.5t80.5 -119t29.5 -145t-29.5 -145t-80.5 -119t-119 -80.5
t-145 -29.5z" />
    <glyph glyph-name="uni278E" horiz-adv-x="836" 
d="M418 -16q-77 0 -145 29.5t-119 80.5t-80.5 119t-29.5 145t29.5 145t80.5 119t119 80.5t145 29.5t145 -29.5t119 -80.5t80.5 -119t29.5 -145t-29.5 -145t-80.5 -119t-119 -80.5t-145 -29.5zM418 169q27 0 52 9t43.5 25.5t30 40t11.5 52.5t-10 52.5t-26.5 39.5t-38 24.5
t-45.5 8.5q-19 0 -37 -7.5t-29 -21.5l14 78h152v72h-219l-23 -189l73 -32q8 13 21 21t31 8q21 0 35 -14.5t14 -37.5t-14 -37.5t-36 -14.5q-21 0 -36 12t-20 33l-79 -31q7 -25 21.5 -42t32.5 -28t39.5 -16t42.5 -5z" />
    <glyph glyph-name="uni278F" horiz-adv-x="836" 
d="M418 -16q-77 0 -145 29.5t-119 80.5t-80.5 119t-29.5 145t29.5 145t80.5 119t119 80.5t145 29.5t145 -29.5t119 -80.5t80.5 -119t29.5 -145t-29.5 -145t-80.5 -119t-119 -80.5t-145 -29.5zM414 169q28 0 53 10t44 27.5t29.5 40.5t10.5 49t-9.5 48.5t-25.5 39t-36.5 25.5
t-41.5 9q-5 0 -10.5 -1t-9.5 -3l77 96l-67 49q-23 -32 -44 -60l-36 -50t-28 -40q-17 -25 -30 -52t-13 -59q0 -26 10 -49.5t28.5 -41t43.5 -28t55 -10.5zM413 245q-23 0 -36.5 15t-13.5 36q0 20 14 35.5t36 15.5q23 0 36.5 -15.5t13.5 -35.5q0 -21 -13.5 -36t-36.5 -15z" />
    <glyph glyph-name="uni2790" horiz-adv-x="836" 
d="M418 -16q-77 0 -145 29.5t-119 80.5t-80.5 119t-29.5 145t29.5 145t80.5 119t119 80.5t145 29.5t145 -29.5t119 -80.5t80.5 -119t29.5 -145t-29.5 -145t-80.5 -119t-119 -80.5t-145 -29.5zM386 162l170 304v77h-260v-81h158l-147 -260z" />
    <glyph glyph-name="uni2791" horiz-adv-x="836" 
d="M418 -16q-77 0 -145 29.5t-119 80.5t-80.5 119t-29.5 145t29.5 145t80.5 119t119 80.5t145 29.5t145 -29.5t119 -80.5t80.5 -119t29.5 -145t-29.5 -145t-80.5 -119t-119 -80.5t-145 -29.5zM418 169q26 0 50.5 7.5t44 22t31.5 35.5t12 49t-15 50.5t-40 36.5q20 12 31.5 32
t11.5 40q0 25 -10 45t-27.5 34.5t-40.5 22t-48 7.5q-26 0 -48.5 -7.5t-40 -22t-27.5 -34.5t-10 -45q0 -20 11.5 -40t31.5 -32q-25 -14 -40 -36.5t-15 -50.5q0 -27 11.5 -48.5t31 -36t44.5 -22t51 -7.5zM418 402q-16 0 -28 10t-12 27t11.5 27t28.5 10t28.5 -10.5t11.5 -26.5
q0 -17 -12.5 -27t-27.5 -10zM418 244q-20 0 -35 12.5t-15 32.5t15 32.5t35 12.5q19 0 34.5 -12.5t15.5 -32.5t-15.5 -32.5t-34.5 -12.5z" />
    <glyph glyph-name="uni2792" horiz-adv-x="836" 
d="M418 -16q-77 0 -145 29.5t-119 80.5t-80.5 119t-29.5 145t29.5 145t80.5 119t119 80.5t145 29.5t145 -29.5t119 -80.5t80.5 -119t29.5 -145t-29.5 -145t-80.5 -119t-119 -80.5t-145 -29.5zM415 551q-29 0 -53.5 -10t-43.5 -27.5t-29.5 -40.5t-10.5 -49t9.5 -48.5
t25.5 -39t36.5 -25.5t41.5 -9q5 0 10.5 1t9.5 3l-77 -96l67 -49q23 31 44 60q18 24 36 50q17 25 28 40q17 25 30 52t13 59q0 26 -10 49.5t-28.5 41t-43.5 28t-55 10.5zM416 475q23 0 36.5 -15t13.5 -36q0 -20 -14 -35.5t-36 -15.5q-23 0 -36.5 15.5t-13.5 35.5q0 21 13.5 36
t36.5 15z" />
    <glyph glyph-name="Google.logo" horiz-adv-x="3284" 
d="M460 -16q-85 0 -160.5 32.5t-132.5 88t-90 130t-33 159.5t33 159.5t90 130t132.5 88t160.5 32.5q94 0 162.5 -32.5t118.5 -80.5l-79 -79q-36 34 -85.5 57t-116.5 23q-62 0 -115.5 -23.5t-93.5 -64t-62.5 -94.5t-22.5 -116t22.5 -116t62.5 -94.5t93.5 -64t115.5 -23.5
q40 0 72 7.5t57 19t44 26t34 29.5q49 49 61 141h-268v112h377q6 -30 6 -70q0 -32 -5 -66t-16 -68.5t-29.5 -67t-46.5 -60.5q-54 -57 -124 -86t-162 -29zM1148 -16q-55 0 -103 20t-84 55t-57 83.5t-21 105.5t21 105.5t57 84t84 55t103 19.5t103 -19.5t84 -55t57 -84
t21 -105.5t-21 -105.5t-57 -83.5t-84 -55t-103 -20zM1148 88q30 0 57 12t47.5 33t32.5 50.5t12 64.5q0 36 -12 65.5t-32.5 50.5t-47.5 32.5t-57 11.5t-57 -11.5t-47.5 -32.5t-32.5 -50.5t-12 -65.5q0 -35 12 -64.5t32.5 -50.5t47.5 -33t57 -12zM1726 -16q-55 0 -103 20
t-84 55t-57 83.5t-21 105.5t21 105.5t57 84t84 55t103 19.5t103 -19.5t84 -55t57 -84t21 -105.5t-21 -105.5t-57 -83.5t-84 -55t-103 -20zM1726 88q30 0 57 12t47.5 33t32.5 50.5t12 64.5q0 36 -12 65.5t-32.5 50.5t-47.5 32.5t-57 11.5t-57 -11.5t-47.5 -32.5t-32.5 -50.5
t-12 -65.5q0 -35 12 -64.5t32.5 -50.5t47.5 -33t57 -12zM2294 -253q-48 0 -86.5 14.5t-67.5 37t-49 50.5t-31 54l101 42q7 -16 18.5 -33t28 -30.5t38 -22t48.5 -8.5q66 0 103.5 39.5t37.5 115.5v38h-4q-20 -24 -55.5 -42t-83.5 -18q-50 0 -95.5 20.5t-80.5 55.5t-56 83
t-21 104t21 104.5t56 84t80.5 56t95.5 20.5q48 0 83.5 -18t55.5 -41h4v43h110v-474q0 -73 -20 -125t-54.5 -85.5t-80 -49t-96.5 -15.5zM2302 88q30 0 55.5 12t44.5 33t30 50t11 64t-11 64.5t-30 51t-44.5 33.5t-55.5 12t-56.5 -12t-47 -33.5t-32 -51t-11.5 -64.5t11.5 -64
t32 -50t47 -33t56.5 -12zM2741 0h-116v776h116v-776zM3059 -16q-56 0 -104 20.5t-83 56t-55 83.5t-20 104q0 59 20 107.5t53.5 83.5t79 54t96.5 19t90 -18t66.5 -44t44.5 -55t25 -51l12 -30l-353 -146q41 -80 128 -80q45 0 76 20t54 53l90 -60q-11 -16 -29.5 -36.5
t-46 -38.5t-63.5 -30t-81 -12zM3148 354q-10 25 -36.5 40.5t-61.5 15.5q-22 0 -47 -9.5t-45.5 -29t-33.5 -48.5t-12 -67z" />
    <glyph glyph-name="G.logo" horiz-adv-x="861" 
d="M460 -16q-85 0 -160.5 32.5t-132.5 88t-90 130t-33 159.5t33 159.5t90 130t132.5 88t160.5 32.5q94 0 162.5 -32.5t118.5 -80.5l-79 -79q-36 34 -85.5 57t-116.5 23q-62 0 -115.5 -23.5t-93.5 -64t-62.5 -94.5t-22.5 -116t22.5 -116t62.5 -94.5t93.5 -64t115.5 -23.5
q40 0 72 7.5t57 19t44 26t34 29.5q49 49 61 141h-268v112h377q6 -30 6 -70q0 -32 -5 -66t-16 -68.5t-29.5 -67t-46.5 -60.5q-54 -57 -124 -86t-162 -29z" />
    <glyph glyph-name="o.logo" horiz-adv-x="578" 
d="M287 -16q-55 0 -103 20t-84 55t-57 83.5t-21 105.5t21 105.5t57 84t84 55t103 19.5t103 -19.5t84 -55t57 -84t21 -105.5t-21 -105.5t-57 -83.5t-84 -55t-103 -20zM287 88q30 0 57 12t47.5 33t32.5 50.5t12 64.5q0 36 -12 65.5t-32.5 50.5t-47.5 32.5t-57 11.5t-57 -11.5
t-47.5 -32.5t-32.5 -50.5t-12 -65.5q0 -35 12 -64.5t32.5 -50.5t47.5 -33t57 -12z" />
    <glyph glyph-name="g.logo" horiz-adv-x="566" 
d="M277 -253q-48 0 -86.5 14.5t-67.5 37t-49 50.5t-31 54l101 42q7 -16 18.5 -33t28 -30.5t38 -22t48.5 -8.5q66 0 103.5 39.5t37.5 115.5v38h-4q-20 -24 -55.5 -42t-83.5 -18q-50 0 -95.5 20.5t-80.5 55.5t-56 83t-21 104t21 104.5t56 84t80.5 56t95.5 20.5q48 0 83.5 -18
t55.5 -41h4v43h110v-474q0 -73 -20 -125t-54.5 -85.5t-80 -49t-96.5 -15.5zM285 88q30 0 55.5 12t44.5 33t30 50t11 64t-11 64.5t-30 51t-44.5 33.5t-55.5 12t-56.5 -12t-47 -33.5t-32 -51t-11.5 -64.5t11.5 -64t32 -50t47 -33t56.5 -12z" />
    <glyph glyph-name="l.logo" horiz-adv-x="187" 
d="M158 0h-116v776h116v-776z" />
    <glyph glyph-name="e.logo" horiz-adv-x="514" 
d="M289 -16q-56 0 -104 20.5t-83 56t-55 83.5t-20 104q0 59 20 107.5t53.5 83.5t79 54t96.5 19t90 -18t66.5 -44t44.5 -55t25 -51l12 -30l-353 -146q41 -80 128 -80q45 0 76 20t54 53l90 -60q-11 -16 -29.5 -36.5t-46 -38.5t-63.5 -30t-81 -12zM378 354q-10 25 -36.5 40.5
t-61.5 15.5q-22 0 -47 -9.5t-45.5 -29t-33.5 -48.5t-12 -67z" />
    <glyph glyph-name="caron.alt" horiz-adv-x="438" 
d="M150 495v221h138l-45 -221h-93z" />
    <glyph glyph-name="dotaccent.cap" horiz-adv-x="269" 
d="M135 785q-29 0 -50 21t-21 50t21 50t50 21t49.5 -21t20.5 -50t-20.5 -50t-49.5 -21z" />
    <glyph glyph-name="uni00200326" horiz-adv-x="427" 
d="M138 -253l45 70q-20 8 -31.5 25t-11.5 39q0 29 20.5 50t50.5 21t50.5 -21t20.5 -51q0 -12 -3.5 -22.5t-9.5 -21.5l-82 -121z" />
    <glyph glyph-name="K.alt" horiz-adv-x="655" 
d="M637 708l-277 -353l295 -347v-8h-170l-270 319h-8v-319h-135v716h135v-336h8l256 336h166v-8z" />
    <glyph glyph-name="a.alt" horiz-adv-x="596" 
d="M263 -16q-47 0 -90 19.5t-75 54t-51 82.5t-19 105t19 105t51 82.5t75 54t90 19.5q56 0 94 -22t56 -53h8v59h123v-490h-123v59h-8q-18 -31 -56 -53t-94 -22zM290 105q26 0 49.5 9.5t41.5 27.5t29 44t11 59t-11 59t-29 44t-41.5 27.5t-49.5 9.5t-49.5 -10t-41.5 -28
t-29 -44t-11 -58t11 -58t29 -44t41.5 -28t49.5 -10z" />
    <glyph glyph-name="quoteright.alt" horiz-adv-x="314" 
d="M118 716h156l-127 -221h-107z" />
    <glyph glyph-name="three.cap" horiz-adv-x="571" 
d="M285 -16q-42 0 -81.5 11.5t-72.5 34t-57.5 57t-37.5 81.5l122 48q13 -53 46 -80.5t81 -27.5q24 0 45 8t36.5 21.5t24.5 32.5t9 41t-10 41.5t-27 34t-41.5 22.5t-52.5 8h-57v112h51q23 0 44 6t37 18t25.5 30.5t9.5 42.5q0 38 -28 63.5t-73 25.5q-23 0 -40.5 -7t-31 -18.5
t-23 -26t-14.5 -29.5l-114 47q9 26 27.5 53t46 48.5t65.5 35.5t86 14q51 0 93 -14.5t71.5 -40.5t46 -62t16.5 -78q0 -60 -24 -95.5t-59 -58.5v-8q46 -22 76.5 -65t30.5 -108q0 -45 -18 -84.5t-50.5 -69.5t-78 -47t-99.5 -17z" />
    </font>
</defs>
</svg>
