<?xml version="1.0" standalone="no"?>
<!DOCTYPE svg PUBLIC "-//W3C//DTD SVG 1.1//EN" "http://www.w3.org/Graphics/SVG/1.1/DTD/svg11.dtd" >
<svg xmlns="http://www.w3.org/2000/svg" xmlns:xlink="http://www.w3.org/1999/xlink" version="1.1">
<metadata>
Created by FontForge 20170731 at Mon Sep  3 22:03:09 2018
 By Aleksey,,,
</metadata>
<defs>
<font id="ProductSans-MediumItalic" horiz-adv-x="558" >
  <font-face 
    font-family="Product Sans Medium"
    font-weight="500"
    font-style="italic"
    font-stretch="normal"
    units-per-em="1000"
    panose-1="2 11 5 3 3 5 2 9 2 3"
    ascent="800"
    descent="-200"
    x-height="490"
    cap-height="716"
    bbox="-236 -267 3284 962"
    underline-thickness="50"
    underline-position="-275"
    slope="-10"
    unicode-range="U+000D-2215"
  />
<missing-glyph horiz-adv-x="570" 
d="M72 716h426v-716h-426v716zM136 60h298v596h-298v-596z" />
    <glyph glyph-name="f_i" unicode="fi" horiz-adv-x="603" 
d="M351 724q21 0 37 -4t29 -10l-34 -100q-8 4 -17.5 6.5t-22.5 2.5q-34 0 -56.5 -19.5t-30.5 -58.5l-9 -51h314l-86 -490h-111l68 392h-202l-69 -392h-111l69 392h-90l17 98h90l11 59q15 86 69 130.5t135 44.5zM534 577q-31 0 -53 22t-22 53t22 53t53 22t53 -22t22 -53
t-22 -53t-53 -22z" />
    <glyph glyph-name="f_l" unicode="fl" horiz-adv-x="595" 
d="M364 0l109 618h-127q-75 0 -90 -79l-9 -49h116l-17 -98h-116l-69 -392h-111l69 392h-90l17 98h90l10 55q15 85 67.5 130t150.5 45h238l-127 -720h-111z" />
    <glyph glyph-name="f_b" unicode="fb" horiz-adv-x="959" 
d="M637 -16q-51 0 -91 23t-60 56h-6l-11 -63h-105l109 618h-127q-75 0 -90 -79l-9 -49h116l-17 -98h-116l-69 -392h-111l69 392h-90l17 98h90l10 55q15 85 67.5 130t150.5 45h238l-40 -225l-18 -68h6q23 31 62.5 55t100.5 24q42 0 79 -16t64.5 -45.5t43 -71.5t15.5 -95
q0 -60 -21.5 -113t-59 -93.5t-88.5 -64t-109 -23.5zM635 87q35 0 65.5 14t53.5 38t36 57t13 71q0 63 -33 99.5t-92 36.5q-38 0 -69 -15.5t-53.5 -41t-35 -59t-12.5 -69.5q0 -32 10 -56.5t27 -41t40.5 -25t49.5 -8.5z" />
    <glyph glyph-name="f_f" unicode="ff" horiz-adv-x="696" 
d="M665 724q25 0 46.5 -6t37.5 -16l-46 -95q-8 5 -20 8.5t-26 3.5q-34 0 -57 -19.5t-30 -58.5l-9 -51h125l-17 -98h-125l-69 -392h-111l69 392h-203l-69 -392h-111l69 392h-90l17 98h90l11 59q15 86 69 130.5t135 44.5q21 0 37 -4t29 -10l-34 -100q-8 4 -17.5 6.5t-22.5 2.5
q-34 0 -56.5 -19.5t-30.5 -58.5l-9 -51h203l11 59q15 86 69 130.5t135 44.5z" />
    <glyph glyph-name="f_f_b" unicode="ffb" horiz-adv-x="1272" 
d="M951 -16q-51 0 -91 23t-60 56h-6l-11 -63h-105l109 618h-127q-75 0 -90 -79l-9 -49h116l-17 -98h-116l-69 -392h-111l69 392h-203l-69 -392h-111l69 392h-90l17 98h90l11 59q15 86 69 130.5t135 44.5q21 0 37 -4t29 -10l-34 -100q-8 4 -17.5 6.5t-22.5 2.5
q-34 0 -56.5 -19.5t-30.5 -58.5l-9 -51h203l10 55q15 85 67.5 130t150.5 45h238l-40 -225l-18 -68h6q23 31 62.5 55t100.5 24q42 0 79 -16t64.5 -45.5t43 -71.5t15.5 -95q0 -60 -21.5 -113t-59 -93.5t-88.5 -64t-109 -23.5zM949 87q35 0 65.5 14t53.5 38t36 57t13 71
q0 63 -33 99.5t-92 36.5q-38 0 -69 -15.5t-53.5 -41t-35 -59t-12.5 -69.5q0 -32 10 -56.5t27 -41t40.5 -25t49.5 -8.5z" />
    <glyph glyph-name="f_f_h" unicode="ffh" horiz-adv-x="1243" 
d="M877 503l-19 -79h6q26 37 70 59.5t96 22.5q40 0 69.5 -12t49 -33t28.5 -48t9 -57q0 -13 -1 -27t-5 -34l-53 -295h-111l51 288q2 11 2.5 18t0.5 15q0 38 -22.5 60t-64.5 22q-30 0 -55 -12t-44.5 -32.5t-32.5 -47.5t-18 -58l-44 -253h-111l109 618h-127q-75 0 -90 -79
l-9 -49h116l-17 -98h-116l-69 -392h-111l69 392h-203l-69 -392h-111l69 392h-90l17 98h90l11 59q15 86 69 130.5t135 44.5q21 0 37 -4t29 -10l-34 -100q-8 4 -17.5 6.5t-22.5 2.5q-34 0 -56.5 -19.5t-30.5 -58.5l-9 -51h203l10 55q15 85 67.5 130t150.5 45h238z" />
    <glyph glyph-name="f_f_i" unicode="ffi" horiz-adv-x="916" 
d="M665 724q21 0 37 -4t29 -10l-34 -100q-8 4 -17.5 6.5t-22.5 2.5q-34 0 -57 -19.5t-30 -58.5l-9 -51h314l-86 -490h-111l68 392h-202l-69 -392h-111l69 392h-203l-69 -392h-111l69 392h-90l17 98h90l11 59q15 86 69 130.5t135 44.5q21 0 37 -4t29 -10l-34 -100
q-8 4 -17.5 6.5t-22.5 2.5q-34 0 -56.5 -19.5t-30.5 -58.5l-9 -51h203l11 59q15 86 69 130.5t135 44.5zM848 577q-31 0 -53 22t-22 53t22 53t53 22t53 -22t22 -53t-22 -53t-53 -22z" />
    <glyph glyph-name="f_f_j" unicode="ffj" horiz-adv-x="917" 
d="M665 724q21 0 37 -4t29 -10l-34 -100q-8 4 -17.5 6.5t-22.5 2.5q-34 0 -57 -19.5t-30 -58.5l-9 -51h314l-97 -556q-8 -45 -23.5 -75.5t-37.5 -49.5t-50.5 -27t-62.5 -8q-18 0 -36.5 3.5t-32.5 8.5l41 97q13 -7 32 -7q47 0 58 60l80 456h-202l-69 -392h-111l69 392h-203
l-69 -392h-111l69 392h-90l17 98h90l11 59q15 86 69 130.5t135 44.5q21 0 37 -4t29 -10l-34 -100q-8 4 -17.5 6.5t-22.5 2.5q-34 0 -56.5 -19.5t-30.5 -58.5l-9 -51h203l11 59q15 86 69 130.5t135 44.5zM848 577q-31 0 -53 22t-22 53t22 53t53 22t53 -22t22 -53t-22 -53
t-53 -22z" />
    <glyph glyph-name="f_f_k" unicode="ffk" horiz-adv-x="1191" 
d="M843 304h4l216 186h143l-1 -6l-220 -185l148 -293l-1 -6h-129l-108 224l-78 -66l-28 -158h-111l109 618h-127q-75 0 -90 -79l-9 -49h116l-17 -98h-116l-69 -392h-111l69 392h-203l-69 -392h-111l69 392h-90l17 98h90l11 59q15 86 69 130.5t135 44.5q21 0 37 -4t29 -10
l-34 -100q-8 4 -17.5 6.5t-22.5 2.5q-34 0 -56.5 -19.5t-30.5 -58.5l-9 -51h203l10 55q15 85 67.5 130t150.5 45h238z" />
    <glyph glyph-name="f_f_l" unicode="ffl" horiz-adv-x="909" 
d="M678 0l109 618h-127q-75 0 -90 -79l-9 -49h116l-17 -98h-116l-69 -392h-111l69 392h-203l-69 -392h-111l69 392h-90l17 98h90l11 59q15 86 69 130.5t135 44.5q21 0 37 -4t29 -10l-34 -100q-8 4 -17.5 6.5t-22.5 2.5q-34 0 -56.5 -19.5t-30.5 -58.5l-9 -51h203l10 55
q15 85 67.5 130t150.5 45h238l-127 -720h-111z" />
    <glyph glyph-name="f_f_t" unicode="fft" horiz-adv-x="1008" 
d="M835 -8q-57 0 -94.5 31.5t-37.5 94.5q0 9 0.5 20t4.5 31l39 223h-203l-69 -392h-111l69 392h-203l-69 -392h-111l69 392h-90l17 98h90l11 59q15 86 69 130.5t135 44.5q21 0 37 -4t29 -10l-34 -100q-8 4 -17.5 6.5t-22.5 2.5q-34 0 -56.5 -19.5t-30.5 -58.5l-9 -51h203
l11 59q15 86 69 130.5t135 44.5q21 0 37 -4t29 -10l-34 -100q-8 4 -17.5 6.5t-22.5 2.5q-34 0 -57 -19.5t-30 -58.5l-9 -51h203l27 150h111l-27 -150h120l-17 -98h-120l-38 -214q-1 -9 -1.5 -15t-0.5 -14q0 -21 11 -36.5t36 -15.5q17 0 26 2.5t20 7.5l17 -99
q-38 -16 -93 -16z" />
    <glyph glyph-name="f_h" unicode="fh" horiz-adv-x="929" 
d="M563 503l-19 -79h6q26 37 70 59.5t96 22.5q40 0 69.5 -12t49 -33t28.5 -48t9 -57q0 -13 -1 -27t-5 -34l-53 -295h-111l51 288q2 11 2.5 18t0.5 15q0 38 -22.5 60t-64.5 22q-30 0 -55 -12t-44.5 -32.5t-32.5 -47.5t-18 -58l-44 -253h-111l109 618h-127q-75 0 -90 -79
l-9 -49h116l-17 -98h-116l-69 -392h-111l69 392h-90l17 98h90l10 55q15 85 67.5 130t150.5 45h238z" />
    <glyph glyph-name="f_j" unicode="fj" horiz-adv-x="603" 
d="M161 0h-111l69 392h-90l17 98h90l11 59q15 86 69 130.5t135 44.5q21 0 37 -4t29 -10l-34 -100q-8 4 -17.5 6.5t-22.5 2.5q-34 0 -56.5 -19.5t-30.5 -58.5l-9 -51h314l-97 -556q-8 -45 -23.5 -75.5t-37.5 -49.5t-50.5 -27t-62.5 -8q-18 0 -36.5 3.5t-32.5 8.5l41 97
q13 -7 32 -7q47 0 58 60l80 456h-202zM534 577q-31 0 -53 22t-22 53t22 53t53 22t53 -22t22 -53t-22 -53t-53 -22z" />
    <glyph glyph-name="f_k" unicode="fk" horiz-adv-x="877" 
d="M529 304h4l216 186h143l-1 -6l-220 -185l148 -293l-1 -6h-129l-108 224l-78 -66l-28 -158h-111l109 618h-127q-75 0 -90 -79l-9 -49h116l-17 -98h-116l-69 -392h-111l69 392h-90l17 98h90l10 55q15 85 67.5 130t150.5 45h238z" />
    <glyph glyph-name="f_t" unicode="ft" horiz-adv-x="694" 
d="M351 724q21 0 37 -4t29 -10l-34 -100q-8 4 -17.5 6.5t-22.5 2.5q-34 0 -56.5 -19.5t-30.5 -58.5l-9 -51h203l27 150h111l-27 -150h120l-17 -98h-120l-38 -214q-2 -9 -2 -15v-14q0 -21 11 -36.5t36 -15.5q17 0 26 2.5t20 7.5l17 -99q-38 -16 -93 -16q-57 0 -94.5 31.5
t-37.5 94.5q0 9 0.5 19.5t4.5 31.5l39 223h-203l-69 -392h-111l69 392h-90l17 98h90l11 59q15 86 69 130.5t135 44.5z" />
    <glyph glyph-name="r_f" unicode="rf" horiz-adv-x="779" 
d="M171 416h6q23 42 67 65t99 23q14 0 23.5 -1t15.5 -3l-20 -112q-19 7 -48 7q-63 0 -108.5 -40t-57.5 -107l-44 -248h-111l86 490h105zM747 724q26 0 46.5 -6t37.5 -16l-46 -95q-8 5 -19.5 8.5t-26.5 3.5q-34 0 -56.5 -19.5t-30.5 -58.5l-9 -51h125l-17 -98h-125l-69 -392
h-111l69 392h-90l17 98h90l11 59q15 86 69 130.5t135 44.5z" />
    <glyph glyph-name="r_f_f" unicode="rff" horiz-adv-x="1093" 
d="M1061 724q25 0 46.5 -6t37.5 -16l-46 -95q-8 5 -20 8.5t-26 3.5q-34 0 -57 -19.5t-30 -58.5l-9 -51h125l-17 -98h-125l-69 -392h-111l69 392h-203l-69 -392h-111l69 392h-90l17 98h90l11 59q15 86 69 130.5t135 44.5q21 0 37 -4t29 -10l-34 -100q-8 4 -17.5 6.5
t-22.5 2.5q-34 0 -56.5 -19.5t-30.5 -58.5l-9 -51h203l11 59q15 86 69 130.5t135 44.5zM171 416h6q23 42 67 65t99 23q14 0 23.5 -1t15.5 -3l-20 -112q-19 7 -48 7q-63 0 -108.5 -40t-57.5 -107l-44 -248h-111l86 490h105z" />
    <glyph glyph-name="r_t" unicode="rt" horiz-adv-x="774" 
d="M171 416h6q23 42 67 65t99 23q14 0 23.5 -1t15.5 -3l-20 -112q-19 7 -48 7q-63 0 -108.5 -40t-57.5 -107l-44 -248h-111l86 490h105zM600 -8q-57 0 -94.5 31.5t-37.5 94.5q0 9 0.5 19.5t4.5 31.5l39 223h-86l17 98h86l27 150h111l-27 -150h121l-18 -98h-120l-38 -214
q-2 -9 -2 -15v-14q0 -21 11 -36.5t36 -15.5q17 0 26 2.5t20 7.5l17 -99q-38 -16 -93 -16z" />
    <glyph glyph-name="t_f" unicode="tf" horiz-adv-x="694" 
d="M189 178q-2 -9 -2 -15v-14q0 -21 11 -36.5t36 -15.5q15 0 25 2.5t21 7.5l2 -102q-18 -6 -36.5 -9.5t-41.5 -3.5q-57 0 -94.5 31.5t-37.5 94.5q0 9 0.5 20t4.5 31l39 223h-86l17 98h86l27 150h111l-27 -150h203l11 59q15 86 69 130.5t135 44.5q26 0 46.5 -6t37.5 -16
l-46 -95q-8 5 -19.5 8.5t-26.5 3.5q-34 0 -56.5 -19.5t-30.5 -58.5l-9 -51h125l-17 -98h-125l-69 -392h-111l69 392h-203z" />
    <glyph glyph-name="t_t" unicode="tt" horiz-adv-x="697" 
d="M524 -8q-57 0 -95 31.5t-38 94.5q0 9 1 20t4 31l39 223h-208l-38 -214q-1 -9 -1.5 -15t-0.5 -14q0 -21 11 -36.5t36 -15.5q15 0 25 2.5t21 7.5l2 -102q-17 -6 -36 -9.5t-42 -3.5q-57 0 -94.5 31.5t-37.5 94.5q0 9 0.5 20t4.5 31l39 223h-86l17 98h86l27 150h111l-27 -150
h208l27 150h112l-27 -150h120l-17 -98h-121l-37 -214q-2 -9 -2.5 -15t-0.5 -14q0 -21 11 -36.5t36 -15.5q17 0 26 2.5t20 7.5l18 -99q-20 -8 -42 -12t-51 -4z" />
    <glyph glyph-name=".notdef" horiz-adv-x="570" 
d="M72 716h426v-716h-426v716zM136 60h298v596h-298v-596z" />
    <glyph glyph-name=".null" horiz-adv-x="0" 
 />
    <glyph glyph-name="uni000D" horiz-adv-x="0" 
d="M0 0z" />
    <glyph glyph-name="NULL" horiz-adv-x="0" 
d="M0 0z" />
    <glyph glyph-name="NULL" horiz-adv-x="0" 
d="M0 0z" />
    <glyph glyph-name="nonmarkingreturn" unicode="&#xd;" horiz-adv-x="333" 
 />
    <glyph glyph-name="space" unicode=" " horiz-adv-x="220" 
d="M0 0z" />
    <glyph glyph-name="exclam" unicode="!" horiz-adv-x="251" 
d="M76 -6q-32 0 -55 22.5t-23 54.5t23 55t55 23t54.5 -23t22.5 -55t-22.5 -54.5t-54.5 -22.5zM94 500l38 216h113l-38 -216l-58 -266h-91z" />
    <glyph glyph-name="quotedbl" unicode="&#x22;" horiz-adv-x="349" 
d="M227 490l40 226h101l-40 -226h-101zM67 490l40 226h101l-40 -226h-101z" />
    <glyph glyph-name="numbersign" unicode="#" horiz-adv-x="645" 
d="M104 0l34 198h-119l17 88h117l21 121h-120l16 88h120l33 189h95l-33 -189h124l33 189h96l-34 -189h120l-17 -88h-118l-21 -121h122l-17 -88h-120l-35 -198h-95l34 198h-124l-34 -198h-95zM247 286h126l22 121h-126z" />
    <glyph glyph-name="dollar" unicode="$" horiz-adv-x="546" 
d="M174 -11q-32 6 -62 21t-54 38t-40.5 55t-22.5 71l102 40q5 -42 29 -74t67 -45l38 216q-32 14 -60 32.5t-49 41.5t-33 52.5t-12 65.5q0 39 15.5 72.5t44.5 59.5t70 42.5t92 20.5l15 86h83l-16 -89q63 -14 99 -53t50 -84l-104 -40q-8 25 -22.5 43.5t-40.5 27.5l-36 -204
q73 -34 113.5 -77t40.5 -111q0 -47 -17 -84t-47 -64t-71 -43t-89 -20l-15 -86h-83zM369 188q0 32 -16 51t-46 36l-32 -183q40 7 67 30t27 66zM186 505q0 -26 16 -46t48 -38l31 174q-42 -6 -68.5 -27t-26.5 -63z" />
    <glyph glyph-name="percent" unicode="%" horiz-adv-x="827" 
d="M101 36l562 660l59 -50l-561 -659zM215 358q-35 0 -63.5 11t-48.5 31t-31.5 47.5t-11.5 60.5q0 39 15 74t41.5 61t63.5 41.5t81 15.5q33 0 61 -11t48.5 -31t31.5 -47.5t11 -60.5q0 -41 -15.5 -76t-42 -60.5t-62.5 -40.5t-78 -15zM223 441q42 0 70 29t28 72q0 35 -20.5 55
t-50.5 20q-43 0 -70.5 -28.5t-27.5 -72.5q0 -35 21 -55t50 -20zM566 -16q-34 0 -62.5 11t-48.5 31t-31.5 47.5t-11.5 60.5q0 39 15 74t41.5 61t63 41.5t80.5 15.5q33 0 61 -11t48.5 -31t31.5 -47.5t11 -60.5q0 -41 -15 -76t-42 -60.5t-63 -40.5t-78 -15zM575 67
q42 0 69.5 29t27.5 72q0 35 -20 55t-50 20q-44 0 -71 -28.5t-27 -72.5q0 -35 21 -55t50 -20z" />
    <glyph glyph-name="ampersand" unicode="&#x26;" horiz-adv-x="632" 
d="M484 129l56 -91l-95 -54l-37 61q-38 -32 -81.5 -46.5t-96.5 -14.5q-46 0 -86.5 15t-71 43.5t-48 69t-17.5 91.5q0 78 38.5 141t119.5 104q-13 23 -20.5 48.5t-7.5 53.5q0 35 13 67.5t38 58t61 41t83 15.5q72 0 111.5 -35t55.5 -90l-104 -44q-5 24 -23 45.5t-53 21.5
q-31 0 -52.5 -20t-21.5 -54q0 -17 6 -33.5t16 -33.5l168 -279l78 107l71 -52zM247 86q67 0 112 39l-146 242q-44 -23 -72 -60t-28 -91q0 -28 10 -52t28 -41t42.5 -27t53.5 -10z" />
    <glyph glyph-name="quotesingle" unicode="'" horiz-adv-x="189" 
d="M67 490l40 226h101l-40 -226h-101z" />
    <glyph glyph-name="parenleft" unicode="(" horiz-adv-x="344" 
d="M389 719q-52 -50 -93.5 -103.5t-70 -112t-43.5 -123.5t-15 -138q0 -101 24 -177.5t62 -141.5l-81 -59q-22 32 -43 72.5t-37.5 89.5t-26.5 105t-10 118q0 78 19 152t53.5 142t84 128t110.5 109z" />
    <glyph glyph-name="parenright" unicode=")" horiz-adv-x="344" 
d="M-44 -75q52 50 93.5 103.5t70 112t44 123t15.5 138.5q0 101 -24.5 177.5t-62.5 141.5l82 59q22 -32 43 -72.5t37.5 -89.5t26.5 -105t10 -118q0 -78 -19 -152t-54 -142t-84 -128t-110 -109z" />
    <glyph glyph-name="asterisk" unicode="*" horiz-adv-x="450" 
d="M114 636l102 -39l7 3l21 116h85l-20 -116l6 -3l104 36l26 -78l-117 -43l-4 -8l57 -98l-78 -49l-56 101h-8l-89 -101l-64 55l94 101l-1 8l-98 37z" />
    <glyph glyph-name="plus" unicode="+" horiz-adv-x="559" 
d="M320 319h176l-17 -96h-175l-31 -176h-96l31 176h-176l17 96h175l31 176h96z" />
    <glyph glyph-name="comma" unicode="," horiz-adv-x="252" 
d="M-27 -85l72 87q-14 8 -27.5 24t-13.5 45q0 33 22.5 55.5t53.5 22.5q32 0 55 -22.5t23 -55.5q0 -17 -10 -35t-27 -38l-101 -120z" />
    <glyph glyph-name="hyphen" unicode="-" horiz-adv-x="441" 
d="M55 358h329l-16 -96h-330z" />
    <glyph glyph-name="period" unicode="." horiz-adv-x="251" 
d="M75 -6q-32 0 -54.5 22.5t-22.5 54.5t22.5 55t54.5 23t54.5 -23t22.5 -55t-22.5 -54.5t-54.5 -22.5z" />
    <glyph glyph-name="slash" unicode="/" horiz-adv-x="458" 
d="M-38 0l423 716h110l-424 -716h-109z" />
    <glyph glyph-name="zero" unicode="0" horiz-adv-x="650" 
d="M271 -16q-53 0 -96 19.5t-74.5 57.5t-48.5 93t-17 126q0 84 25.5 160t71 134t108.5 92t137 34q53 0 96.5 -19.5t74.5 -57.5t48 -93t17 -126q0 -84 -25.5 -160t-71 -134t-108 -92t-137.5 -34zM284 89q45 0 84.5 25.5t68.5 67.5t45.5 96t16.5 110q0 99 -36 153t-98 54
q-45 0 -84.5 -25.5t-69 -67.5t-46 -96t-16.5 -110q0 -99 36 -153t99 -54z" />
    <glyph glyph-name="one" unicode="1" horiz-adv-x="404" 
d="M144 0l97 548l-126 -50l-36 92l218 94h79l-121 -684h-111z" />
    <glyph glyph-name="two" unicode="2" horiz-adv-x="532" 
d="M-17 0l18 105q66 57 124 107q25 21 50 43t48 42q23 19 42 36q18 16 30 26q42 37 69 69t27 76q0 41 -26.5 66t-73.5 25q-24 0 -43.5 -8.5t-34.5 -22t-25.5 -29.5t-16.5 -32l-98 43q10 28 29 55.5t47 49.5t66.5 35.5t89.5 13.5q44 0 81 -13.5t64 -37t42 -56t15 -71.5
q0 -38 -11 -69t-30.5 -59.5t-46.5 -54.5t-58 -53q-5 -5 -17 -15t-28 -23q-16 -14 -35 -29q-19 -16 -37 -32q-44 -37 -95 -81l1 -4h294l-17 -102h-444z" />
    <glyph glyph-name="three" unicode="3" horiz-adv-x="546" 
d="M222 -16q-40 0 -77 11t-66.5 33t-50 55t-26.5 76l109 42q6 -53 38 -82t83 -29q27 0 51.5 8t43 23t29 37t10.5 50q0 48 -31.5 73t-82.5 25h-59l18 103h53q59 0 95.5 26.5t36.5 77.5q0 38 -27 60t-68 22q-24 0 -42 -7.5t-32 -19.5t-23.5 -27t-16.5 -30l-99 45
q12 27 30.5 53t45.5 46t64.5 32.5t86.5 12.5q43 0 79 -13t62 -35.5t41 -53t15 -66.5q0 -65 -33.5 -106t-84.5 -61v-6q35 -17 60.5 -53.5t25.5 -89.5q0 -54 -20 -97t-54.5 -73t-81.5 -46t-102 -16z" />
    <glyph glyph-name="four" unicode="4" horiz-adv-x="602" 
d="M296 0l25 135h-320l15 90l387 459h126l-79 -445h87l-18 -104h-87l-24 -135h-112zM388 519h-6l-231 -280h188z" />
    <glyph glyph-name="five" unicode="5" horiz-adv-x="564" 
d="M225 -16q-37 0 -73.5 11.5t-67 34.5t-51 57.5t-25.5 81.5l106 39q5 -52 35 -85.5t82 -33.5q31 0 58.5 9.5t48.5 28t33 44.5t12 59q0 49 -29.5 81t-80.5 32q-33 0 -62.5 -14.5t-51.5 -37.5l-102 45l103 348h372l-17 -101h-281l-57 -178l6 -2q23 17 53.5 29t66.5 12
q42 0 77 -14t60.5 -40t40 -63.5t14.5 -85.5q0 -53 -19.5 -99.5t-54.5 -81.5t-85 -55.5t-111 -20.5z" />
    <glyph glyph-name="six" unicode="6" 
d="M322 437q34 0 65.5 -15t56.5 -41.5t40 -64t15 -82.5q0 -56 -20.5 -102t-56 -79t-84 -51t-105.5 -18q-47 0 -87.5 16t-69.5 44.5t-45.5 67.5t-16.5 84q0 37 8.5 68t24.5 60t39.5 58t52.5 62l228 258l77 -60l-189 -217l3 -3q13 7 29.5 11t34.5 4zM243 88q30 0 56.5 10
t46 28t30.5 43t11 56q0 51 -33 83.5t-87 32.5q-31 0 -57 -11t-44.5 -30t-29 -45t-10.5 -56q0 -24 9.5 -44.5t25.5 -35.5t37 -23t45 -8z" />
    <glyph glyph-name="seven" unicode="7" horiz-adv-x="534" 
d="M19 46l388 529l-1 4h-326l20 105h452l-19 -111l-431 -589z" />
    <glyph glyph-name="eight" unicode="8" horiz-adv-x="560" 
d="M224 -16q-50 0 -90 15t-68 40t-43 58.5t-15 70.5q0 66 39 116t102 75l1 6q-24 20 -43.5 49t-19.5 74t19.5 83.5t53 67t78.5 45t96 16.5q43 0 78 -12.5t60.5 -35t39.5 -53.5t14 -69q0 -32 -9.5 -58t-25.5 -47t-36.5 -36.5t-41.5 -26.5l-1 -6q33 -19 57.5 -55.5t24.5 -87.5
q0 -53 -21.5 -95t-58.5 -72t-86 -46t-104 -16zM295 407q27 0 49 8t38 22.5t25 33t9 39.5q0 41 -26.5 64t-68.5 23q-52 0 -87.5 -28t-35.5 -77q0 -38 27.5 -61.5t69.5 -23.5zM233 89q27 0 53.5 8t47.5 24t34 39t13 53q0 42 -32 68t-81 26q-27 0 -53.5 -8.5t-46.5 -25
t-32.5 -40t-12.5 -52.5q0 -43 31 -67.5t79 -24.5z" />
    <glyph glyph-name="nine" unicode="9" 
d="M236 247q-33 0 -65 15t-57 41.5t-40.5 64t-15.5 82.5q0 56 20.5 102t56 79t84 51t105.5 18q47 0 87 -16t69.5 -44.5t46 -68t16.5 -85.5q0 -36 -8.5 -66.5t-25 -59t-40 -58t-52.5 -62.5l-227 -258l-77 60l189 217l-3 3q-13 -7 -29 -11t-34 -4zM313 596q-30 0 -56 -10
t-45.5 -28t-30.5 -43t-11 -56q0 -51 33 -83.5t86 -32.5q31 0 57.5 11t45 30t29 44.5t10.5 55.5q0 24 -9.5 44.5t-25.5 35.5t-37.5 23.5t-45.5 8.5z" />
    <glyph glyph-name="colon" unicode=":" horiz-adv-x="251" 
d="M75 -6q-32 0 -54.5 22.5t-22.5 54.5t22.5 55t54.5 23t54.5 -23t22.5 -55t-22.5 -54.5t-54.5 -22.5zM137 345q-32 0 -54.5 22.5t-22.5 54.5t22.5 54.5t54.5 22.5t54.5 -22.5t22.5 -54.5t-22.5 -54.5t-54.5 -22.5z" />
    <glyph glyph-name="semicolon" unicode=";" horiz-adv-x="252" 
d="M135 345q-32 0 -54.5 22.5t-22.5 54.5t22.5 54.5t54.5 22.5t54.5 -22.5t22.5 -54.5t-22.5 -54.5t-54.5 -22.5zM-27 -72l72 87q-14 7 -27.5 23.5t-13.5 45.5q0 33 22.5 55t53.5 22q32 0 55 -22t23 -55q0 -17 -10 -35t-27 -38l-101 -121z" />
    <glyph glyph-name="less" unicode="&#x3c;" horiz-adv-x="519" 
d="M33 229l15 86l436 187l-20 -111l-296 -120l-1 -6l253 -123l-18 -102z" />
    <glyph glyph-name="equal" unicode="=" horiz-adv-x="571" 
d="M74 465h460l-17 -96h-459zM40 269h459l-17 -96h-459z" />
    <glyph glyph-name="greater" unicode="&#x3e;" horiz-adv-x="519" 
d="M454 313l-14 -86l-436 -187l19 111l296 120l2 6l-254 123l18 102z" />
    <glyph glyph-name="question" unicode="?" horiz-adv-x="503" 
d="M167 234l7 40q4 24 11 43t20 37.5t33.5 37t52.5 41.5q15 11 30.5 23.5t27.5 27t19.5 30.5t7.5 34q0 35 -24.5 57t-66.5 22q-48 0 -77 -27t-41 -62l-94 42q10 30 30 57.5t48.5 48.5t65.5 33.5t82 12.5q42 0 76.5 -12.5t60 -35t39.5 -53t14 -66.5q0 -32 -10 -58.5t-27 -49
t-40 -43t-48 -40.5q-37 -29 -55 -53t-24 -59l-5 -28h-113zM193 -6q-32 0 -54.5 22.5t-22.5 54.5t22.5 55t54.5 23t55 -23t23 -55t-23 -54.5t-55 -22.5z" />
    <glyph glyph-name="at" unicode="@" horiz-adv-x="873" 
d="M485 690q69 0 132 -23t111 -65.5t76.5 -103t28.5 -135.5q0 -52 -13 -100t-37.5 -85t-59.5 -59.5t-79 -22.5q-41 0 -69 19t-39 54q-25 -36 -63.5 -54.5t-80.5 -18.5q-34 0 -65.5 13t-55.5 36.5t-38.5 56.5t-14.5 73t14.5 81t42.5 74t69.5 53.5t96.5 20.5q43 0 72 -16.5
t43 -38.5h6l7 41h85l-44 -253q-1 -5 -1.5 -10t-0.5 -10q0 -18 11 -31.5t34 -13.5q22 0 39.5 16.5t30 42.5t19 59.5t6.5 66.5q0 55 -19.5 101.5t-55.5 80t-87.5 52t-115.5 18.5q-75 0 -138.5 -26t-109.5 -71.5t-71.5 -108t-25.5 -135.5q0 -59 21 -108.5t57 -85t84 -55.5
t101 -20q39 0 73 8t65 23l26 -77q-39 -18 -82 -26.5t-89 -8.5q-77 0 -141 28t-109.5 75t-70.5 110t-25 133q0 92 34 170t94 135t142.5 89t179.5 32zM412 183q26 0 49 10t39.5 27.5t26 42t9.5 53.5q0 47 -27 74t-72 27q-29 0 -52.5 -11t-40 -29.5t-25.5 -43.5t-9 -53
q0 -24 8.5 -42t22.5 -30.5t32.5 -18.5t38.5 -6z" />
    <glyph glyph-name="A" unicode="A" horiz-adv-x="692" 
d="M342 716h131l143 -716h-121l-33 184h-287l-97 -184h-129zM442 287l-39 211l-13 84h-6l-42 -84l-112 -211h212z" />
    <glyph glyph-name="B" unicode="B" horiz-adv-x="611" 
d="M135 716h250q48 0 85.5 -14.5t63 -38.5t39 -55.5t13.5 -66.5t-10.5 -62t-28 -48t-40.5 -35t-47 -22l-1 -6q42 -21 68.5 -56.5t26.5 -91.5q0 -49 -20.5 -89.5t-56 -69.5t-83.5 -45t-104 -16h-282zM346 417q54 0 90 26.5t36 77.5q0 38 -24.5 64t-69.5 26h-149l-34 -194h151
zM308 105q24 0 47.5 7t42 21.5t30 36t11.5 50.5q0 43 -27.5 69t-78.5 26h-156l-37 -210h168z" />
    <glyph glyph-name="C" unicode="C" horiz-adv-x="732" 
d="M657 111q-34 -33 -68 -57t-71 -39.5t-78 -23t-89 -7.5q-68 0 -126.5 23t-101.5 65.5t-67.5 103t-24.5 135.5q0 84 32 160t89.5 134t136.5 92.5t174 34.5q87 0 152 -34t100 -87l-90 -75q-32 44 -73 66t-103 22q-63 0 -118.5 -25t-96.5 -67t-65 -98t-24 -118
q0 -51 16.5 -92.5t45.5 -71t69.5 -45t87.5 -15.5q38 0 68.5 8t56.5 21.5t49 32.5t47 40z" />
    <glyph glyph-name="D" unicode="D" horiz-adv-x="705" 
d="M135 716h223q78 0 137 -23.5t99 -65.5t60.5 -99t20.5 -124q0 -79 -28 -152t-82.5 -129t-134 -89.5t-181.5 -33.5h-241zM255 108q67 0 123 23t96.5 62.5t62.5 92.5t22 114q0 98 -55 153t-161 55h-114l-88 -500h114z" />
    <glyph glyph-name="E" unicode="E" horiz-adv-x="560" 
d="M229 608l-35 -197h291l-19 -106h-291l-34 -197h322l-19 -108h-436l127 716h436l-19 -108h-323z" />
    <glyph glyph-name="F" unicode="F" horiz-adv-x="540" 
d="M135 716h436l-19 -108h-323l-36 -205h291l-19 -106h-291l-53 -297h-113z" />
    <glyph glyph-name="G" unicode="G" horiz-adv-x="806" 
d="M416 388h349v-22t-2 -25q-8 -78 -37.5 -139.5t-78.5 -109.5q-54 -53 -124.5 -80.5t-158.5 -27.5q-69 0 -130 23.5t-106 67t-71 105.5t-26 138q0 83 31.5 158t88.5 132t137 90.5t178 33.5q85 0 152 -30.5t105 -82.5l-91 -78q-25 38 -72.5 60.5t-107.5 22.5
q-64 0 -120 -22.5t-97 -62t-65 -95t-24 -121.5q0 -55 18 -98t49 -72.5t72.5 -45t88.5 -15.5q59 0 107.5 19.5t83.5 53.5q26 25 41.5 54.5t26.5 66.5h-235z" />
    <glyph glyph-name="H" unicode="H" horiz-adv-x="701" 
d="M135 716h113l-53 -297h330l53 297h114l-127 -716h-114l56 313h-330l-56 -313h-113z" />
    <glyph glyph-name="I" unicode="I" horiz-adv-x="257" 
d="M135 716h113l-127 -716h-113z" />
    <glyph glyph-name="J" unicode="J" horiz-adv-x="540" 
d="M196 -16q-40 0 -75.5 12t-63 34.5t-45.5 54t-22 69.5l109 42q6 -55 37 -79.5t74 -24.5q52 0 87.5 35.5t45.5 92.5l87 496h114l-87 -491q-11 -63 -35.5 -109t-58.5 -75t-76.5 -43t-90.5 -14z" />
    <glyph glyph-name="K" unicode="K" horiz-adv-x="645" 
d="M683 710l-316 -303l212 -401l-1 -6h-133l-169 321l-117 -112l-38 -209h-113l127 716h113l-58 -335h6l343 335h145z" />
    <glyph glyph-name="L" unicode="L" horiz-adv-x="516" 
d="M135 716h113l-107 -608h306l-19 -108h-420z" />
    <glyph glyph-name="M" unicode="M" horiz-adv-x="843" 
d="M135 716h109l161 -407h6l304 407h119l-127 -716h-112l68 389l27 120h-6l-265 -357h-67l-142 357h-6l-15 -120l-68 -389h-113z" />
    <glyph glyph-name="N" unicode="N" horiz-adv-x="709" 
d="M135 716h127l234 -519h6l18 138l68 381h112l-127 -716h-110l-246 545h-6l-18 -138l-72 -407h-113z" />
    <glyph glyph-name="O" unicode="O" horiz-adv-x="816" 
d="M360 -16q-70 0 -130 24t-104.5 67t-69.5 103.5t-25 133.5q0 83 31.5 159t87.5 134t134.5 92.5t171.5 34.5q72 0 132 -24.5t104 -68t68.5 -103.5t24.5 -132q0 -83 -31.5 -159t-88 -134t-134.5 -92.5t-171 -34.5zM375 92q61 0 114.5 26t93.5 69.5t63.5 99.5t23.5 116
q0 50 -17.5 90.5t-48.5 69.5t-73 45t-90 16q-62 0 -116 -26.5t-93.5 -70t-62.5 -99.5t-23 -115q0 -50 17.5 -90.5t48.5 -69.5t73 -45t90 -16z" />
    <glyph glyph-name="P" unicode="P" horiz-adv-x="578" 
d="M8 0l127 716h239q45 0 83 -14.5t65.5 -40t43 -62t15.5 -79.5q0 -58 -20.5 -103.5t-56.5 -76.5t-85.5 -47t-108.5 -16h-139l-50 -277h-113zM327 385q29 0 54.5 7.5t44 22.5t29.5 38.5t11 55.5q0 45 -27 72t-72 27h-138l-39 -223h137z" />
    <glyph glyph-name="Q" unicode="Q" horiz-adv-x="816" 
d="M360 -16q-70 0 -130 24t-104.5 67t-69.5 103.5t-25 133.5q0 83 31.5 159t87.5 134t134.5 92.5t171.5 34.5q72 0 132 -24.5t104 -68t68.5 -103.5t24.5 -132q0 -100 -45 -188.5t-124 -147.5l37 -74l-100 -52l-36 71q-36 -14 -75.5 -21.5t-81.5 -7.5zM375 92q49 0 94 17
l-61 125l101 54l57 -117q48 45 76 105.5t28 126.5q0 50 -17.5 90.5t-48.5 69.5t-73 45t-90 16q-62 0 -116 -26.5t-93.5 -70t-62.5 -99.5t-23 -115q0 -50 17.5 -90.5t48.5 -69.5t73 -45t90 -16z" />
    <glyph glyph-name="R" unicode="R" horiz-adv-x="599" 
d="M135 716h236q47 0 86 -14.5t67 -40.5t43.5 -62t15.5 -79q0 -45 -15 -83t-41.5 -67.5t-62.5 -50t-79 -29.5l-3 -5l144 -279l-1 -6h-125l-141 279h-88l-50 -279h-113zM326 385q30 0 55.5 8t45 24t30.5 40t11 56q0 42 -28 69.5t-79 27.5h-132l-39 -225h136z" />
    <glyph glyph-name="S" unicode="S" horiz-adv-x="564" 
d="M230 -16q-44 0 -83.5 13t-70 38t-51.5 62t-29 85l112 45q3 -27 13 -51.5t27 -43t41 -29.5t54 -11q27 0 52.5 8t45 23t31 36t11.5 48q0 41 -27.5 68t-93.5 51l-39 14q-28 10 -54 26t-46.5 38.5t-32.5 52t-12 67.5q0 45 19.5 83.5t53 66t79 43t96.5 15.5q54 0 92.5 -15
t64 -37.5t39 -49t17.5 -49.5l-106 -40q-3 15 -10.5 30.5t-21.5 27.5t-35 19.5t-50 7.5q-24 0 -46.5 -6.5t-39 -18.5t-26.5 -30t-10 -40q0 -37 26 -60t78 -43l42 -16q34 -13 63.5 -30.5t50.5 -40.5t33 -53t12 -67q0 -53 -20 -97t-56 -75t-85.5 -48t-107.5 -17z" />
    <glyph glyph-name="T" unicode="T" horiz-adv-x="561" 
d="M160 0l108 608h-200l19 108h513l-19 -108h-200l-108 -608h-113z" />
    <glyph glyph-name="U" unicode="U" horiz-adv-x="655" 
d="M268 -16q-48 0 -90 16t-73 45t-49 71t-18 93q0 15 1.5 36t7.5 55l73 416h113l-77 -439q-3 -18 -4 -30t-1 -23q0 -59 32 -95.5t101 -36.5q39 0 70.5 13t55 36.5t39 56t22.5 71.5l79 447h113l-80 -456q-24 -137 -105 -206.5t-210 -69.5z" />
    <glyph glyph-name="V" unicode="V" horiz-adv-x="656" 
d="M75 716h122l76 -470l11 -82h6l42 82l248 470h127l-387 -716h-119z" />
    <glyph glyph-name="W" unicode="W" horiz-adv-x="938" 
d="M669 0h-112l-57 377l-8 71h-6l-34 -71l-188 -377h-114l-71 716h118l41 -460l4 -69h6l32 69l182 364h108l55 -364l7 -68h6l28 68l199 460h120z" />
    <glyph glyph-name="X" unicode="X" horiz-adv-x="660" 
d="M259 376l-169 340h139l115 -251h6l202 251h143l-290 -349l183 -367h-137l-132 272h-6l-222 -272h-141z" />
    <glyph glyph-name="Y" unicode="Y" horiz-adv-x="615" 
d="M189 0l59 333l-173 383h130l114 -264h6l202 264h139l-305 -383l-59 -333h-113z" />
    <glyph glyph-name="Z" unicode="Z" horiz-adv-x="580" 
d="M-10 116l454 492h-352l19 108h488l-21 -116l-453 -492h370l-19 -108h-507z" />
    <glyph glyph-name="bracketleft" unicode="[" horiz-adv-x="330" 
d="M152 792h226l-16 -92h-121l-128 -732h120l-16 -92h-225z" />
    <glyph glyph-name="backslash" unicode="\" horiz-adv-x="458" 
d="M262 0l-170 716h104l170 -716h-104z" />
    <glyph glyph-name="bracketright" unicode="]" horiz-adv-x="330" 
d="M177 -124h-225l16 92h119l128 732h-119l16 92h226z" />
    <glyph glyph-name="asciicircum" unicode="^" horiz-adv-x="493" 
d="M377 410l-81 200h-6l-147 -200h-122l243 306h91l135 -306h-113z" />
    <glyph glyph-name="underscore" unicode="_" horiz-adv-x="489" 
d="M-65 -120h489l-18 -96h-488z" />
    <glyph glyph-name="grave" unicode="`" horiz-adv-x="421" 
d="M217 588l-56 132h123l23 -132h-90z" />
    <glyph glyph-name="a" unicode="a" horiz-adv-x="523" 
d="M288 506q99 0 149.5 -45.5t50.5 -122.5q0 -12 -1.5 -25.5t-3.5 -27.5l-51 -285h-109l11 60h-6q-23 -32 -61 -54t-89 -22q-37 0 -67.5 11t-53 31t-35 48t-12.5 62q0 42 17.5 75.5t49 57.5t74.5 36.5t94 12.5q38 0 69.5 -8t60.5 -19l3 16q1 5 1.5 10.5t0.5 10.5
q0 38 -28.5 61t-75.5 23q-38 0 -68 -14.5t-56 -45.5l-80 57q38 48 94 72.5t122 24.5zM209 76q28 0 53 10.5t45 28t33.5 40.5t18.5 49q-12 6 -38.5 17.5t-76.5 11.5q-23 0 -44.5 -5.5t-38 -16t-26.5 -27.5t-10 -39q0 -34 25.5 -51.5t58.5 -17.5z" />
    <glyph glyph-name="b" unicode="b" horiz-adv-x="588" 
d="M266 -16q-51 0 -91 23t-60 56h-6l-11 -63h-105l126 716h112l-40 -221l-18 -68h6q23 31 62.5 55t100.5 24q42 0 79 -16t64.5 -45.5t43 -71.5t15.5 -95q0 -60 -21.5 -113t-59 -93.5t-88.5 -64t-109 -23.5zM264 87q35 0 65.5 14t53.5 38t36 57t13 71q0 63 -33 99.5t-92 36.5
q-38 0 -69 -15.5t-53.5 -41t-35 -59t-12.5 -69.5q0 -32 10 -56.5t27 -41t40.5 -25t49.5 -8.5z" />
    <glyph glyph-name="c" unicode="c" horiz-adv-x="533" 
d="M231 -16q-50 0 -91.5 17t-71.5 48t-46.5 73t-16.5 92q0 61 21.5 114t61 92.5t94 62.5t120.5 23q44 0 78.5 -11.5t60.5 -31t43 -45.5t25 -54l-106 -41q-12 38 -40.5 59t-74.5 21q-37 0 -68.5 -14t-54 -38t-35 -57t-12.5 -70q0 -30 9 -55t25 -43t38.5 -28.5t49.5 -10.5
q48 0 82 21.5t58 60.5l93 -44q-46 -74 -102.5 -107.5t-139.5 -33.5z" />
    <glyph glyph-name="d" unicode="d" horiz-adv-x="588" 
d="M208 -16q-44 0 -81 16.5t-64 46.5t-42.5 72.5t-15.5 94.5q0 57 21 109.5t58 93t88.5 65t112.5 24.5q50 0 90 -23t60 -56h6l5 68l39 221h112l-126 -716h-106l11 63h-6q-23 -31 -62 -55t-100 -24zM284 403q-36 0 -66 -14t-52.5 -39t-35 -58t-12.5 -70q0 -63 33.5 -99
t93.5 -36q34 0 64.5 14.5t53.5 39.5t36 58.5t13 71.5q0 63 -36.5 97.5t-91.5 34.5z" />
    <glyph glyph-name="e" unicode="e" horiz-adv-x="546" 
d="M471 118q-42 -64 -101.5 -99t-137.5 -35q-54 0 -96 18t-71 49t-44.5 72.5t-15.5 88.5q0 57 20.5 110t58 94t90.5 65.5t118 24.5q52 0 92 -16.5t67 -44t40.5 -64.5t13.5 -79q0 -45 -11 -81h-378q-1 -6 -1 -10v-9q0 -30 11 -52.5t28.5 -37t39.5 -21.5t46 -7q49 0 85 21.5
t61 58.5zM398 306v7q0 19 -7.5 37t-21.5 31.5t-36 21.5t-50 8q-55 0 -94.5 -29.5t-55.5 -75.5h265z" />
    <glyph glyph-name="f" unicode="f" horiz-adv-x="383" 
d="M351 724q26 0 46.5 -6t37.5 -16l-46 -95q-8 5 -19.5 8.5t-26.5 3.5q-34 0 -56.5 -19.5t-30.5 -58.5l-9 -51h125l-17 -98h-125l-69 -392h-111l69 392h-90l17 98h90l11 59q15 86 69 130.5t135 44.5z" />
    <glyph glyph-name="g" unicode="g" horiz-adv-x="587" 
d="M202 -232q-47 0 -84 13.5t-63 34.5t-42 47t-22 52l108 40q8 -39 37.5 -63t74.5 -24q72 0 116.5 40t57.5 114l8 44h-6q-23 -35 -64.5 -56t-95.5 -21q-43 0 -80 15.5t-64.5 45t-43 72t-15.5 95.5q0 52 19 103.5t55 93t87.5 67t116.5 25.5q54 0 92 -22t57 -55h6l11 61h106
l-86 -485q-11 -61 -36 -105.5t-62 -74t-85 -43.5t-103 -14zM260 91q34 0 65 14.5t53.5 40t36 60t13.5 73.5q0 31 -10 54.5t-26.5 39.5t-39 24t-46.5 8q-39 0 -70.5 -16t-53.5 -41.5t-34 -58.5t-12 -67q0 -65 36 -98t88 -33z" />
    <glyph glyph-name="h" unicode="h" 
d="M192 503l-19 -79h6q26 37 70 59.5t96 22.5q40 0 69.5 -12t49 -33t28.5 -48t9 -57q0 -13 -1 -27t-5 -34l-53 -295h-111l51 288q2 11 2.5 18t0.5 15q0 38 -22.5 60t-64.5 22q-30 0 -55 -12t-44.5 -32.5t-32.5 -47.5t-18 -58l-44 -253h-111l126 716h111z" />
    <glyph glyph-name="i" unicode="i" horiz-adv-x="239" 
d="M0 0l86 490h111l-86 -490h-111zM170 577q-31 0 -53 22t-22 53t22 53t53 22t53 -22t22 -53t-22 -53t-53 -22z" />
    <glyph glyph-name="j" unicode="j" horiz-adv-x="239" 
d="M-74 -226q-18 0 -36.5 3.5t-32.5 8.5l41 97q13 -7 32 -7q47 0 58 60l98 554h111l-97 -556q-8 -45 -23.5 -75.5t-37.5 -49.5t-50.5 -27t-62.5 -8zM170 577q-31 0 -53 22t-22 53t22 53t53 22t53 -22t22 -53t-22 -53t-53 -22z" />
    <glyph glyph-name="k" unicode="k" horiz-adv-x="506" 
d="M159 309h4l211 181h147l-1 -6l-220 -185l148 -293l-1 -6h-129l-108 224l-78 -66l-28 -158h-111l126 716h111z" />
    <glyph glyph-name="l" unicode="l" horiz-adv-x="223" 
d="M-7 0l126 716h111l-126 -716h-111z" />
    <glyph glyph-name="m" unicode="m" horiz-adv-x="866" 
d="M79 490h105l-11 -66h6q26 38 65.5 60t94.5 22t90.5 -25.5t48.5 -66.5q26 41 71 66.5t108 25.5q76 0 114.5 -41.5t38.5 -104.5q0 -14 -2 -29.5t-6 -35.5l-51 -295h-112l51 288q2 10 3 21t1 19q0 35 -19.5 55t-60.5 20q-28 0 -51.5 -12t-41.5 -32t-30.5 -47.5t-18.5 -57.5
l-45 -254h-111l51 288q2 8 3 19t1 21q0 36 -22 55.5t-60 19.5q-28 0 -51.5 -12t-41.5 -32.5t-30 -47.5t-17 -57l-45 -254h-111z" />
    <glyph glyph-name="n" unicode="n" 
d="M173 424h6q25 37 67 59.5t96 22.5q37 0 66 -11.5t49.5 -32t31.5 -48.5t11 -61q0 -15 -1.5 -32t-5.5 -36l-50 -285h-112l51 288q2 8 3 17.5t1 17.5q0 38 -23.5 59t-65.5 21q-30 0 -54.5 -11.5t-43.5 -31.5t-31.5 -46.5t-17.5 -57.5l-46 -256h-111l86 490h105z" />
    <glyph glyph-name="o" unicode="o" horiz-adv-x="568" 
d="M300 506q52 0 95 -18.5t73.5 -50t47 -73.5t16.5 -89q0 -62 -22 -115t-61.5 -92t-93.5 -61.5t-118 -22.5q-53 0 -95.5 18.5t-73 50t-47 73.5t-16.5 89q0 62 22 115t61.5 92t93.5 61.5t118 22.5zM248 87q39 0 70.5 14.5t54 39t34.5 56.5t12 68q0 30 -10 55.5t-28 44
t-41.5 28.5t-50.5 10q-39 0 -70.5 -14.5t-54 -39t-34.5 -56.5t-12 -68q0 -30 10 -55.5t28 -44t41.5 -28.5t50.5 -10z" />
    <glyph glyph-name="p" unicode="p" horiz-adv-x="584" 
d="M351 506q43 0 80.5 -16.5t64.5 -46.5t42.5 -72.5t15.5 -94.5q0 -57 -21 -110t-58 -93.5t-88.5 -64.5t-112.5 -24q-50 0 -90 23t-60 56h-6l-5 -68l-38 -211h-111l124 706h106l-11 -63h6q23 31 62 55t100 24zM275 87q36 0 66 14t52.5 39t35 57.5t12.5 70.5q0 63 -33.5 99
t-93.5 36q-35 0 -65 -14.5t-53 -39.5t-36 -58.5t-13 -71.5q0 -63 36.5 -97.5t91.5 -34.5z" />
    <glyph glyph-name="q" unicode="q" horiz-adv-x="584" 
d="M322 -216l37 211l18 68h-6q-23 -31 -63 -55t-101 -24q-42 0 -79 16t-64.5 45.5t-43 71.5t-15.5 95q0 60 21.5 113t59 93.5t88 64t109.5 23.5q51 0 91 -23t60 -56h6l11 63h105l-123 -706h-111zM285 403q-35 0 -65.5 -14t-53 -38t-35.5 -57t-13 -71q0 -63 32.5 -99.5
t92.5 -36.5q37 0 68.5 15.5t53.5 41t34.5 59t12.5 69.5q0 32 -10 56.5t-27.5 41t-40.5 25t-49 8.5z" />
    <glyph glyph-name="r" unicode="r" horiz-adv-x="385" 
d="M-7 0l86 490h105l-13 -74h6q24 39 65 63.5t91 24.5q24 0 38.5 -4t27.5 -11l-44 -103q-12 4 -25 7t-32 3q-27 0 -52 -11t-45 -30.5t-33.5 -46.5t-19.5 -59l-44 -249h-111z" />
    <glyph glyph-name="s" unicode="s" horiz-adv-x="469" 
d="M193 -16q-44 0 -78.5 11t-60 30t-42.5 44.5t-25 54.5l104 42q10 -42 40.5 -62.5t71.5 -20.5q40 0 66 16t26 42q0 24 -17 38t-55 25l-55 15q-26 7 -48.5 18t-39.5 27t-27 38t-10 51q0 34 16 62.5t44 48.5t66 31t81 11q72 0 121 -31.5t69 -85.5l-104 -39q-10 27 -34.5 44.5
t-59.5 17.5q-40 0 -63 -14t-23 -38q0 -38 61 -54l67 -17q61 -16 93 -52t32 -85q0 -39 -16 -70t-45 -52.5t-68.5 -33.5t-86.5 -12z" />
    <glyph glyph-name="t" unicode="t" horiz-adv-x="378" 
d="M204 -8q-57 0 -94.5 31.5t-37.5 94.5q0 9 0.5 19.5t4.5 31.5l39 223h-86l17 98h86l27 150h111l-27 -150h121l-18 -98h-120l-38 -214q-2 -9 -2 -15v-14q0 -21 11 -36.5t36 -15.5q17 0 26 2.5t20 7.5l17 -99q-38 -16 -93 -16z" />
    <glyph glyph-name="u" unicode="u" 
d="M346 66h-6q-25 -37 -67 -59.5t-96 -22.5q-37 0 -66 11.5t-49.5 32t-31.5 48.5t-11 61q0 15 1.5 30.5t5.5 37.5l50 285h112l-51 -288q-2 -13 -3 -20t-1 -15q0 -38 23.5 -59t65.5 -21q30 0 54.5 11.5t43.5 31.5t31.5 46.5t17.5 57.5l46 256h111l-86 -490h-105z" />
    <glyph glyph-name="v" unicode="v" horiz-adv-x="527" 
d="M28 490h123l70 -346h4l196 346h125l-291 -490h-112z" />
    <glyph glyph-name="w" unicode="w" horiz-adv-x="779" 
d="M438 0l-49 343h-4l-170 -343h-116l-72 490h118l37 -339h4l169 339h115l50 -339h4l154 339h120l-242 -490h-118z" />
    <glyph glyph-name="x" unicode="x" horiz-adv-x="493" 
d="M292 0l-78 163h-4l-131 -163h-135l215 254l-125 236h129l75 -154h4l125 154h137l-212 -242l128 -248h-128z" />
    <glyph glyph-name="y" unicode="y" horiz-adv-x="526" 
d="M6 -216l155 246l-122 460h122l79 -325h4l190 325h124l-432 -706h-120z" />
    <glyph glyph-name="z" unicode="z" horiz-adv-x="469" 
d="M-15 93l314 300h-253l17 97h393l-16 -93l-314 -300h265l-18 -97h-404z" />
    <glyph glyph-name="braceleft" unicode="{" horiz-adv-x="328" 
d="M186 -124q-64 0 -105.5 36.5t-41.5 98.5q0 20 4 39l28 162q1 5 1.5 9.5t0.5 9.5q0 29 -15.5 43t-42.5 14l17 92q27 0 51 18t31 58l29 167q14 80 62.5 124.5t136.5 44.5h34l-16 -92h-20q-37 0 -60.5 -22t-31.5 -64l-28 -158q-9 -51 -30.5 -79t-60.5 -40l-1 -6
q54 -18 54 -79q0 -10 -1.5 -19.5t-3.5 -20.5l-28 -158q-3 -15 -3 -25q0 -31 19 -46t46 -15h20l-16 -92h-29z" />
    <glyph glyph-name="bar" unicode="|" horiz-adv-x="246" 
d="M152 792h102l-161 -912h-101z" />
    <glyph glyph-name="braceright" unicode="}" horiz-adv-x="328" 
d="M140 792q65 0 106 -36.5t41 -98.5q0 -11 -0.5 -19.5t-2.5 -19.5l-28 -162q-1 -5 -1.5 -9.5t-0.5 -9.5q0 -29 15.5 -43t41.5 -14l-16 -92q-28 0 -51.5 -18t-30.5 -58l-30 -167q-14 -80 -62 -124.5t-136 -44.5h-34l16 92h19q38 0 61.5 22t31.5 64l28 158q9 51 30 79t60 40
l2 6q-54 18 -54 79q0 20 4 40l29 158q1 8 1.5 13.5t0.5 11.5q0 31 -19 46t-46 15h-19l16 92h28z" />
    <glyph glyph-name="asciitilde" unicode="~" horiz-adv-x="542" 
d="M353 229q-31 0 -57.5 9.5t-50.5 21.5t-47 21.5t-46 9.5q-25 0 -39.5 -15t-19.5 -33h-89q9 66 46.5 105t109.5 39q31 0 57.5 -9.5t50.5 -21.5t47 -21.5t46 -9.5q25 0 39.5 15t19.5 33h90q-10 -66 -47.5 -105t-109.5 -39z" />
    <glyph glyph-name="uni00A0" unicode="&#xa0;" horiz-adv-x="220" 
d="M0 0z" />
    <glyph glyph-name="exclamdown" unicode="&#xa1;" horiz-adv-x="251" 
d="M150 506q32 0 54.5 -22.5t22.5 -54.5t-22.5 -55t-54.5 -23t-54.5 23t-22.5 55t22.5 54.5t54.5 22.5zM132 0l-38 -216h-113l38 216l58 266h91z" />
    <glyph glyph-name="cent" unicode="&#xa2;" horiz-adv-x="530" 
d="M192 87q-39 7 -70 27t-53.5 49t-34.5 66.5t-12 80.5q0 58 19.5 108t54 88.5t82.5 62.5t105 30l15 85h82l-16 -87q33 -6 58 -18.5t44 -30.5t31.5 -40t20.5 -45l-100 -41q-8 29 -25.5 48.5t-45.5 28.5l-56 -316q34 8 60 28.5t46 52.5l84 -40q-39 -64 -87.5 -98.5
t-119.5 -41.5l-15 -84h-82zM129 320q0 -49 21.5 -85t59.5 -50l55 315q-30 -7 -55 -23.5t-43 -40.5t-28 -53.5t-10 -62.5z" />
    <glyph glyph-name="sterling" unicode="&#xa3;" horiz-adv-x="528" 
d="M375 514q-4 17 -10.5 32t-18 26.5t-28 18.5t-40.5 7q-25 0 -46 -9t-36 -25t-23.5 -38t-8.5 -47q0 -38 14 -74t25 -72h136l-15 -89h-109q-5 -42 -26.5 -76t-54.5 -60l4 -6h163q35 0 55 15t34 43l81 -38q-26 -60 -68.5 -91t-116.5 -31h-316l17 93q22 10 43.5 25t38.5 34.5
t27.5 42.5t11.5 49h-93l15 89h60q-13 33 -24.5 70.5t-11.5 79.5q0 44 16.5 83.5t47.5 69t75 47t99 17.5q44 0 77 -12t55.5 -32.5t36.5 -46.5t21 -54z" />
    <glyph glyph-name="currency" unicode="&#xa4;" horiz-adv-x="603" 
d="M302 106q-35 0 -67 10.5t-58 28.5l-59 -57l-58 59l59 58q-17 26 -26 56.5t-9 63.5t9 63.5t26 56.5l-59 58l58 60l59 -57q26 18 58 28t67 10t66.5 -10t57.5 -28l59 57l58 -60l-58 -57q17 -26 26 -56.5t9 -64.5q0 -33 -9 -63.5t-26 -56.5l58 -58l-58 -59l-59 57
q-26 -18 -57.5 -28.5t-66.5 -10.5zM302 197q25 0 47.5 10t39 27.5t26 40.5t9.5 50t-9.5 50t-26 40.5t-39 27.5t-47.5 10q-26 0 -48 -10t-38.5 -27.5t-26 -40.5t-9.5 -50t9.5 -50t26 -40.5t38.5 -27.5t48 -10z" />
    <glyph glyph-name="yen" unicode="&#xa5;" horiz-adv-x="602" 
d="M352 319l-13 -74h165l-18 -96h-164l-26 -149h-114l27 149h-169l18 96h168l13 74h-168l16 96h107l-125 269h129l87 -204l22 -65h6l44 65l156 204h134l-217 -269h103l-16 -96h-165z" />
    <glyph glyph-name="brokenbar" unicode="&#xa6;" horiz-adv-x="246" 
d="M81 376l67 380h102l-67 -380h-102zM-6 -120l72 412h102l-73 -412h-101z" />
    <glyph glyph-name="section" unicode="&#xa7;" horiz-adv-x="547" 
d="M197 -232q-45 0 -84 14t-68.5 39.5t-48 61.5t-22.5 80l103 39q3 -27 13 -51t26 -41.5t38.5 -28t51.5 -10.5q25 0 47 6.5t39 19.5t27 31t10 42q0 44 -31 67t-92 46l-16 6q-64 24 -106 66.5t-42 101.5q0 53 31.5 95t78.5 66q-26 23 -41 53.5t-15 67.5q0 41 17 76.5t48 61.5
t73 40.5t93 14.5q46 0 80.5 -12.5t59 -33t39.5 -47.5t22 -56l-109 -41q-2 15 -9 30t-19.5 28t-31 21t-44.5 8q-20 0 -38.5 -5.5t-33 -15.5t-23.5 -24.5t-9 -32.5q0 -33 26.5 -56t84.5 -43l17 -6q73 -26 115 -69.5t42 -111.5q0 -58 -27.5 -98.5t-69.5 -66.5
q20 -21 31.5 -49.5t11.5 -66.5q0 -44 -18.5 -83.5t-51 -69t-77.5 -46.5t-98 -17zM256 178l15 -5t18 -6.5t17.5 -7t14.5 -6.5q24 14 42 37.5t18 53.5q0 38 -27.5 67.5t-88.5 48.5l-23 7q-17 -6 -32.5 -14.5t-28 -20.5t-20 -27t-7.5 -32q0 -34 26 -56.5t76 -38.5z" />
    <glyph glyph-name="dieresis" unicode="&#xa8;" horiz-adv-x="426" 
d="M354 595q-26 0 -45.5 19t-19.5 45q0 28 19.5 46t45.5 18q27 0 45.5 -18t18.5 -46q0 -26 -18.5 -45t-45.5 -19zM174 595q-26 0 -45 19t-19 45q0 28 19 46t45 18q28 0 46.5 -18t18.5 -46q0 -26 -18.5 -45t-46.5 -19z" />
    <glyph glyph-name="copyright" unicode="&#xa9;" horiz-adv-x="532" 
d="M266 272q-48 0 -89.5 18t-73 49.5t-49.5 73t-18 89.5q0 47 18 89t49.5 73.5t73 49.5t89.5 18q47 0 89 -18t73.5 -49.5t49.5 -73.5t18 -89q0 -48 -18 -89.5t-49.5 -73t-73.5 -49.5t-89 -18zM266 320q38 0 71 14.5t58 39.5t39 58t14 70q0 38 -14 71t-39 58t-58 39t-71 14
q-37 0 -70 -14t-58 -39t-39.5 -58t-14.5 -71q0 -37 14.5 -70t39.5 -58t58 -39.5t70 -14.5zM270 383q-26 0 -47.5 9.5t-37.5 25.5t-25 38t-9 46q0 25 9 46.5t25 37.5t37.5 25.5t47.5 9.5q31 0 50.5 -11t36.5 -28l-32 -29q-11 11 -22 17.5t-33 6.5q-29 0 -51 -21.5t-22 -53.5
t22 -53.5t51 -21.5q21 0 35 8.5t25 22.5l34 -27q-16 -21 -39 -34.5t-55 -13.5z" />
    <glyph glyph-name="ordfeminine" unicode="&#xaa;" horiz-adv-x="486" 
d="M197 272q-33 0 -60.5 9.5t-47.5 27t-31 41.5t-11 54q0 38 16.5 68t45 51t65.5 32t79 11t72 -8t51 -18l2 14q1 5 1 8v7q0 36 -26 56.5t-64 20.5q-35 0 -63 -12t-49 -40l-73 47q26 38 75.5 64.5t119.5 26.5q40 0 73 -10.5t57 -30t37.5 -47.5t13.5 -63q0 -17 -3 -36
l-46 -259h-100l10 54h-6q-23 -28 -58 -48t-80 -20zM227 356q24 0 47 8.5t41.5 23t31 34.5t16.5 43q-3 1 -11 5t-21 8.5t-31 8t-40 3.5q-19 0 -38 -4t-34.5 -13t-25 -23.5t-9.5 -35.5q0 -30 23.5 -44t50.5 -14z" />
    <glyph glyph-name="guillemotleft" unicode="&#xab;" horiz-adv-x="583" 
d="M260 104l-71 -57l-168 224l247 224l56 -63l-183 -167zM472 104l-71 -57l-168 224l247 224l56 -63l-183 -167z" />
    <glyph glyph-name="logicalnot" unicode="&#xac;" horiz-adv-x="578" 
d="M51 394h450l-51 -289h-93l34 195h-356z" />
    <glyph glyph-name="uni00AD" unicode="&#xad;" horiz-adv-x="441" 
d="M55 358h329l-16 -96h-330z" />
    <glyph glyph-name="registered" unicode="&#xae;" horiz-adv-x="532" 
d="M266 272q-48 0 -89.5 18t-73 49.5t-49.5 73t-18 89.5q0 47 18 89t49.5 73.5t73 49.5t89.5 18q47 0 89 -18t73.5 -49.5t49.5 -73.5t18 -89q0 -48 -18 -89.5t-49.5 -73t-73.5 -49.5t-89 -18zM266 320q38 0 71 14.5t58 39.5t39 58t14 70q0 38 -14 71t-39 58t-58 39t-71 14
q-37 0 -70 -14t-58 -39t-39.5 -58t-14.5 -71q0 -37 14.5 -70t39.5 -58t58 -39.5t70 -14.5zM189 389v226h96q29 0 51 -20.5t22 -51.5q0 -23 -14.5 -41.5t-35.5 -24.5l-2 -2l60 -84v-2h-52l-55 84h-24v-84h-46zM281 515q12 0 21.5 7.5t9.5 20.5q0 10 -8 19t-22 9h-47v-56h46z
" />
    <glyph glyph-name="macron" unicode="&#xaf;" horiz-adv-x="408" 
d="M105 616l15 86h288l-15 -86h-288z" />
    <glyph glyph-name="degree" unicode="&#xb0;" horiz-adv-x="325" 
d="M186 442q-24 0 -45.5 8t-38 23t-26 36t-9.5 47q0 32 11 58.5t30.5 45.5t46 29.5t58.5 10.5q24 0 45.5 -8.5t38 -23.5t26 -36t9.5 -46q0 -32 -11 -58.5t-30.5 -45.5t-46.5 -29.5t-58 -10.5zM193 513q26 0 45 18t19 46q0 23 -14 37.5t-37 14.5q-26 0 -45 -18.5t-19 -46.5
q0 -23 14 -37t37 -14z" />
    <glyph glyph-name="plusminus" unicode="&#xb1;" horiz-adv-x="559" 
d="M334 398h176l-16 -92h-176l-26 -149h-96l26 149h-175l16 92h175l27 149h96zM-7 0l16 96h448l-18 -96h-446z" />
    <glyph glyph-name="twosuperior" unicode="&#xb2;" horiz-adv-x="311" 
d="M24 350l11 62q39 34 72 62q28 24 52.5 44.5t29.5 24.5q15 13 33 31.5t18 39.5q0 19 -12 29t-31 10q-42 0 -60 -53l-68 28q14 45 51 70.5t87 25.5q54 0 85 -28.5t31 -70.5q0 -40 -21 -66t-55 -55q-10 -8 -26 -21.5t-32 -27.5q-18 -16 -39 -34h142l-13 -71h-255z" />
    <glyph glyph-name="threesuperior" unicode="&#xb3;" horiz-adv-x="329" 
d="M165 342q-45 0 -82 24.5t-46 75.5l72 26q8 -30 24 -42.5t39 -12.5q24 0 42.5 14t18.5 37q0 21 -15 32t-42 11h-34l12 66h36q24 0 41.5 12t17.5 33q0 17 -12.5 26t-28.5 9q-25 0 -39 -12.5t-21 -26.5l-66 28q16 36 51 59t85 23t81 -26.5t31 -65.5q0 -32 -18.5 -55.5
t-44.5 -34.5q21 -11 34 -29.5t13 -44.5q0 -27 -11.5 -50.5t-31.5 -40t-47 -26t-59 -9.5z" />
    <glyph glyph-name="acute" unicode="&#xb4;" horiz-adv-x="421" 
d="M189 588l71 132h127l-104 -132h-94z" />
    <glyph glyph-name="mu" unicode="&#xb5;" 
d="M335 0l11 66h-6q-25 -37 -64 -59.5t-92 -22.5q-24 0 -45.5 9t-34.5 23h-6l-4 -60l-32 -172h-110l124 706h112l-51 -288q-2 -13 -3 -20t-1 -15q0 -38 23.5 -59t65.5 -21q30 0 54.5 11.5t43.5 31.5t31.5 46.5t17.5 57.5l46 256h111l-86 -490h-105z" />
    <glyph glyph-name="paragraph" unicode="&#xb6;" horiz-adv-x="633" 
d="M283 -216v512h-35q-45 0 -85.5 14.5t-71 41.5t-49 66t-18.5 88t18.5 88t49 66t71 41.5t85.5 14.5h305v-932h-96v835h-78v-835h-96z" />
    <glyph glyph-name="periodcentered" unicode="&#xb7;" horiz-adv-x="195" 
d="M95 247q-32 0 -54.5 22.5t-22.5 54.5t22.5 54.5t54.5 22.5t55 -22.5t23 -54.5t-23 -54.5t-55 -22.5z" />
    <glyph glyph-name="cedilla" unicode="&#xb8;" horiz-adv-x="405" 
d="M89 -237q-34 0 -61 19.5t-33 46.5l62 25q2 -12 12 -21.5t24 -9.5q17 0 29 11t12 31q0 14 -8.5 23t-24.5 9q-18 0 -30 -15l-50 25l52 93h62l-29 -48q5 1 8.5 1.5t10.5 0.5q35 0 56 -24.5t21 -62.5q0 -47 -31 -75.5t-82 -28.5z" />
    <glyph glyph-name="onesuperior" unicode="&#xb9;" horiz-adv-x="257" 
d="M116 350l48 272l-64 -26l-26 64l131 56h55l-65 -366h-79z" />
    <glyph glyph-name="ordmasculine" unicode="&#xba;" horiz-adv-x="525" 
d="M254 272q-44 0 -80.5 14t-63 40t-41 62.5t-14.5 81.5q0 49 18.5 96.5t53 84t83 59t108.5 22.5q45 0 81.5 -14t62.5 -39.5t40 -62t14 -82.5q0 -52 -20 -99.5t-55 -83.5t-83 -57.5t-104 -21.5zM263 367q30 0 57 12t47.5 33t32.5 50.5t12 64.5q0 51 -31 80.5t-74 29.5
q-31 0 -57.5 -12.5t-46.5 -34t-31.5 -50.5t-11.5 -61q0 -52 29 -82t74 -30z" />
    <glyph glyph-name="guillemotright" unicode="&#xbb;" horiz-adv-x="583" 
d="M77 438l72 57l167 -224l-246 -224l-57 63l184 167zM289 438l72 57l167 -224l-246 -224l-57 63l184 167z" />
    <glyph glyph-name="onequarter" unicode="&#xbc;" horiz-adv-x="753" 
d="M505 0l12 69h-171l9 56l216 241h77l-41 -231h48l-12 -66h-48l-12 -69h-78zM529 135l21 115h-6l-102 -115h87zM58 36l590 692l62 -49l-588 -692zM141 350l48 272l-64 -26l-26 64l131 56h55l-65 -366h-79z" />
    <glyph glyph-name="onehalf" unicode="&#xbd;" horiz-adv-x="792" 
d="M437 0l11 62q39 34 72 62q28 24 52.5 44.5t29.5 24.5q15 13 33 31.5t18 39.5q0 19 -12.5 29t-30.5 10q-41 0 -61 -53l-67 28q14 45 50.5 70.5t87.5 25.5q53 0 84.5 -28.5t31.5 -70.5q0 -40 -21 -66t-55 -55q-10 -8 -26 -21.5t-32 -27.5q-18 -16 -40 -34h143l-13 -71h-255
zM55 36l590 692l62 -49l-588 -692zM141 350l48 272l-64 -26l-26 64l131 56h55l-65 -366h-79z" />
    <glyph glyph-name="threequarters" unicode="&#xbe;" horiz-adv-x="836" 
d="M189 342q-45 0 -82 24.5t-46 75.5l72 26q8 -30 24 -42.5t39 -12.5q24 0 42.5 14t18.5 37q0 21 -15 32t-42 11h-34l12 66h36q24 0 41.5 12t17.5 33q0 17 -12.5 26t-28.5 9q-25 0 -39 -12.5t-21 -26.5l-66 28q16 36 51 59t85 23t81 -26.5t31 -65.5q0 -32 -18.5 -55.5
t-44.5 -34.5q21 -11 34 -29.5t13 -44.5q0 -27 -11.5 -50.5t-31.5 -40t-47 -26t-59 -9.5zM588 0l12 69h-171l9 56l216 241h77l-41 -231h48l-12 -66h-48l-12 -69h-78zM612 135l21 115h-6l-102 -115h87zM119 36l590 692l62 -49l-588 -692z" />
    <glyph glyph-name="questiondown" unicode="&#xbf;" horiz-adv-x="492" 
d="M307 266l-7 -40q-4 -24 -11 -43t-20 -37.5t-34 -37.5t-52 -41q-16 -11 -31 -23.5t-27 -27t-19.5 -30.5t-7.5 -34q0 -35 24.5 -57t66.5 -22q48 0 77 27t41 62l93 -42q-10 -30 -29.5 -57.5t-48 -48.5t-65.5 -33.5t-82 -12.5q-42 0 -77 12.5t-60.5 35t-39.5 53t-14 66.5
q0 32 10.5 58t27.5 49t40 43.5t48 40.5q36 29 54.5 53t24.5 59l5 28h113zM280 506q32 0 55 -22.5t23 -54.5t-23 -55t-55 -23t-54.5 23t-22.5 55t22.5 54.5t54.5 22.5z" />
    <glyph glyph-name="Agrave" unicode="&#xc0;" horiz-adv-x="692" 
d="M342 716h131l143 -716h-121l-33 184h-287l-97 -184h-129zM442 287l-39 211l-13 84h-6l-42 -84l-112 -211h212zM373 772l-56 132h123l23 -132h-90z" />
    <glyph glyph-name="Aacute" unicode="&#xc1;" horiz-adv-x="692" 
d="M342 716h131l143 -716h-121l-33 184h-287l-97 -184h-129zM442 287l-39 211l-13 84h-6l-42 -84l-112 -211h212zM361 772l71 132h127l-104 -132h-94z" />
    <glyph glyph-name="Acircumflex" unicode="&#xc2;" horiz-adv-x="692" 
d="M342 716h131l143 -716h-121l-33 184h-287l-97 -184h-129zM442 287l-39 211l-13 84h-6l-42 -84l-112 -211h212zM246 779l128 121h99l87 -121l-2 -7h-101l-37 59h-10l-53 -59h-113z" />
    <glyph glyph-name="Atilde" unicode="&#xc3;" horiz-adv-x="692" 
d="M342 716h131l143 -716h-121l-33 184h-287l-97 -184h-129zM442 287l-39 211l-13 84h-6l-42 -84l-112 -211h212zM479 775q-20 0 -36 7t-30 15q-15 8 -29.5 15t-29.5 7q-28 0 -35 -32h-84q8 62 40.5 92t79.5 30q19 0 35.5 -7t31.5 -15t29 -15t29 -7q28 0 35 32h84
q-8 -62 -40.5 -92t-79.5 -30z" />
    <glyph glyph-name="Adieresis" unicode="&#xc4;" horiz-adv-x="692" 
d="M342 716h131l143 -716h-121l-33 184h-287l-97 -184h-129zM442 287l-39 211l-13 84h-6l-42 -84l-112 -211h212zM507 779q-26 0 -45.5 19t-19.5 45q0 28 19.5 46t45.5 18q27 0 45.5 -18t18.5 -46q0 -26 -18.5 -45t-45.5 -19zM327 779q-26 0 -45 19t-19 45q0 28 19 46t45 18
q28 0 46.5 -18t18.5 -46q0 -26 -18.5 -45t-46.5 -19z" />
    <glyph glyph-name="Aring" unicode="&#xc5;" horiz-adv-x="692" 
d="M322 680q-27 32 -27 76q0 24 9 45.5t24.5 37.5t37 25t46.5 9q24 0 45.5 -9t37 -25t25 -37.5t9.5 -45.5q0 -29 -12.5 -52.5t-33.5 -40.5l133 -663h-121l-33 184h-287l-97 -184h-129zM442 287l-39 211l-13 84h-6l-42 -84l-112 -211h212zM412 716q17 0 28.5 11.5t11.5 28.5
t-11.5 28.5t-28.5 11.5t-28.5 -11.5t-11.5 -28.5t11.5 -28.5t28.5 -11.5z" />
    <glyph glyph-name="AE" unicode="&#xc6;" horiz-adv-x="982" 
d="M-61 0l547 716h507l-19 -108h-323l-34 -197h290l-19 -106h-290l-35 -197h323l-20 -108h-436l33 184h-246l-138 -184h-140zM296 290h185l57 318h-7l-41 -60z" />
    <glyph glyph-name="Ccedilla" unicode="&#xc7;" horiz-adv-x="732" 
d="M317 -237q-34 0 -60.5 19.5t-33.5 46.5l62 25q2 -12 12 -21.5t25 -9.5q16 0 28.5 11t12.5 31q0 14 -9 23t-24 9q-18 0 -31 -15l-49 25l45 82q-58 9 -106.5 35t-83.5 67.5t-54.5 97t-19.5 122.5q0 84 32 160t89.5 134t136.5 92.5t174 34.5q87 0 152 -34t100 -87l-90 -75
q-32 44 -73 66t-103 22q-63 0 -118.5 -25t-96.5 -67t-65 -98t-24 -118q0 -51 16.5 -92.5t45.5 -71t69.5 -45t87.5 -15.5q38 0 68.5 8t56.5 21.5t49 32.5t47 40l72 -83q-34 -33 -68 -57t-70.5 -39.5t-77 -23t-88.5 -7.5l-19 -32q5 1 9 1.5t10 0.5q35 0 56 -24.5t21 -62.5
q0 -47 -31 -75.5t-82 -28.5z" />
    <glyph glyph-name="Egrave" unicode="&#xc8;" horiz-adv-x="560" 
d="M229 608l-35 -197h291l-19 -106h-291l-34 -197h322l-19 -108h-436l127 716h436l-19 -108h-323zM312 772l-56 132h123l23 -132h-90z" />
    <glyph glyph-name="Eacute" unicode="&#xc9;" horiz-adv-x="560" 
d="M300 772l71 132h127l-104 -132h-94zM229 608l-35 -197h291l-19 -106h-291l-34 -197h322l-19 -108h-436l127 716h436l-19 -108h-323z" />
    <glyph glyph-name="Ecircumflex" unicode="&#xca;" horiz-adv-x="560" 
d="M194 779l128 121h99l87 -121l-2 -7h-101l-37 59h-10l-53 -59h-113zM229 608l-35 -197h291l-19 -106h-291l-34 -197h322l-19 -108h-436l127 716h436l-19 -108h-323z" />
    <glyph glyph-name="Edieresis" unicode="&#xcb;" horiz-adv-x="560" 
d="M446 779q-26 0 -45.5 19t-19.5 45q0 28 19.5 46t45.5 18q27 0 45.5 -18t18.5 -46q0 -26 -18.5 -45t-45.5 -19zM266 779q-26 0 -45 19t-19 45q0 28 19 46t45 18q28 0 46.5 -18t18.5 -46q0 -26 -18.5 -45t-46.5 -19zM229 608l-35 -197h291l-19 -106h-291l-34 -197h322
l-19 -108h-436l127 716h436l-19 -108h-323z" />
    <glyph glyph-name="Igrave" unicode="&#xcc;" horiz-adv-x="257" 
d="M135 716h113l-127 -716h-113zM165 772l-56 132h123l23 -132h-90z" />
    <glyph glyph-name="Iacute" unicode="&#xcd;" horiz-adv-x="257" 
d="M135 716h113l-127 -716h-113zM144 772l71 132h127l-104 -132h-94z" />
    <glyph glyph-name="Icircumflex" unicode="&#xce;" horiz-adv-x="257" 
d="M135 716h113l-127 -716h-113zM35 779l128 121h99l87 -121l-2 -7h-101l-37 59h-10l-53 -59h-113z" />
    <glyph glyph-name="Idieresis" unicode="&#xcf;" horiz-adv-x="257" 
d="M133 781q-25 0 -44 18.5t-19 44.5t19 44.5t44 18.5q27 0 45 -18.5t18 -44.5t-18 -44.5t-45 -18.5zM288 781q-26 0 -44.5 18.5t-18.5 44.5t18.5 44.5t44.5 18.5q27 0 45 -18.5t18 -44.5t-18 -44.5t-45 -18.5zM135 716h113l-127 -716h-113z" />
    <glyph glyph-name="Eth" unicode="&#xd0;" horiz-adv-x="765" 
d="M123 310h-76l17 94h75l56 312h223q78 0 137 -23.5t99 -65.5t60.5 -99t20.5 -124q0 -79 -28 -152t-82.5 -129t-134 -89.5t-181.5 -33.5h-241zM315 108q67 0 123 23t96.5 62.5t62.5 92.5t22 114q0 98 -55 153t-161 55h-114l-36 -204h192l-16 -94h-193l-35 -202h114z" />
    <glyph glyph-name="Ntilde" unicode="&#xd1;" horiz-adv-x="709" 
d="M135 716h127l234 -519h6l18 138l68 381h112l-127 -716h-110l-246 545h-6l-18 -138l-72 -407h-113zM530 775q-20 0 -36 7t-30 15q-15 8 -29.5 15t-29.5 7q-28 0 -35 -32h-84q8 62 40.5 92t79.5 30q19 0 35.5 -7t31.5 -15t29 -15t29 -7q28 0 35 32h84q-8 -62 -40.5 -92
t-79.5 -30z" />
    <glyph glyph-name="Ograve" unicode="&#xd2;" horiz-adv-x="816" 
d="M360 -16q-70 0 -130 24t-104.5 67t-69.5 103.5t-25 133.5q0 83 31.5 159t87.5 134t134.5 92.5t171.5 34.5q72 0 132 -24.5t104 -68t68.5 -103.5t24.5 -132q0 -83 -31.5 -159t-88 -134t-134.5 -92.5t-171 -34.5zM375 92q61 0 114.5 26t93.5 69.5t63.5 99.5t23.5 116
q0 50 -17.5 90.5t-48.5 69.5t-73 45t-90 16q-62 0 -116 -26.5t-93.5 -70t-62.5 -99.5t-23 -115q0 -50 17.5 -90.5t48.5 -69.5t73 -45t90 -16zM420 772l-56 132h123l23 -132h-90z" />
    <glyph glyph-name="Oacute" unicode="&#xd3;" horiz-adv-x="816" 
d="M421 772l71 132h127l-104 -132h-94zM360 -16q-70 0 -130 24t-104.5 67t-69.5 103.5t-25 133.5q0 83 31.5 159t87.5 134t134.5 92.5t171.5 34.5q72 0 132 -24.5t104 -68t68.5 -103.5t24.5 -132q0 -83 -31.5 -159t-88 -134t-134.5 -92.5t-171 -34.5zM375 92q61 0 114.5 26
t93.5 69.5t63.5 99.5t23.5 116q0 50 -17.5 90.5t-48.5 69.5t-73 45t-90 16q-62 0 -116 -26.5t-93.5 -70t-62.5 -99.5t-23 -115q0 -50 17.5 -90.5t48.5 -69.5t73 -45t90 -16z" />
    <glyph glyph-name="Ocircumflex" unicode="&#xd4;" horiz-adv-x="816" 
d="M316 780l128 121h99l87 -121l-2 -7h-101l-37 59h-10l-53 -59h-113zM360 -16q-70 0 -130 24t-104.5 67t-69.5 103.5t-25 133.5q0 83 31.5 159t87.5 134t134.5 92.5t171.5 34.5q72 0 132 -24.5t104 -68t68.5 -103.5t24.5 -132q0 -83 -31.5 -159t-88 -134t-134.5 -92.5
t-171 -34.5zM375 92q61 0 114.5 26t93.5 69.5t63.5 99.5t23.5 116q0 50 -17.5 90.5t-48.5 69.5t-73 45t-90 16q-62 0 -116 -26.5t-93.5 -70t-62.5 -99.5t-23 -115q0 -50 17.5 -90.5t48.5 -69.5t73 -45t90 -16z" />
    <glyph glyph-name="Otilde" unicode="&#xd5;" horiz-adv-x="816" 
d="M360 -16q-70 0 -130 24t-104.5 67t-69.5 103.5t-25 133.5q0 83 31.5 159t87.5 134t134.5 92.5t171.5 34.5q72 0 132 -24.5t104 -68t68.5 -103.5t24.5 -132q0 -83 -31.5 -159t-88 -134t-134.5 -92.5t-171 -34.5zM375 92q61 0 114.5 26t93.5 69.5t63.5 99.5t23.5 116
q0 50 -17.5 90.5t-48.5 69.5t-73 45t-90 16q-62 0 -116 -26.5t-93.5 -70t-62.5 -99.5t-23 -115q0 -50 17.5 -90.5t48.5 -69.5t73 -45t90 -16zM539 775q-20 0 -36 7t-30 15q-15 8 -29.5 15t-29.5 7q-28 0 -35 -32h-84q8 62 40.5 92t79.5 30q19 0 35.5 -7t31.5 -15t29 -15
t29 -7q28 0 35 32h84q-8 -62 -40.5 -92t-79.5 -30z" />
    <glyph glyph-name="Odieresis" unicode="&#xd6;" horiz-adv-x="816" 
d="M567 779q-26 0 -45.5 19t-19.5 45q0 28 19.5 46t45.5 18q27 0 45.5 -18t18.5 -46q0 -26 -18.5 -45t-45.5 -19zM387 779q-26 0 -45 19t-19 45q0 28 19 46t45 18q28 0 46.5 -18t18.5 -46q0 -26 -18.5 -45t-46.5 -19zM360 -16q-70 0 -130 24t-104.5 67t-69.5 103.5
t-25 133.5q0 83 31.5 159t87.5 134t134.5 92.5t171.5 34.5q72 0 132 -24.5t104 -68t68.5 -103.5t24.5 -132q0 -83 -31.5 -159t-88 -134t-134.5 -92.5t-171 -34.5zM375 92q61 0 114.5 26t93.5 69.5t63.5 99.5t23.5 116q0 50 -17.5 90.5t-48.5 69.5t-73 45t-90 16
q-62 0 -116 -26.5t-93.5 -70t-62.5 -99.5t-23 -115q0 -50 17.5 -90.5t48.5 -69.5t73 -45t90 -16z" />
    <glyph glyph-name="multiply" unicode="&#xd7;" horiz-adv-x="577" 
d="M205 274l-132 154l75 63l133 -155l190 158l58 -71l-189 -156l132 -153l-74 -63l-133 154l-191 -158l-59 71z" />
    <glyph glyph-name="Oslash" unicode="&#xd8;" horiz-adv-x="816" 
d="M70 11l53 66q-44 44 -68 103.5t-24 131.5q0 83 31.5 159t87.5 134t134.5 92.5t171.5 34.5q45 0 85.5 -10t75.5 -28l54 68l74 -58l-52 -65q44 -44 68 -103.5t24 -131.5q0 -83 -31.5 -159t-88 -134t-134.5 -92.5t-171 -34.5q-89 0 -161 37l-55 -68zM146 313q0 -44 13 -80
t37 -64l348 434q-23 10 -49 15.5t-54 5.5q-62 0 -116 -26.5t-93.5 -70t-62.5 -99.5t-23 -115zM375 92q61 0 114.5 26t93.5 69.5t63.5 99.5t23.5 116q0 43 -13.5 79.5t-37.5 64.5l-347 -434q45 -21 103 -21z" />
    <glyph glyph-name="Ugrave" unicode="&#xd9;" horiz-adv-x="655" 
d="M268 -16q-48 0 -90 16t-73 45t-49 71t-18 93q0 15 1.5 36t7.5 55l73 416h113l-77 -439q-3 -18 -4 -30t-1 -23q0 -59 32 -95.5t101 -36.5q39 0 70.5 13t55 36.5t39 56t22.5 71.5l79 447h113l-80 -456q-24 -137 -105 -206.5t-210 -69.5zM356 772l-56 132h123l23 -132h-90z
" />
    <glyph glyph-name="Uacute" unicode="&#xda;" horiz-adv-x="655" 
d="M342 772l71 132h127l-104 -132h-94zM268 -16q-48 0 -90 16t-73 45t-49 71t-18 93q0 15 1.5 36t7.5 55l73 416h113l-77 -439q-3 -18 -4 -30t-1 -23q0 -59 32 -95.5t101 -36.5q39 0 70.5 13t55 36.5t39 56t22.5 71.5l79 447h113l-80 -456q-24 -137 -105 -206.5t-210 -69.5z
" />
    <glyph glyph-name="Ucircumflex" unicode="&#xdb;" horiz-adv-x="655" 
d="M234 779l128 121h99l87 -121l-2 -7h-101l-37 59h-10l-53 -59h-113zM268 -16q-48 0 -90 16t-73 45t-49 71t-18 93q0 15 1.5 36t7.5 55l73 416h113l-77 -439q-3 -18 -4 -30t-1 -23q0 -59 32 -95.5t101 -36.5q39 0 70.5 13t55 36.5t39 56t22.5 71.5l79 447h113l-80 -456
q-24 -137 -105 -206.5t-210 -69.5z" />
    <glyph glyph-name="Udieresis" unicode="&#xdc;" horiz-adv-x="655" 
d="M487 779q-26 0 -45.5 19t-19.5 45q0 28 19.5 46t45.5 18q27 0 45.5 -18t18.5 -46q0 -26 -18.5 -45t-45.5 -19zM307 779q-26 0 -45 19t-19 45q0 28 19 46t45 18q28 0 46.5 -18t18.5 -46q0 -26 -18.5 -45t-46.5 -19zM268 -16q-48 0 -90 16t-73 45t-49 71t-18 93
q0 15 1.5 36t7.5 55l73 416h113l-77 -439q-3 -18 -4 -30t-1 -23q0 -59 32 -95.5t101 -36.5q39 0 70.5 13t55 36.5t39 56t22.5 71.5l79 447h113l-80 -456q-24 -137 -105 -206.5t-210 -69.5z" />
    <glyph glyph-name="Yacute" unicode="&#xdd;" horiz-adv-x="615" 
d="M189 0l59 333l-173 383h130l114 -264h6l202 264h139l-305 -383l-59 -333h-113zM316 772l71 132h127l-104 -132h-94z" />
    <glyph glyph-name="Thorn" unicode="&#xde;" horiz-adv-x="578" 
d="M8 0l127 716h113l-20 -115h126q45 0 83 -14.5t65.5 -40t43 -62t15.5 -79.5q0 -58 -20.5 -103.5t-56.5 -76.5t-85.5 -47.5t-108.5 -16.5h-140l-29 -161h-113zM307 269q29 0 54.5 7.5t44 22.5t29.5 38.5t11 56.5q0 45 -27 72t-72 27h-138l-39 -224h137z" />
    <glyph glyph-name="germandbls" unicode="&#xdf;" horiz-adv-x="574" 
d="M429 384q38 -19 63.5 -58t25.5 -96q0 -53 -20 -97t-55.5 -75.5t-83.5 -48.5t-104 -17q-20 0 -35 1t-29 3l18 104q14 -2 26.5 -3.5t24.5 -1.5q29 0 55.5 8.5t46 25t31 41t11.5 55.5q0 48 -28 77t-88 29h-29l18 102h23q25 0 48.5 7t41.5 21t29 34t11 47q0 39 -26.5 62
t-69.5 23q-51 0 -82.5 -32.5t-40.5 -83.5l-90 -511h-113l90 511q8 48 27.5 88.5t50 70t73.5 46t99 16.5q45 0 81 -14t61.5 -38t39 -56t13.5 -67q0 -33 -9 -59.5t-24.5 -47t-36 -35.5t-43.5 -25z" />
    <glyph glyph-name="agrave" unicode="&#xe0;" horiz-adv-x="523" 
d="M288 506q99 0 149.5 -45.5t50.5 -122.5q0 -12 -1.5 -25.5t-3.5 -27.5l-51 -285h-109l11 60h-6q-23 -32 -61 -54t-89 -22q-37 0 -67.5 11t-53 31t-35 48t-12.5 62q0 42 17.5 75.5t49 57.5t74.5 36.5t94 12.5q38 0 69.5 -8t60.5 -19l3 16q1 5 1.5 10.5t0.5 10.5
q0 38 -28.5 61t-75.5 23q-38 0 -68 -14.5t-56 -45.5l-80 57q38 48 94 72.5t122 24.5zM209 76q28 0 53 10.5t45 28t33.5 40.5t18.5 49q-12 6 -38.5 17.5t-76.5 11.5q-23 0 -44.5 -5.5t-38 -16t-26.5 -27.5t-10 -39q0 -34 25.5 -51.5t58.5 -17.5zM264 588l-56 132h123l23 -132
h-90z" />
    <glyph glyph-name="aacute" unicode="&#xe1;" horiz-adv-x="523" 
d="M288 506q99 0 149.5 -45.5t50.5 -122.5q0 -12 -1.5 -25.5t-3.5 -27.5l-51 -285h-109l11 60h-6q-23 -32 -61 -54t-89 -22q-37 0 -67.5 11t-53 31t-35 48t-12.5 62q0 42 17.5 75.5t49 57.5t74.5 36.5t94 12.5q38 0 69.5 -8t60.5 -19l3 16q1 5 1.5 10.5t0.5 10.5
q0 38 -28.5 61t-75.5 23q-38 0 -68 -14.5t-56 -45.5l-80 57q38 48 94 72.5t122 24.5zM209 76q28 0 53 10.5t45 28t33.5 40.5t18.5 49q-12 6 -38.5 17.5t-76.5 11.5q-23 0 -44.5 -5.5t-38 -16t-26.5 -27.5t-10 -39q0 -34 25.5 -51.5t58.5 -17.5zM245 588l71 132h127
l-104 -132h-94z" />
    <glyph glyph-name="acircumflex" unicode="&#xe2;" horiz-adv-x="523" 
d="M288 506q99 0 149.5 -45.5t50.5 -122.5q0 -12 -1.5 -25.5t-3.5 -27.5l-51 -285h-109l11 60h-6q-23 -32 -61 -54t-89 -22q-37 0 -67.5 11t-53 31t-35 48t-12.5 62q0 42 17.5 75.5t49 57.5t74.5 36.5t94 12.5q38 0 69.5 -8t60.5 -19l3 16q1 5 1.5 10.5t0.5 10.5
q0 38 -28.5 61t-75.5 23q-38 0 -68 -14.5t-56 -45.5l-80 57q38 48 94 72.5t122 24.5zM209 76q28 0 53 10.5t45 28t33.5 40.5t18.5 49q-12 6 -38.5 17.5t-76.5 11.5q-23 0 -44.5 -5.5t-38 -16t-26.5 -27.5t-10 -39q0 -34 25.5 -51.5t58.5 -17.5zM140 595l128 121h99l87 -121
l-2 -7h-101l-37 59h-10l-53 -59h-113z" />
    <glyph glyph-name="atilde" unicode="&#xe3;" horiz-adv-x="523" 
d="M288 506q99 0 149.5 -45.5t50.5 -122.5q0 -12 -1.5 -25.5t-3.5 -27.5l-51 -285h-109l11 60h-6q-23 -32 -61 -54t-89 -22q-37 0 -67.5 11t-53 31t-35 48t-12.5 62q0 42 17.5 75.5t49 57.5t74.5 36.5t94 12.5q38 0 69.5 -8t60.5 -19l3 16q1 5 1.5 10.5t0.5 10.5
q0 38 -28.5 61t-75.5 23q-38 0 -68 -14.5t-56 -45.5l-80 57q38 48 94 72.5t122 24.5zM209 76q28 0 53 10.5t45 28t33.5 40.5t18.5 49q-12 6 -38.5 17.5t-76.5 11.5q-23 0 -44.5 -5.5t-38 -16t-26.5 -27.5t-10 -39q0 -34 25.5 -51.5t58.5 -17.5zM379 592q-20 0 -36 7t-30 15
q-15 8 -29.5 15t-29.5 7q-28 0 -35 -32h-84q8 62 40.5 92t79.5 30q19 0 35.5 -7t31.5 -15t29 -15t29 -7q28 0 35 32h84q-8 -62 -40.5 -92t-79.5 -30z" />
    <glyph glyph-name="adieresis" unicode="&#xe4;" horiz-adv-x="523" 
d="M288 506q99 0 149.5 -45.5t50.5 -122.5q0 -12 -1.5 -25.5t-3.5 -27.5l-51 -285h-109l11 60h-6q-23 -32 -61 -54t-89 -22q-37 0 -67.5 11t-53 31t-35 48t-12.5 62q0 42 17.5 75.5t49 57.5t74.5 36.5t94 12.5q38 0 69.5 -8t60.5 -19l3 16q1 5 1.5 10.5t0.5 10.5
q0 38 -28.5 61t-75.5 23q-38 0 -68 -14.5t-56 -45.5l-80 57q38 48 94 72.5t122 24.5zM209 76q28 0 53 10.5t45 28t33.5 40.5t18.5 49q-12 6 -38.5 17.5t-76.5 11.5q-23 0 -44.5 -5.5t-38 -16t-26.5 -27.5t-10 -39q0 -34 25.5 -51.5t58.5 -17.5zM403 595q-26 0 -45.5 19
t-19.5 45q0 28 19.5 46t45.5 18q27 0 45.5 -18t18.5 -46q0 -26 -18.5 -45t-45.5 -19zM223 595q-26 0 -45 19t-19 45q0 28 19 46t45 18q28 0 46.5 -18t18.5 -46q0 -26 -18.5 -45t-46.5 -19z" />
    <glyph glyph-name="aring" unicode="&#xe5;" horiz-adv-x="523" 
d="M288 506q99 0 149.5 -45.5t50.5 -122.5q0 -12 -1.5 -25.5t-3.5 -27.5l-51 -285h-109l11 60h-6q-23 -32 -61 -54t-89 -22q-37 0 -67.5 11t-53 31t-35 48t-12.5 62q0 42 17.5 75.5t49 57.5t74.5 36.5t94 12.5q38 0 69.5 -8t60.5 -19l3 16q1 5 1.5 10.5t0.5 10.5
q0 38 -28.5 61t-75.5 23q-38 0 -68 -14.5t-56 -45.5l-80 57q38 48 94 72.5t122 24.5zM209 76q28 0 53 10.5t45 28t33.5 40.5t18.5 49q-12 6 -38.5 17.5t-76.5 11.5q-23 0 -44.5 -5.5t-38 -16t-26.5 -27.5t-10 -39q0 -34 25.5 -51.5t58.5 -17.5zM313 563q-22 0 -41.5 8.5
t-33.5 23t-22.5 33.5t-8.5 41q0 45 30.5 75.5t75.5 30.5q22 0 41 -8.5t33.5 -22.5t23 -33.5t8.5 -41.5t-8.5 -41t-23 -33.5t-33.5 -23t-41 -8.5zM313 629q16 0 27.5 12t11.5 28t-11.5 27.5t-27.5 11.5q-17 0 -28.5 -11.5t-11.5 -27.5t11.5 -28t28.5 -12z" />
    <glyph glyph-name="ae" unicode="&#xe6;" horiz-adv-x="904" 
d="M829 118q-42 -64 -101.5 -99t-137.5 -35q-72 0 -119 29.5t-73 77.5q-41 -51 -95 -79t-123 -28q-38 0 -69 11t-53.5 31t-35 48t-12.5 62q0 42 17.5 75.5t49 57.5t74.5 36.5t94 12.5q38 0 69.5 -8t60.5 -19l3 16q1 5 1.5 10.5t0.5 10.5q0 38 -28.5 61t-73.5 23
q-38 0 -71 -16.5t-50 -45.5l-86 44q33 54 87.5 83t133.5 29q60 0 101 -25t63 -63q38 41 85 64.5t109 23.5q52 0 92 -16.5t67 -44t40.5 -64.5t13.5 -79q0 -45 -11 -81h-378q-1 -6 -1 -10v-9q0 -30 11 -52.5t28.5 -37t39.5 -21.5t46 -7q49 0 85 21.5t61 58.5zM209 76
q28 0 53 10.5t45 28t33.5 40.5t18.5 49q-3 1 -12 6t-23 10t-34 9t-46 4q-23 0 -44.5 -5t-38 -16t-26.5 -27.5t-10 -39.5q0 -34 25.5 -51.5t58.5 -17.5zM756 306v7q0 19 -7.5 37t-21.5 31.5t-36 21.5t-50 8q-53 0 -92.5 -29.5t-55.5 -75.5h263z" />
    <glyph glyph-name="ccedilla" unicode="&#xe7;" horiz-adv-x="533" 
d="M195 -237q-34 0 -61 19.5t-33 46.5l62 25q2 -12 12 -21.5t24 -9.5q17 0 29 11t12 31q0 14 -8.5 23t-24.5 9q-18 0 -30 -15l-50 25l46 83q-38 9 -69 29t-53 49t-34 66.5t-12 79.5q0 61 21.5 114t61 92.5t94 62.5t120.5 23q44 0 78.5 -11.5t60.5 -31t43 -45.5t25 -54
l-106 -41q-12 38 -40.5 59t-74.5 21q-37 0 -68.5 -14t-54 -38t-35 -57t-12.5 -70q0 -30 9 -55t25 -43t38.5 -28.5t49.5 -10.5q48 0 82 21.5t58 60.5l93 -44q-45 -74 -102 -107t-140 -34l-19 -32q5 1 8.5 1.5t10.5 0.5q35 0 56 -24.5t21 -62.5q0 -47 -31 -75.5t-82 -28.5z
" />
    <glyph glyph-name="egrave" unicode="&#xe8;" horiz-adv-x="546" 
d="M471 118q-42 -64 -101.5 -99t-137.5 -35q-54 0 -96 18t-71 49t-44.5 72.5t-15.5 88.5q0 57 20.5 110t58 94t90.5 65.5t118 24.5q52 0 92 -16.5t67 -44t40.5 -64.5t13.5 -79q0 -45 -11 -81h-378q-1 -6 -1 -10v-9q0 -30 11 -52.5t28.5 -37t39.5 -21.5t46 -7q49 0 85 21.5
t61 58.5zM398 306v7q0 19 -7.5 37t-21.5 31.5t-36 21.5t-50 8q-55 0 -94.5 -29.5t-55.5 -75.5h265zM270 588l-56 132h123l23 -132h-90z" />
    <glyph glyph-name="eacute" unicode="&#xe9;" horiz-adv-x="546" 
d="M257 588l71 132h127l-104 -132h-94zM471 118q-42 -64 -101.5 -99t-137.5 -35q-54 0 -96 18t-71 49t-44.5 72.5t-15.5 88.5q0 57 20.5 110t58 94t90.5 65.5t118 24.5q52 0 92 -16.5t67 -44t40.5 -64.5t13.5 -79q0 -45 -11 -81h-378q-1 -6 -1 -10v-9q0 -30 11 -52.5
t28.5 -37t39.5 -21.5t46 -7q49 0 85 21.5t61 58.5zM398 306v7q0 19 -7.5 37t-21.5 31.5t-36 21.5t-50 8q-55 0 -94.5 -29.5t-55.5 -75.5h265z" />
    <glyph glyph-name="ecircumflex" unicode="&#xea;" horiz-adv-x="546" 
d="M160 586l128 121h99l87 -121l-2 -7h-101l-37 59h-10l-53 -59h-113zM471 118q-42 -64 -101.5 -99t-137.5 -35q-54 0 -96 18t-71 49t-44.5 72.5t-15.5 88.5q0 57 20.5 110t58 94t90.5 65.5t118 24.5q52 0 92 -16.5t67 -44t40.5 -64.5t13.5 -79q0 -45 -11 -81h-378
q-1 -6 -1 -10v-9q0 -30 11 -52.5t28.5 -37t39.5 -21.5t46 -7q49 0 85 21.5t61 58.5zM398 306v7q0 19 -7.5 37t-21.5 31.5t-36 21.5t-50 8q-55 0 -94.5 -29.5t-55.5 -75.5h265z" />
    <glyph glyph-name="edieresis" unicode="&#xeb;" horiz-adv-x="546" 
d="M412 595q-26 0 -45.5 19t-19.5 45q0 28 19.5 46t45.5 18q27 0 45.5 -18t18.5 -46q0 -26 -18.5 -45t-45.5 -19zM232 595q-26 0 -45 19t-19 45q0 28 19 46t45 18q28 0 46.5 -18t18.5 -46q0 -26 -18.5 -45t-46.5 -19zM471 118q-42 -64 -101.5 -99t-137.5 -35q-54 0 -96 18
t-71 49t-44.5 72.5t-15.5 88.5q0 57 20.5 110t58 94t90.5 65.5t118 24.5q52 0 92 -16.5t67 -44t40.5 -64.5t13.5 -79q0 -45 -11 -81h-378q-1 -6 -1 -10v-9q0 -30 11 -52.5t28.5 -37t39.5 -21.5t46 -7q49 0 85 21.5t61 58.5zM398 306v7q0 19 -7.5 37t-21.5 31.5t-36 21.5
t-50 8q-55 0 -94.5 -29.5t-55.5 -75.5h265z" />
    <glyph glyph-name="igrave" unicode="&#xec;" horiz-adv-x="239" 
d="M0 0l86 490h111l-86 -490h-111zM116 588l-56 132h123l23 -132h-90z" />
    <glyph glyph-name="iacute" unicode="&#xed;" horiz-adv-x="239" 
d="M110 588l71 132h127l-104 -132h-94zM0 0l86 490h111l-86 -490h-111z" />
    <glyph glyph-name="icircumflex" unicode="&#xee;" horiz-adv-x="239" 
d="M3 595l128 121h99l87 -121l-2 -7h-101l-37 59h-10l-53 -59h-113zM0 0l86 490h111l-86 -490h-111z" />
    <glyph glyph-name="idieresis" unicode="&#xef;" horiz-adv-x="239" 
d="M95 596q-26 0 -44.5 18.5t-18.5 44.5q0 27 18.5 45t44.5 18t44.5 -18t18.5 -45q0 -26 -18.5 -44.5t-44.5 -18.5zM247 596q-26 0 -44.5 18.5t-18.5 44.5q0 27 18.5 45t44.5 18t44.5 -18t18.5 -45q0 -26 -18.5 -44.5t-44.5 -18.5zM0 0l86 490h111l-86 -490h-111z" />
    <glyph glyph-name="eth" unicode="&#xf0;" horiz-adv-x="574" 
d="M412 435q-10 35 -28 64.5t-42 53.5l-126 -52l-28 69l83 34q-21 11 -44.5 19t-47.5 13l34 88q97 -22 166 -76l115 47l27 -68l-85 -35q44 -54 66.5 -122.5t22.5 -151.5q0 -65 -17.5 -125t-53 -106.5t-89.5 -74.5t-127 -28q-47 0 -87.5 16t-71 44.5t-48 68t-17.5 87.5
q0 56 20 105.5t56 87t86.5 59.5t110.5 22q41 0 70.5 -12.5t48.5 -31.5zM251 87q30 0 57.5 12.5t48.5 34t33.5 50.5t12.5 62q0 57 -30.5 91t-89.5 34q-34 0 -63 -13t-50 -35t-33 -51.5t-12 -63.5q0 -29 10 -51.5t27 -38t40 -23.5t49 -8z" />
    <glyph glyph-name="ntilde" unicode="&#xf1;" 
d="M173 424h6q25 37 67 59.5t96 22.5q37 0 66 -11.5t49.5 -32t31.5 -48.5t11 -61q0 -15 -1.5 -32t-5.5 -36l-50 -285h-112l51 288q2 8 3 17.5t1 17.5q0 38 -23.5 59t-65.5 21q-30 0 -54.5 -11.5t-43.5 -31.5t-31.5 -46.5t-17.5 -57.5l-46 -256h-111l86 490h105zM400 592
q-20 0 -36 7t-30 15q-15 8 -29.5 15t-29.5 7q-28 0 -35 -32h-84q8 62 40.5 92t79.5 30q19 0 35.5 -7t31.5 -15t29 -15t29 -7q28 0 35 32h84q-8 -62 -40.5 -92t-79.5 -30z" />
    <glyph glyph-name="ograve" unicode="&#xf2;" horiz-adv-x="568" 
d="M300 506q52 0 95 -18.5t73.5 -50t47 -73.5t16.5 -89q0 -62 -22 -115t-61.5 -92t-93.5 -61.5t-118 -22.5q-53 0 -95.5 18.5t-73 50t-47 73.5t-16.5 89q0 62 22 115t61.5 92t93.5 61.5t118 22.5zM248 87q39 0 70.5 14.5t54 39t34.5 56.5t12 68q0 30 -10 55.5t-28 44
t-41.5 28.5t-50.5 10q-39 0 -70.5 -14.5t-54 -39t-34.5 -56.5t-12 -68q0 -30 10 -55.5t28 -44t41.5 -28.5t50.5 -10zM273 588l-56 132h123l23 -132h-90z" />
    <glyph glyph-name="oacute" unicode="&#xf3;" horiz-adv-x="568" 
d="M271 588l71 132h127l-104 -132h-94zM300 506q52 0 95 -18.5t73.5 -50t47 -73.5t16.5 -89q0 -62 -22 -115t-61.5 -92t-93.5 -61.5t-118 -22.5q-53 0 -95.5 18.5t-73 50t-47 73.5t-16.5 89q0 62 22 115t61.5 92t93.5 61.5t118 22.5zM248 87q39 0 70.5 14.5t54 39t34.5 56.5
t12 68q0 30 -10 55.5t-28 44t-41.5 28.5t-50.5 10q-39 0 -70.5 -14.5t-54 -39t-34.5 -56.5t-12 -68q0 -30 10 -55.5t28 -44t41.5 -28.5t50.5 -10z" />
    <glyph glyph-name="ocircumflex" unicode="&#xf4;" horiz-adv-x="568" 
d="M166 595l128 121h99l87 -121l-2 -7h-101l-37 59h-10l-53 -59h-113zM300 506q52 0 95 -18.5t73.5 -50t47 -73.5t16.5 -89q0 -62 -22 -115t-61.5 -92t-93.5 -61.5t-118 -22.5q-53 0 -95.5 18.5t-73 50t-47 73.5t-16.5 89q0 62 22 115t61.5 92t93.5 61.5t118 22.5zM248 87
q39 0 70.5 14.5t54 39t34.5 56.5t12 68q0 30 -10 55.5t-28 44t-41.5 28.5t-50.5 10q-39 0 -70.5 -14.5t-54 -39t-34.5 -56.5t-12 -68q0 -30 10 -55.5t28 -44t41.5 -28.5t50.5 -10z" />
    <glyph glyph-name="otilde" unicode="&#xf5;" horiz-adv-x="568" 
d="M300 506q52 0 95 -18.5t73.5 -50t47 -73.5t16.5 -89q0 -62 -22 -115t-61.5 -92t-93.5 -61.5t-118 -22.5q-53 0 -95.5 18.5t-73 50t-47 73.5t-16.5 89q0 62 22 115t61.5 92t93.5 61.5t118 22.5zM248 87q39 0 70.5 14.5t54 39t34.5 56.5t12 68q0 30 -10 55.5t-28 44
t-41.5 28.5t-50.5 10q-39 0 -70.5 -14.5t-54 -39t-34.5 -56.5t-12 -68q0 -30 10 -55.5t28 -44t41.5 -28.5t50.5 -10zM397 592q-20 0 -36 7t-30 15q-15 8 -29.5 15t-29.5 7q-28 0 -35 -32h-84q8 62 40.5 92t79.5 30q19 0 35.5 -7t31.5 -15t29 -15t29 -7q28 0 35 32h84
q-8 -62 -40.5 -92t-79.5 -30z" />
    <glyph glyph-name="odieresis" unicode="&#xf6;" horiz-adv-x="568" 
d="M425 595q-26 0 -45.5 19t-19.5 45q0 28 19.5 46t45.5 18q27 0 45.5 -18t18.5 -46q0 -26 -18.5 -45t-45.5 -19zM245 595q-26 0 -45 19t-19 45q0 28 19 46t45 18q28 0 46.5 -18t18.5 -46q0 -26 -18.5 -45t-46.5 -19zM300 506q52 0 95 -18.5t73.5 -50t47 -73.5t16.5 -89
q0 -62 -22 -115t-61.5 -92t-93.5 -61.5t-118 -22.5q-53 0 -95.5 18.5t-73 50t-47 73.5t-16.5 89q0 62 22 115t61.5 92t93.5 61.5t118 22.5zM248 87q39 0 70.5 14.5t54 39t34.5 56.5t12 68q0 30 -10 55.5t-28 44t-41.5 28.5t-50.5 10q-39 0 -70.5 -14.5t-54 -39t-34.5 -56.5
t-12 -68q0 -30 10 -55.5t28 -44t41.5 -28.5t50.5 -10z" />
    <glyph glyph-name="divide" unicode="&#xf7;" horiz-adv-x="559" 
d="M32 225l17 92h447l-16 -92h-448zM231 6q-32 0 -53.5 21.5t-21.5 53.5t21.5 53.5t53.5 21.5t53.5 -21.5t21.5 -53.5t-21.5 -53.5t-53.5 -21.5zM298 386q-32 0 -53.5 21.5t-21.5 53.5t21.5 53.5t53.5 21.5q31 0 53 -21.5t22 -53.5t-22 -53.5t-53 -21.5z" />
    <glyph glyph-name="oslash" unicode="&#xf8;" horiz-adv-x="568" 
d="M36 8l34 42q-32 32 -48.5 74.5t-16.5 90.5q0 62 22 115t61.5 92t93.5 61.5t118 22.5q32 0 60.5 -7t52.5 -20l45 56l66 -53l-45 -56q26 -31 39.5 -69.5t13.5 -81.5q0 -62 -22 -115t-61.5 -92t-93.5 -61.5t-118 -22.5q-27 0 -51 5t-46 14l-36 -46zM118 225q0 -48 25 -84
l200 250q-26 12 -54 12q-39 0 -70.5 -14.5t-54 -39t-34.5 -56.5t-12 -68zM248 87q39 0 70.5 14.5t54 39t34.5 56.5t12 68q0 35 -16 67l-192 -240q9 -3 18 -4t19 -1z" />
    <glyph glyph-name="ugrave" unicode="&#xf9;" 
d="M346 66h-6q-25 -37 -67 -59.5t-96 -22.5q-37 0 -66 11.5t-49.5 32t-31.5 48.5t-11 61q0 15 1.5 30.5t5.5 37.5l50 285h112l-51 -288q-2 -13 -3 -20t-1 -15q0 -38 23.5 -59t65.5 -21q30 0 54.5 11.5t43.5 31.5t31.5 46.5t17.5 57.5l46 256h111l-86 -490h-105zM279 588
l-56 132h123l23 -132h-90z" />
    <glyph glyph-name="uacute" unicode="&#xfa;" 
d="M262 588l71 132h127l-104 -132h-94zM346 66h-6q-25 -37 -67 -59.5t-96 -22.5q-37 0 -66 11.5t-49.5 32t-31.5 48.5t-11 61q0 15 1.5 30.5t5.5 37.5l50 285h112l-51 -288q-2 -13 -3 -20t-1 -15q0 -38 23.5 -59t65.5 -21q30 0 54.5 11.5t43.5 31.5t31.5 46.5t17.5 57.5
l46 256h111l-86 -490h-105z" />
    <glyph glyph-name="ucircumflex" unicode="&#xfb;" 
d="M163 580l128 121h99l87 -121l-2 -7h-101l-37 59h-10l-53 -59h-113zM346 66h-6q-25 -37 -67 -59.5t-96 -22.5q-37 0 -66 11.5t-49.5 32t-31.5 48.5t-11 61q0 15 1.5 30.5t5.5 37.5l50 285h112l-51 -288q-2 -13 -3 -20t-1 -15q0 -38 23.5 -59t65.5 -21q30 0 54.5 11.5
t43.5 31.5t31.5 46.5t17.5 57.5l46 256h111l-86 -490h-105z" />
    <glyph glyph-name="udieresis" unicode="&#xfc;" 
d="M422 596q-26 0 -45.5 19t-19.5 45q0 28 19.5 46t45.5 18q27 0 45.5 -18t18.5 -46q0 -26 -18.5 -45t-45.5 -19zM242 596q-26 0 -45 19t-19 45q0 28 19 46t45 18q28 0 46.5 -18t18.5 -46q0 -26 -18.5 -45t-46.5 -19zM346 66h-6q-25 -37 -67 -59.5t-96 -22.5q-37 0 -66 11.5
t-49.5 32t-31.5 48.5t-11 61q0 15 1.5 30.5t5.5 37.5l50 285h112l-51 -288q-2 -13 -3 -20t-1 -15q0 -38 23.5 -59t65.5 -21q30 0 54.5 11.5t43.5 31.5t31.5 46.5t17.5 57.5l46 256h111l-86 -490h-105z" />
    <glyph glyph-name="yacute" unicode="&#xfd;" horiz-adv-x="526" 
d="M6 -216l155 246l-122 460h122l79 -325h4l190 325h124l-432 -706h-120zM254 588l71 132h127l-104 -132h-94z" />
    <glyph glyph-name="thorn" unicode="&#xfe;" horiz-adv-x="588" 
d="M360 506q43 0 80.5 -16.5t64.5 -46.5t42.5 -72.5t15.5 -94.5q0 -57 -21 -110t-58 -93.5t-89 -64.5t-113 -24q-49 0 -89.5 23t-59.5 56h-6l-6 -68l-37 -211h-111l164 932h111l-39 -221l-18 -68h6q23 31 62 55t101 24zM284 87q36 0 66 14t52.5 39t35 57.5t12.5 70.5
q0 63 -33.5 99t-93.5 36q-35 0 -65 -14.5t-53 -39.5t-36 -58.5t-13 -71.5q0 -63 36 -97.5t92 -34.5z" />
    <glyph glyph-name="ydieresis" unicode="&#xff;" horiz-adv-x="526" 
d="M6 -216l155 246l-122 460h122l79 -325h4l190 325h124l-432 -706h-120zM405 595q-26 0 -45.5 19t-19.5 45q0 28 19.5 46t45.5 18q27 0 45.5 -18t18.5 -46q0 -26 -18.5 -45t-45.5 -19zM225 595q-26 0 -45 19t-19 45q0 28 19 46t45 18q28 0 46.5 -18t18.5 -46
q0 -26 -18.5 -45t-46.5 -19z" />
    <glyph glyph-name="Amacron" unicode="&#x100;" horiz-adv-x="692" 
d="M342 716h131l143 -716h-121l-33 184h-287l-97 -184h-129zM442 287l-39 211l-13 84h-6l-42 -84l-112 -211h212zM269 800l15 86h288l-15 -86h-288z" />
    <glyph glyph-name="amacron" unicode="&#x101;" horiz-adv-x="523" 
d="M288 506q99 0 149.5 -45.5t50.5 -122.5q0 -12 -1.5 -25.5t-3.5 -27.5l-51 -285h-109l11 60h-6q-23 -32 -61 -54t-89 -22q-37 0 -67.5 11t-53 31t-35 48t-12.5 62q0 42 17.5 75.5t49 57.5t74.5 36.5t94 12.5q38 0 69.5 -8t60.5 -19l3 16q1 5 1.5 10.5t0.5 10.5
q0 38 -28.5 61t-75.5 23q-38 0 -68 -14.5t-56 -45.5l-80 57q38 48 94 72.5t122 24.5zM209 76q28 0 53 10.5t45 28t33.5 40.5t18.5 49q-12 6 -38.5 17.5t-76.5 11.5q-23 0 -44.5 -5.5t-38 -16t-26.5 -27.5t-10 -39q0 -34 25.5 -51.5t58.5 -17.5zM168 616l15 86h288l-15 -86
h-288z" />
    <glyph glyph-name="Abreve" unicode="&#x102;" horiz-adv-x="692" 
d="M342 716h131l143 -716h-121l-33 184h-287l-97 -184h-129zM442 287l-39 211l-13 84h-6l-42 -84l-112 -211h212zM416 767q-24 0 -45 8t-37 22.5t-25 34t-9 43.5q0 6 0.5 11t1.5 11h84q-1 -4 -1 -10q0 -17 10 -29t31 -12q23 0 38 14t20 37h82q-11 -66 -50.5 -98t-99.5 -32z
" />
    <glyph glyph-name="abreve" unicode="&#x103;" horiz-adv-x="523" 
d="M288 506q99 0 149.5 -45.5t50.5 -122.5q0 -12 -1.5 -25.5t-3.5 -27.5l-51 -285h-109l11 60h-6q-23 -32 -61 -54t-89 -22q-37 0 -67.5 11t-53 31t-35 48t-12.5 62q0 42 17.5 75.5t49 57.5t74.5 36.5t94 12.5q38 0 69.5 -8t60.5 -19l3 16q1 5 1.5 10.5t0.5 10.5
q0 38 -28.5 61t-75.5 23q-38 0 -68 -14.5t-56 -45.5l-80 57q38 48 94 72.5t122 24.5zM209 76q28 0 53 10.5t45 28t33.5 40.5t18.5 49q-12 6 -38.5 17.5t-76.5 11.5q-23 0 -44.5 -5.5t-38 -16t-26.5 -27.5t-10 -39q0 -34 25.5 -51.5t58.5 -17.5zM307 583q-24 0 -45 8
t-37 22.5t-25 34t-9 43.5q0 6 0.5 11t1.5 11h84q-1 -4 -1 -10q0 -17 10 -29t31 -12q23 0 38 14t20 37h82q-11 -66 -50.5 -98t-99.5 -32z" />
    <glyph glyph-name="Aogonek" unicode="&#x104;" horiz-adv-x="692" 
d="M538 -224q-51 0 -80.5 27t-29.5 68q0 40 19 69.5t56 57.5l-1 2h-7l-33 184h-287l-97 -184h-129l393 716h131l143 -716q-14 -8 -29.5 -19.5t-28.5 -25.5t-21.5 -29.5t-8.5 -30.5q0 -17 10 -25t25 -8q13 0 27 5l20 -76q-15 -8 -34 -11.5t-38 -3.5zM442 287l-39 211l-13 84
h-6l-42 -84l-112 -211h212z" />
    <glyph glyph-name="aogonek" unicode="&#x105;" horiz-adv-x="523" 
d="M353 -224q-51 0 -80.5 27t-29.5 68q0 39 21.5 71.5t60.5 54.5l-2 3l11 60h-6q-23 -32 -61 -54t-89 -22q-37 0 -67.5 11t-53 31t-35 48t-12.5 62q0 42 17.5 75.5t49 57.5t74.5 36.5t94 12.5q38 0 69.5 -8t60.5 -19l3 16q1 5 1.5 10.5t0.5 10.5q0 38 -28.5 61t-75.5 23
q-38 0 -68 -14.5t-56 -45.5l-80 57q38 48 93.5 72.5t122.5 24.5q99 0 149.5 -45.5t50.5 -122.5q0 -12 -1.5 -25.5t-3.5 -27.5l-51 -285q-14 -8 -29.5 -19.5t-28.5 -25.5t-21.5 -29.5t-8.5 -30.5q0 -17 10 -25t25 -8q13 0 26 5l21 -76q-16 -8 -35 -11.5t-38 -3.5zM209 76
q28 0 53 10.5t45 28t33.5 40.5t18.5 49q-12 6 -38.5 17.5t-76.5 11.5q-23 0 -44.5 -5.5t-38 -16t-26.5 -27.5t-10 -39q0 -34 25.5 -51.5t58.5 -17.5z" />
    <glyph glyph-name="Cacute" unicode="&#x106;" horiz-adv-x="732" 
d="M416 772l71 132h127l-104 -132h-94zM657 111q-34 -33 -68 -57t-71 -39.5t-78 -23t-89 -7.5q-68 0 -126.5 23t-101.5 65.5t-67.5 103t-24.5 135.5q0 84 32 160t89.5 134t136.5 92.5t174 34.5q87 0 152 -34t100 -87l-90 -75q-32 44 -73 66t-103 22q-63 0 -118.5 -25
t-96.5 -67t-65 -98t-24 -118q0 -51 16.5 -92.5t45.5 -71t69.5 -45t87.5 -15.5q38 0 68.5 8t56.5 21.5t49 32.5t47 40z" />
    <glyph glyph-name="cacute" unicode="&#x107;" horiz-adv-x="533" 
d="M261 588l71 132h127l-104 -132h-94zM231 -16q-50 0 -91.5 17t-71.5 48t-46.5 73t-16.5 92q0 61 21.5 114t61 92.5t94 62.5t120.5 23q44 0 78.5 -11.5t60.5 -31t43 -45.5t25 -54l-106 -41q-12 38 -40.5 59t-74.5 21q-37 0 -68.5 -14t-54 -38t-35 -57t-12.5 -70
q0 -30 9 -55t25 -43t38.5 -28.5t49.5 -10.5q48 0 82 21.5t58 60.5l93 -44q-46 -74 -102.5 -107.5t-139.5 -33.5z" />
    <glyph glyph-name="Ccircumflex" unicode="&#x108;" horiz-adv-x="732" 
d="M309 780l128 121h99l87 -121l-2 -7h-101l-37 59h-10l-53 -59h-113zM657 111q-34 -33 -68 -57t-71 -39.5t-78 -23t-89 -7.5q-68 0 -126.5 23t-101.5 65.5t-67.5 103t-24.5 135.5q0 84 32 160t89.5 134t136.5 92.5t174 34.5q87 0 152 -34t100 -87l-90 -75q-32 44 -73 66
t-103 22q-63 0 -118.5 -25t-96.5 -67t-65 -98t-24 -118q0 -51 16.5 -92.5t45.5 -71t69.5 -45t87.5 -15.5q38 0 68.5 8t56.5 21.5t49 32.5t47 40z" />
    <glyph glyph-name="ccircumflex" unicode="&#x109;" horiz-adv-x="533" 
d="M162 595l128 121h99l87 -121l-2 -7h-101l-37 59h-10l-53 -59h-113zM231 -16q-50 0 -91.5 17t-71.5 48t-46.5 73t-16.5 92q0 61 21.5 114t61 92.5t94 62.5t120.5 23q44 0 78.5 -11.5t60.5 -31t43 -45.5t25 -54l-106 -41q-12 38 -40.5 59t-74.5 21q-37 0 -68.5 -14t-54 -38
t-35 -57t-12.5 -70q0 -30 9 -55t25 -43t38.5 -28.5t49.5 -10.5q48 0 82 21.5t58 60.5l93 -44q-46 -74 -102.5 -107.5t-139.5 -33.5z" />
    <glyph glyph-name="Cdotaccent" unicode="&#x10a;" horiz-adv-x="732" 
d="M483 795q-25 0 -43.5 18t-18.5 43q0 26 18.5 43.5t43.5 17.5q26 0 43.5 -17.5t17.5 -43.5q0 -25 -17.5 -43t-43.5 -18zM657 111q-34 -33 -68 -57t-71 -39.5t-78 -23t-89 -7.5q-68 0 -126.5 23t-101.5 65.5t-67.5 103t-24.5 135.5q0 84 32 160t89.5 134t136.5 92.5
t174 34.5q87 0 152 -34t100 -87l-90 -75q-32 44 -73 66t-103 22q-63 0 -118.5 -25t-96.5 -67t-65 -98t-24 -118q0 -51 16.5 -92.5t45.5 -71t69.5 -45t87.5 -15.5q38 0 68.5 8t56.5 21.5t49 32.5t47 40z" />
    <glyph glyph-name="cdotaccent" unicode="&#x10b;" horiz-adv-x="533" 
d="M231 -16q-50 0 -91.5 17t-71.5 48t-46.5 73t-16.5 92q0 61 21.5 114t61 92.5t94 62.5t120.5 23q44 0 78.5 -11.5t60.5 -31t43 -45.5t25 -54l-106 -41q-12 38 -40.5 59t-74.5 21q-37 0 -68.5 -14t-54 -38t-35 -57t-12.5 -70q0 -30 9 -55t25 -43t38.5 -28.5t49.5 -10.5
q48 0 82 21.5t58 60.5l93 -44q-46 -74 -102.5 -107.5t-139.5 -33.5zM330 589q-27 0 -46.5 19.5t-19.5 46.5q0 29 19.5 47.5t46.5 18.5q29 0 47.5 -18.5t18.5 -47.5q0 -27 -18.5 -46.5t-47.5 -19.5z" />
    <glyph glyph-name="Ccaron" unicode="&#x10c;" horiz-adv-x="732" 
d="M635 899l-128 -121h-99l-87 121l2 7h101l37 -59h10l53 59h113zM657 111q-34 -33 -68 -57t-71 -39.5t-78 -23t-89 -7.5q-68 0 -126.5 23t-101.5 65.5t-67.5 103t-24.5 135.5q0 84 32 160t89.5 134t136.5 92.5t174 34.5q87 0 152 -34t100 -87l-90 -75q-32 44 -73 66
t-103 22q-63 0 -118.5 -25t-96.5 -67t-65 -98t-24 -118q0 -51 16.5 -92.5t45.5 -71t69.5 -45t87.5 -15.5q38 0 68.5 8t56.5 21.5t49 32.5t47 40z" />
    <glyph glyph-name="ccaron" unicode="&#x10d;" horiz-adv-x="533" 
d="M502 709l-128 -121h-99l-87 121l2 7h101l37 -59h10l53 59h113zM231 -16q-50 0 -91.5 17t-71.5 48t-46.5 73t-16.5 92q0 61 21.5 114t61 92.5t94 62.5t120.5 23q44 0 78.5 -11.5t60.5 -31t43 -45.5t25 -54l-106 -41q-12 38 -40.5 59t-74.5 21q-37 0 -68.5 -14t-54 -38
t-35 -57t-12.5 -70q0 -30 9 -55t25 -43t38.5 -28.5t49.5 -10.5q48 0 82 21.5t58 60.5l93 -44q-46 -74 -102.5 -107.5t-139.5 -33.5z" />
    <glyph glyph-name="Dcaron" unicode="&#x10e;" horiz-adv-x="705" 
d="M545 893l-128 -121h-99l-87 121l2 7h101l37 -59h10l53 59h113zM135 716h223q78 0 137 -23.5t99 -65.5t60.5 -99t20.5 -124q0 -79 -28 -152t-82.5 -129t-134 -89.5t-181.5 -33.5h-241zM255 108q67 0 123 23t96.5 62.5t62.5 92.5t22 114q0 98 -55 153t-161 55h-114
l-88 -500h114z" />
    <glyph glyph-name="dcaron" unicode="&#x10f;" horiz-adv-x="686" 
d="M616 501l38 215h119l-78 -215h-79zM208 -16q-44 0 -81 16.5t-64 46.5t-42.5 72.5t-15.5 94.5q0 57 21 109.5t58 93t88.5 65t112.5 24.5q50 0 90 -23t60 -56h6l5 68l39 221h112l-126 -716h-106l11 63h-6q-23 -31 -62 -55t-100 -24zM284 403q-36 0 -66 -14t-52.5 -39
t-35 -58t-12.5 -70q0 -63 33.5 -99t93.5 -36q34 0 64.5 14.5t53.5 39.5t36 58.5t13 71.5q0 63 -36.5 97.5t-91.5 34.5z" />
    <glyph glyph-name="Dcroat" unicode="&#x110;" horiz-adv-x="702" 
d="M63 327h-75l15 90h76l54 299h223q78 0 137 -23.5t99 -65.5t60.5 -99t20.5 -124q0 -79 -28 -152t-82.5 -129t-134 -89.5t-181.5 -33.5h-241zM253 108q67 0 123 22.5t96.5 62t62.5 93t22 114.5q0 98 -55 153t-161 55h-114l-34 -191h182l-16 -90h-182l-38 -219h114z" />
    <glyph glyph-name="dcroat" unicode="&#x111;" horiz-adv-x="586" 
d="M208 -16q-44 0 -81 16.5t-64 46.5t-42.5 72.5t-15.5 94.5q0 57 21 109.5t58 93t88.5 65t112.5 24.5q50 0 90 -23t60 -56h6l5 68l13 72h-140l14 82h140l12 67h112l-13 -67h61l-15 -82h-59l-100 -567h-106l11 63h-6q-23 -31 -62 -55t-100 -24zM284 403q-36 0 -66 -14
t-52.5 -39t-35 -58t-12.5 -70q0 -63 33.5 -99t93.5 -36q34 0 64.5 14.5t53.5 39.5t36 58.5t13 71.5q0 63 -36.5 97.5t-91.5 34.5z" />
    <glyph glyph-name="Emacron" unicode="&#x112;" horiz-adv-x="560" 
d="M229 608l-35 -197h291l-19 -106h-291l-34 -197h322l-19 -108h-436l127 716h436l-19 -108h-323zM212 800l15 86h288l-15 -86h-288z" />
    <glyph glyph-name="emacron" unicode="&#x113;" horiz-adv-x="546" 
d="M471 118q-42 -64 -101.5 -99t-137.5 -35q-54 0 -96 18t-71 49t-44.5 72.5t-15.5 88.5q0 57 20.5 110t58 94t90.5 65.5t118 24.5q52 0 92 -16.5t67 -44t40.5 -64.5t13.5 -79q0 -45 -11 -81h-378q-1 -6 -1 -10v-9q0 -30 11 -52.5t28.5 -37t39.5 -21.5t46 -7q49 0 85 21.5
t61 58.5zM398 306v7q0 19 -7.5 37t-21.5 31.5t-36 21.5t-50 8q-55 0 -94.5 -29.5t-55.5 -75.5h265zM178 616l15 86h288l-15 -86h-288z" />
    <glyph glyph-name="Ebreve" unicode="&#x114;" horiz-adv-x="560" 
d="M229 608l-35 -197h291l-19 -106h-291l-34 -197h322l-19 -108h-436l127 716h436l-19 -108h-323zM352 767q-24 0 -45 8t-37 22.5t-25 34t-9 43.5q0 6 0.5 11t1.5 11h84q-1 -4 -1 -10q0 -17 10 -29t31 -12q23 0 38 14t20 37h82q-11 -66 -50.5 -98t-99.5 -32z" />
    <glyph glyph-name="ebreve" unicode="&#x115;" horiz-adv-x="546" 
d="M471 118q-42 -64 -101.5 -99t-137.5 -35q-54 0 -96 18t-71 49t-44.5 72.5t-15.5 88.5q0 57 20.5 110t58 94t90.5 65.5t118 24.5q52 0 92 -16.5t67 -44t40.5 -64.5t13.5 -79q0 -45 -11 -81h-378q-1 -6 -1 -10v-9q0 -30 11 -52.5t28.5 -37t39.5 -21.5t46 -7q49 0 85 21.5
t61 58.5zM398 306v7q0 19 -7.5 37t-21.5 31.5t-36 21.5t-50 8q-55 0 -94.5 -29.5t-55.5 -75.5h265zM319 583q-24 0 -45 8t-37 22.5t-25 34t-9 43.5q0 6 0.5 11t1.5 11h84q-1 -4 -1 -10q0 -17 10 -29t31 -12q23 0 38 14t20 37h82q-11 -66 -50.5 -98t-99.5 -32z" />
    <glyph glyph-name="Edotaccent" unicode="&#x116;" horiz-adv-x="560" 
d="M380 795q-25 0 -43.5 18t-18.5 43q0 26 18.5 43.5t43.5 17.5q26 0 43.5 -17.5t17.5 -43.5q0 -25 -17.5 -43t-43.5 -18zM229 608l-35 -197h291l-19 -106h-291l-34 -197h322l-19 -108h-436l127 716h436l-19 -108h-323z" />
    <glyph glyph-name="edotaccent" unicode="&#x117;" horiz-adv-x="546" 
d="M471 118q-42 -64 -101.5 -99t-137.5 -35q-54 0 -96 18t-71 49t-44.5 72.5t-15.5 88.5q0 57 20.5 110t58 94t90.5 65.5t118 24.5q52 0 92 -16.5t67 -44t40.5 -64.5t13.5 -79q0 -45 -11 -81h-378q-1 -6 -1 -10v-9q0 -30 11 -52.5t28.5 -37t39.5 -21.5t46 -7q49 0 85 21.5
t61 58.5zM398 306v7q0 19 -7.5 37t-21.5 31.5t-36 21.5t-50 8q-55 0 -94.5 -29.5t-55.5 -75.5h265zM329 589q-27 0 -46.5 19.5t-19.5 46.5q0 29 19.5 47.5t46.5 18.5q29 0 47.5 -18.5t18.5 -47.5q0 -27 -18.5 -46.5t-47.5 -19.5z" />
    <glyph glyph-name="Eogonek" unicode="&#x118;" horiz-adv-x="560" 
d="M366 -224q-51 0 -80.5 27t-29.5 68t22.5 73.5t60.5 55.5h-331l127 716h436l-19 -108h-323l-35 -197h291l-19 -106h-291l-34 -197h322l-19 -108q-14 -8 -29.5 -19.5t-28.5 -25.5t-21.5 -29.5t-8.5 -30.5q0 -17 10 -25t25 -8q13 0 27 5l20 -76q-15 -8 -34 -11.5t-38 -3.5z
" />
    <glyph glyph-name="eogonek" unicode="&#x119;" horiz-adv-x="546" 
d="M257 -224q-51 0 -80.5 27t-29.5 68q0 33 16 62t45 52q-48 4 -85.5 23t-64 49.5t-40 70t-13.5 84.5q0 57 20.5 110t58 94t90.5 65.5t118 24.5q52 0 92 -16.5t67 -44t40.5 -64.5t13.5 -79q0 -45 -11 -81h-378q-1 -6 -1 -10v-9q0 -30 11 -52.5t28.5 -37t39.5 -21.5t46 -7
q49 0 85 21.5t61 58.5l85 -46q-25 -38 -55.5 -66t-69.5 -46q-40 -19 -69 -49t-29 -62q0 -17 10 -25t25 -8q13 0 26 5l21 -76q-16 -8 -35 -11.5t-38 -3.5zM398 306v7q0 19 -7.5 37t-21.5 31.5t-36 21.5t-50 8q-55 0 -94.5 -29.5t-55.5 -75.5h265z" />
    <glyph glyph-name="Ecaron" unicode="&#x11a;" horiz-adv-x="560" 
d="M532 893l-128 -121h-99l-87 121l2 7h101l37 -59h10l53 59h113zM229 608l-35 -197h291l-19 -106h-291l-34 -197h322l-19 -108h-436l127 716h436l-19 -108h-323z" />
    <glyph glyph-name="ecaron" unicode="&#x11b;" horiz-adv-x="546" 
d="M491 709l-128 -121h-99l-87 121l2 7h101l37 -59h10l53 59h113zM471 118q-42 -64 -101.5 -99t-137.5 -35q-54 0 -96 18t-71 49t-44.5 72.5t-15.5 88.5q0 57 20.5 110t58 94t90.5 65.5t118 24.5q52 0 92 -16.5t67 -44t40.5 -64.5t13.5 -79q0 -45 -11 -81h-378q-1 -6 -1 -10
v-9q0 -30 11 -52.5t28.5 -37t39.5 -21.5t46 -7q49 0 85 21.5t61 58.5zM398 306v7q0 19 -7.5 37t-21.5 31.5t-36 21.5t-50 8q-55 0 -94.5 -29.5t-55.5 -75.5h265z" />
    <glyph glyph-name="Gcircumflex" unicode="&#x11c;" horiz-adv-x="806" 
d="M311 780l128 121h99l87 -121l-2 -7h-101l-37 59h-10l-53 -59h-113zM416 388h349v-22t-2 -25q-8 -78 -37.5 -139.5t-78.5 -109.5q-54 -53 -124.5 -80.5t-158.5 -27.5q-69 0 -130 23.5t-106 67t-71 105.5t-26 138q0 83 31.5 158t88.5 132t137 90.5t178 33.5q85 0 152 -30.5
t105 -82.5l-91 -78q-25 38 -72.5 60.5t-107.5 22.5q-64 0 -120 -22.5t-97 -62t-65 -95t-24 -121.5q0 -55 18 -98t49 -72.5t72.5 -45t88.5 -15.5q59 0 107.5 19.5t83.5 53.5q26 25 41.5 54.5t26.5 66.5h-235z" />
    <glyph glyph-name="gcircumflex" unicode="&#x11d;" horiz-adv-x="587" 
d="M165 595l128 121h99l87 -121l-2 -7h-101l-37 59h-10l-53 -59h-113zM202 -232q-47 0 -84 13.5t-63 34.5t-42 47t-22 52l108 40q8 -39 37.5 -63t74.5 -24q72 0 116.5 40t57.5 114l8 44h-6q-23 -35 -64.5 -56t-95.5 -21q-43 0 -80 15.5t-64.5 45t-43 72t-15.5 95.5
q0 52 19 103.5t55 93t87.5 67t116.5 25.5q54 0 92 -22t57 -55h6l11 61h106l-86 -485q-11 -61 -36 -105.5t-62 -74t-85 -43.5t-103 -14zM260 91q34 0 65 14.5t53.5 40t36 60t13.5 73.5q0 31 -10 54.5t-26.5 39.5t-39 24t-46.5 8q-39 0 -70.5 -16t-53.5 -41.5t-34 -58.5
t-12 -67q0 -65 36 -98t88 -33z" />
    <glyph glyph-name="Gbreve" unicode="&#x11e;" horiz-adv-x="806" 
d="M416 388h349v-22t-2 -25q-8 -78 -37.5 -139.5t-78.5 -109.5q-54 -53 -124.5 -80.5t-158.5 -27.5q-69 0 -130 23.5t-106 67t-71 105.5t-26 138q0 83 31.5 158t88.5 132t137 90.5t178 33.5q85 0 152 -30.5t105 -82.5l-91 -78q-25 38 -72.5 60.5t-107.5 22.5
q-64 0 -120 -22.5t-97 -62t-65 -95t-24 -121.5q0 -55 18 -98t49 -72.5t72.5 -45t88.5 -15.5q59 0 107.5 19.5t83.5 53.5q26 25 41.5 54.5t26.5 66.5h-235zM471 767q-24 0 -45 8t-37 22.5t-25 34t-9 43.5q0 6 0.5 11t1.5 11h84q-1 -4 -1 -10q0 -17 10 -29t31 -12q23 0 38 14
t20 37h82q-11 -66 -50.5 -98t-99.5 -32z" />
    <glyph glyph-name="gbreve" unicode="&#x11f;" horiz-adv-x="587" 
d="M202 -232q-47 0 -84 13.5t-63 34.5t-42 47t-22 52l108 40q8 -39 37.5 -63t74.5 -24q72 0 116.5 40t57.5 114l8 44h-6q-23 -35 -64.5 -56t-95.5 -21q-43 0 -80 15.5t-64.5 45t-43 72t-15.5 95.5q0 52 19 103.5t55 93t87.5 67t116.5 25.5q54 0 92 -22t57 -55h6l11 61h106
l-86 -485q-11 -61 -36 -105.5t-62 -74t-85 -43.5t-103 -14zM260 91q34 0 65 14.5t53.5 40t36 60t13.5 73.5q0 31 -10 54.5t-26.5 39.5t-39 24t-46.5 8q-39 0 -70.5 -16t-53.5 -41.5t-34 -58.5t-12 -67q0 -65 36 -98t88 -33zM339 583q-24 0 -45 8t-37 22.5t-25 34t-9 43.5
q0 6 0.5 11t1.5 11h84q-1 -4 -1 -10q0 -17 10 -29t31 -12q23 0 38 14t20 37h82q-11 -66 -50.5 -98t-99.5 -32z" />
    <glyph glyph-name="Gdotaccent" unicode="&#x120;" horiz-adv-x="806" 
d="M487 795q-25 0 -43.5 18t-18.5 43q0 26 18.5 43.5t43.5 17.5q26 0 43.5 -17.5t17.5 -43.5q0 -25 -17.5 -43t-43.5 -18zM416 388h349v-22t-2 -25q-8 -78 -37.5 -139.5t-78.5 -109.5q-54 -53 -124.5 -80.5t-158.5 -27.5q-69 0 -130 23.5t-106 67t-71 105.5t-26 138
q0 83 31.5 158t88.5 132t137 90.5t178 33.5q85 0 152 -30.5t105 -82.5l-91 -78q-25 38 -72.5 60.5t-107.5 22.5q-64 0 -120 -22.5t-97 -62t-65 -95t-24 -121.5q0 -55 18 -98t49 -72.5t72.5 -45t88.5 -15.5q59 0 107.5 19.5t83.5 53.5q26 25 41.5 54.5t26.5 66.5h-235z" />
    <glyph glyph-name="gdotaccent" unicode="&#x121;" horiz-adv-x="587" 
d="M202 -232q-47 0 -84 13.5t-63 34.5t-42 47t-22 52l108 40q8 -39 37.5 -63t74.5 -24q72 0 116.5 40t57.5 114l8 44h-6q-23 -35 -64.5 -56t-95.5 -21q-43 0 -80 15.5t-64.5 45t-43 72t-15.5 95.5q0 52 19 103.5t55 93t87.5 67t116.5 25.5q54 0 92 -22t57 -55h6l11 61h106
l-86 -485q-11 -61 -36 -105.5t-62 -74t-85 -43.5t-103 -14zM260 91q34 0 65 14.5t53.5 40t36 60t13.5 73.5q0 31 -10 54.5t-26.5 39.5t-39 24t-46.5 8q-39 0 -70.5 -16t-53.5 -41.5t-34 -58.5t-12 -67q0 -65 36 -98t88 -33zM341 589q-27 0 -46.5 19.5t-19.5 46.5
q0 29 19.5 47.5t46.5 18.5q29 0 47.5 -18.5t18.5 -47.5q0 -27 -18.5 -46.5t-47.5 -19.5z" />
    <glyph glyph-name="uni0122" unicode="&#x122;" horiz-adv-x="806" 
d="M279 -232l54 60q-20 5 -31.5 22t-11.5 38q0 25 18 44.5t47 19.5t47 -19.5t18 -46.5q0 -14 -4 -28t-14 -25l-82 -100zM416 388h349v-22t-2 -25q-8 -78 -37.5 -139.5t-78.5 -109.5q-54 -53 -124.5 -80.5t-158.5 -27.5q-69 0 -130 23.5t-106 67t-71 105.5t-26 138
q0 83 31.5 158t88.5 132t137 90.5t178 33.5q85 0 152 -30.5t105 -82.5l-91 -78q-25 38 -72.5 60.5t-107.5 22.5q-64 0 -120 -22.5t-97 -62t-65 -95t-24 -121.5q0 -55 18 -98t49 -72.5t72.5 -45t88.5 -15.5q59 0 107.5 19.5t83.5 53.5q26 25 41.5 54.5t26.5 66.5h-235z" />
    <glyph glyph-name="uni0123" unicode="&#x123;" horiz-adv-x="587" 
d="M420.009 755.972l-53.9941 -59.9932q19.998 -4.99902 31.4961 -21.9971q11.499 -16.998 11.499 -37.9951q0 -24.9971 -17.998 -44.4941q-17.998 -19.498 -46.9941 -19.498t-46.9941 19.498q-17.998 19.4971 -17.998 46.4941q0 13.998 4 27.9961
q3.99902 13.998 13.998 24.9971l81.9902 99.9883zM202 -232q-47 0 -84 13.5t-63 34.5t-42 47t-22 52l108 40q8 -39 37.5 -63t74.5 -24q72 0 116.5 40t57.5 114l8 44h-6q-23 -35 -64.5 -56t-95.5 -21q-43 0 -80 15.5t-64.5 45t-43 72t-15.5 95.5q0 52 19 103.5t55 93t87.5 67
t116.5 25.5q54 0 92 -22t57 -55h6l11 61h106l-86 -485q-11 -61 -36 -105.5t-62 -74t-85 -43.5t-103 -14zM260 91q34 0 65 14.5t53.5 40t36 60t13.5 73.5q0 31 -10 54.5t-26.5 39.5t-39 24t-46.5 8q-39 0 -70.5 -16t-53.5 -41.5t-34 -58.5t-12 -67q0 -65 36 -98t88 -33z" />
    <glyph glyph-name="Hcircumflex" unicode="&#x124;" horiz-adv-x="701" 
d="M261 779l128 121h99l87 -121l-2 -7h-101l-37 59h-10l-53 -59h-113zM135 716h113l-53 -297h330l53 297h114l-127 -716h-114l56 313h-330l-56 -313h-113z" />
    <glyph glyph-name="hcircumflex" unicode="&#x125;" 
d="M180 779l128 121h99l87 -121l-2 -7h-101l-37 59h-10l-53 -59h-113zM192 503l-19 -79h6q26 37 70 59.5t96 22.5q40 0 69.5 -12t49 -33t28.5 -48t9 -57q0 -13 -1 -27t-5 -34l-53 -295h-111l51 288q2 11 2.5 18t0.5 15q0 38 -22.5 60t-64.5 22q-30 0 -55 -12t-44.5 -32.5
t-32.5 -47.5t-18 -58l-44 -253h-111l126 716h111z" />
    <glyph glyph-name="Hbar" unicode="&#x126;" horiz-adv-x="701" 
d="M97 499h-64l15 86h63l24 131h113l-23 -131h330l23 131h114l-24 -131h63l-14 -86h-64l-88 -499h-114l56 313h-330l-56 -313h-113zM525 419l14 80h-330l-14 -80h330z" />
    <glyph glyph-name="hbar" unicode="&#x127;" 
d="M218 649h139l-14 -82h-140l-11 -64l-19 -79h6q26 37 70 59.5t96 22.5q40 0 69.5 -12t49 -33t28.5 -48t9 -57q0 -13 -1 -27t-5 -34l-53 -295h-111l51 288q2 11 2.5 18t0.5 15q0 38 -22.5 60t-64.5 22q-30 0 -55 -12t-44.5 -32.5t-32 -47.5t-18.5 -58l-44 -253h-111l99 567
h-61l15 82h61l12 67h111z" />
    <glyph glyph-name="Itilde" unicode="&#x128;" horiz-adv-x="257" 
d="M135 716h113l-127 -716h-113zM262 775q-20 0 -36 7t-30 15q-15 8 -29.5 15t-29.5 7q-28 0 -35 -32h-84q8 62 40.5 92t79.5 30q19 0 35.5 -7t31.5 -15t29 -15t29 -7q28 0 35 32h84q-8 -62 -40.5 -92t-79.5 -30z" />
    <glyph glyph-name="itilde" unicode="&#x129;" horiz-adv-x="239" 
d="M0 0l86 490h111l-86 -490h-111zM234 591q-20 0 -36 7t-30 15q-15 8 -29.5 15t-29.5 7q-28 0 -35 -32h-84q8 62 40.5 92t79.5 30q19 0 35.5 -7t31.5 -15t29 -15t29 -7q28 0 35 32h84q-8 -62 -40.5 -92t-79.5 -30z" />
    <glyph glyph-name="Imacron" unicode="&#x12a;" horiz-adv-x="257" 
d="M73 800l15 86h262l-16 -86h-261zM135 716h113l-127 -716h-113z" />
    <glyph glyph-name="imacron" unicode="&#x12b;" horiz-adv-x="239" 
d="M0 0l86 490h111l-86 -490h-111zM22 616l15 86h288l-15 -86h-288z" />
    <glyph glyph-name="Ibreve" unicode="&#x12c;" horiz-adv-x="257" 
d="M135 716h113l-127 -716h-113zM199 767q-24 0 -45 8t-37 22.5t-25 34t-9 43.5q0 6 0.5 11t1.5 11h84q-1 -4 -1 -10q0 -17 10 -29t31 -12q23 0 38 14t20 37h82q-11 -66 -50.5 -98t-99.5 -32z" />
    <glyph glyph-name="ibreve" unicode="&#x12d;" horiz-adv-x="239" 
d="M0 0l86 490h111l-86 -490h-111zM165 583q-24 0 -45 8t-37 22.5t-25 34t-9 43.5q0 6 0.5 11t1.5 11h84q-1 -4 -1 -10q0 -17 10 -29t31 -12q23 0 38 14t20 37h82q-11 -66 -50.5 -98t-99.5 -32z" />
    <glyph glyph-name="Iogonek" unicode="&#x12e;" horiz-adv-x="257" 
d="M43 -224q-51 0 -80.5 27t-29.5 68q0 40 21.5 71.5t58.5 55.5l-1 2h-4l127 716h113l-127 -716q-14 -8 -29.5 -19.5t-28 -25.5t-21 -29.5t-8.5 -30.5q0 -17 10 -25t25 -8q13 0 26 5l21 -76q-16 -8 -35 -11.5t-38 -3.5z" />
    <glyph glyph-name="iogonek" unicode="&#x12f;" horiz-adv-x="239" 
d="M33 -224q-51 0 -80.5 27t-29.5 68q0 39 21 70.5t58 55.5l-2 3l86 490h111l-86 -490q-14 -8 -29.5 -19.5t-28 -25.5t-21 -29.5t-8.5 -30.5q0 -17 10 -25t25 -8q13 0 26 5l21 -76q-16 -8 -35 -11.5t-38 -3.5zM170 577q-31 0 -53 22t-22 53t22 53t53 22t53 -22t22 -53
t-22 -53t-53 -22z" />
    <glyph glyph-name="Idotaccent" unicode="&#x130;" horiz-adv-x="257" 
d="M135 716h113l-127 -716h-113zM215 795q-25 0 -43.5 18t-18.5 43q0 26 18.5 43.5t43.5 17.5q26 0 43.5 -17.5t17.5 -43.5q0 -25 -17.5 -43t-43.5 -18z" />
    <glyph glyph-name="dotlessi" unicode="&#x131;" horiz-adv-x="239" 
d="M0 0l86 490h111l-86 -490h-111z" />
    <glyph glyph-name="Jcircumflex" unicode="&#x134;" horiz-adv-x="540" 
d="M330 779l128 121h99l87 -121l-2 -7h-101l-37 59h-10l-53 -59h-113zM196 -16q-40 0 -75.5 12t-63 34.5t-45.5 54t-22 69.5l109 42q6 -55 37 -79.5t74 -24.5q52 0 87.5 35.5t45.5 92.5l87 496h114l-87 -491q-11 -63 -35.5 -109t-58.5 -75t-76.5 -43t-90.5 -14z" />
    <glyph glyph-name="jcircumflex" unicode="&#x135;" horiz-adv-x="239" 
d="M-74 -226q-18 0 -36.5 3.5t-32.5 8.5l41 97q13 -7 32 -7q47 0 58 60l98 554h111l-97 -556q-8 -45 -23.5 -75.5t-37.5 -49.5t-50.5 -27t-62.5 -8zM-6 595l128 121h99l87 -121l-2 -7h-101l-37 59h-10l-53 -59h-113z" />
    <glyph glyph-name="uni0136" unicode="&#x136;" horiz-adv-x="637" 
d="M194 -232l54 60q-20 5 -31.5 22t-11.5 38q0 25 18 44.5t47 19.5t47 -19.5t18 -46.5q0 -14 -4 -28t-14 -25l-82 -100zM683 710l-316 -303l212 -401l-1 -6h-133l-169 321l-117 -112l-38 -209h-113l127 716h113l-58 -335h6l343 335h145z" />
    <glyph glyph-name="uni0137" unicode="&#x137;" horiz-adv-x="501" 
d="M123 -232l54 60q-20 5 -31.5 22t-11.5 38q0 25 18 44.5t47 19.5t47 -19.5t18 -46.5q0 -14 -4 -28t-14 -25l-82 -100zM159 309h4l211 181h147l-1 -6l-220 -185l148 -293l-1 -6h-129l-108 224l-78 -66l-28 -158h-111l126 716h111z" />
    <glyph glyph-name="kgreenlandic" unicode="&#x138;" horiz-adv-x="495" 
d="M190 490l-38 -215h6l214 215h139l-2 -6l-237 -231l162 -247l-1 -6h-129l-152 240h-6l-43 -240h-110l86 490h111z" />
    <glyph glyph-name="Lacute" unicode="&#x139;" horiz-adv-x="516" 
d="M145 772l71 132h127l-104 -132h-94zM135 716h113l-107 -608h306l-19 -108h-420z" />
    <glyph glyph-name="lacute" unicode="&#x13a;" horiz-adv-x="223" 
d="M130 772l71 132h127l-104 -132h-94zM-7 0l126 716h111l-126 -716h-111z" />
    <glyph glyph-name="uni013B" unicode="&#x13b;" horiz-adv-x="516" 
d="M148 -232l54 60q-20 5 -31.5 22t-11.5 38q0 25 18 44.5t47 19.5t47 -19.5t18 -46.5q0 -14 -4 -28t-14 -25l-82 -100zM135 716h113l-107 -608h306l-19 -108h-420z" />
    <glyph glyph-name="uni013C" unicode="&#x13c;" horiz-adv-x="223" 
d="M-48 -232l54 60q-20 5 -31.5 22t-11.5 38q0 25 18 44.5t47 19.5t47 -19.5t18 -46.5q0 -14 -4 -28t-14 -25l-82 -100zM-7 0l126 716h111l-126 -716h-111z" />
    <glyph glyph-name="Lcaron" unicode="&#x13d;" horiz-adv-x="516" 
d="M369 501l38 215h119l-78 -215h-79zM135 716h113l-107 -608h306l-19 -108h-420z" />
    <glyph glyph-name="lcaron" unicode="&#x13e;" horiz-adv-x="346" 
d="M276 501l38 215h119l-78 -215h-79zM0 0l126 716h111l-126 -716h-111z" />
    <glyph glyph-name="Ldot" unicode="&#x13f;" horiz-adv-x="516" 
d="M135 716h113l-107 -608h306l-19 -108h-420zM366 267q-32 0 -54.5 22.5t-22.5 54.5t22.5 54.5t54.5 22.5t55 -22.5t23 -54.5t-23 -54.5t-55 -22.5z" />
    <glyph glyph-name="Lslash" unicode="&#x141;" horiz-adv-x="595" 
d="M134 261l-64 -35l-43 79l127 72l60 339h114l-47 -264l127 72l43 -79l-190 -106l-41 -231h307l-20 -108h-420z" />
    <glyph glyph-name="lslash" unicode="&#x142;" horiz-adv-x="392" 
d="M73 0l48 271l-56 -36l-47 76l124 81l58 324h111l-44 -247l72 47l48 -77l-141 -91l-62 -348h-111z" />
    <glyph glyph-name="Nacute" unicode="&#x143;" horiz-adv-x="709" 
d="M371 772l71 132h127l-104 -132h-94zM135 716h127l234 -519h6l18 138l68 381h112l-127 -716h-110l-246 545h-6l-18 -138l-72 -407h-113z" />
    <glyph glyph-name="nacute" unicode="&#x144;" 
d="M279 588l71 132h127l-104 -132h-94zM173 424h6q25 37 67 59.5t96 22.5q37 0 66 -11.5t49.5 -32t31.5 -48.5t11 -61q0 -15 -1.5 -32t-5.5 -36l-50 -285h-112l51 288q2 8 3 17.5t1 17.5q0 38 -23.5 59t-65.5 21q-30 0 -54.5 -11.5t-43.5 -31.5t-31.5 -46.5t-17.5 -57.5
l-46 -256h-111l86 490h105z" />
    <glyph glyph-name="uni0145" unicode="&#x145;" horiz-adv-x="709" 
d="M210 -232l54 60q-20 5 -31.5 22t-11.5 38q0 25 18 44.5t47 19.5t47 -19.5t18 -46.5q0 -14 -4 -28t-14 -25l-82 -100zM135 716h127l234 -519h6l18 138l68 381h112l-127 -716h-110l-246 545h-6l-18 -138l-72 -407h-113z" />
    <glyph glyph-name="uni0146" unicode="&#x146;" 
d="M126 -232l54 60q-20 5 -31.5 22t-11.5 38q0 25 18 44.5t47 19.5t47 -19.5t18 -46.5q0 -14 -4 -28t-14 -25l-82 -100zM173 424h6q25 37 67 59.5t96 22.5q37 0 66 -11.5t49.5 -32t31.5 -48.5t11 -61q0 -15 -1.5 -32t-5.5 -36l-50 -285h-112l51 288q2 8 3 17.5t1 17.5
q0 38 -23.5 59t-65.5 21q-30 0 -54.5 -11.5t-43.5 -31.5t-31.5 -46.5t-17.5 -57.5l-46 -256h-111l86 490h105z" />
    <glyph glyph-name="Ncaron" unicode="&#x147;" horiz-adv-x="709" 
d="M598 893l-128 -121h-99l-87 121l2 7h101l37 -59h10l53 59h113zM135 716h127l234 -519h6l18 138l68 381h112l-127 -716h-110l-246 545h-6l-18 -138l-72 -407h-113z" />
    <glyph glyph-name="ncaron" unicode="&#x148;" 
d="M501 709l-128 -121h-99l-87 121l2 7h101l37 -59h10l53 59h113zM173 424h6q25 37 67 59.5t96 22.5q37 0 66 -11.5t49.5 -32t31.5 -48.5t11 -61q0 -15 -1.5 -32t-5.5 -36l-50 -285h-112l51 288q2 8 3 17.5t1 17.5q0 38 -23.5 59t-65.5 21q-30 0 -54.5 -11.5t-43.5 -31.5
t-31.5 -46.5t-17.5 -57.5l-46 -256h-111l86 490h105z" />
    <glyph glyph-name="Eng" unicode="&#x14a;" horiz-adv-x="709" 
d="M135 716h128l233 -514h6l19 138l67 376h112l-137 -777q-8 -47 -24 -79t-39 -51t-52.5 -27t-64.5 -8q-20 0 -36.5 3.5t-30.5 8.5l43 97q13 -7 32 -7q48 0 58 60l12 67l-244 542h-6l-18 -138l-72 -407h-113z" />
    <glyph glyph-name="eng" unicode="&#x14b;" 
d="M173 424h6q25 37 67 59.5t96 22.5q37 0 66 -11.5t49.5 -32t31.5 -48.5t11 -61q0 -15 -1.5 -32t-5.5 -36l-62 -351q-16 -90 -61 -125t-113 -35q-18 0 -36.5 3.5t-31.5 8.5l41 97q13 -7 31 -7q48 0 59 60l62 352q2 8 3 17.5t1 17.5q0 38 -23.5 59t-65.5 21
q-30 0 -54.5 -11.5t-43.5 -31.5t-31.5 -46.5t-17.5 -57.5l-46 -256h-111l86 490h105z" />
    <glyph glyph-name="Omacron" unicode="&#x14c;" horiz-adv-x="816" 
d="M324 800l15 86h288l-15 -86h-288zM360 -16q-70 0 -130 24t-104.5 67t-69.5 103.5t-25 133.5q0 83 31.5 159t87.5 134t134.5 92.5t171.5 34.5q72 0 132 -24.5t104 -68t68.5 -103.5t24.5 -132q0 -83 -31.5 -159t-88 -134t-134.5 -92.5t-171 -34.5zM375 92q61 0 114.5 26
t93.5 69.5t63.5 99.5t23.5 116q0 50 -17.5 90.5t-48.5 69.5t-73 45t-90 16q-62 0 -116 -26.5t-93.5 -70t-62.5 -99.5t-23 -115q0 -50 17.5 -90.5t48.5 -69.5t73 -45t90 -16z" />
    <glyph glyph-name="omacron" unicode="&#x14d;" horiz-adv-x="568" 
d="M184 616l15 86h288l-15 -86h-288zM300 506q52 0 95 -18.5t73.5 -50t47 -73.5t16.5 -89q0 -62 -22 -115t-61.5 -92t-93.5 -61.5t-118 -22.5q-53 0 -95.5 18.5t-73 50t-47 73.5t-16.5 89q0 62 22 115t61.5 92t93.5 61.5t118 22.5zM248 87q39 0 70.5 14.5t54 39t34.5 56.5
t12 68q0 30 -10 55.5t-28 44t-41.5 28.5t-50.5 10q-39 0 -70.5 -14.5t-54 -39t-34.5 -56.5t-12 -68q0 -30 10 -55.5t28 -44t41.5 -28.5t50.5 -10z" />
    <glyph glyph-name="Obreve" unicode="&#x14e;" horiz-adv-x="816" 
d="M360 -16q-70 0 -130 24t-104.5 67t-69.5 103.5t-25 133.5q0 83 31.5 159t87.5 134t134.5 92.5t171.5 34.5q72 0 132 -24.5t104 -68t68.5 -103.5t24.5 -132q0 -83 -31.5 -159t-88 -134t-134.5 -92.5t-171 -34.5zM375 92q61 0 114.5 26t93.5 69.5t63.5 99.5t23.5 116
q0 50 -17.5 90.5t-48.5 69.5t-73 45t-90 16q-62 0 -116 -26.5t-93.5 -70t-62.5 -99.5t-23 -115q0 -50 17.5 -90.5t48.5 -69.5t73 -45t90 -16zM470 767q-24 0 -45 8t-37 22.5t-25 34t-9 43.5q0 6 0.5 11t1.5 11h84q-1 -4 -1 -10q0 -17 10 -29t31 -12q23 0 38 14t20 37h82
q-11 -66 -50.5 -98t-99.5 -32z" />
    <glyph glyph-name="obreve" unicode="&#x14f;" horiz-adv-x="568" 
d="M300 506q52 0 95 -18.5t73.5 -50t47 -73.5t16.5 -89q0 -62 -22 -115t-61.5 -92t-93.5 -61.5t-118 -22.5q-53 0 -95.5 18.5t-73 50t-47 73.5t-16.5 89q0 62 22 115t61.5 92t93.5 61.5t118 22.5zM248 87q39 0 70.5 14.5t54 39t34.5 56.5t12 68q0 30 -10 55.5t-28 44
t-41.5 28.5t-50.5 10q-39 0 -70.5 -14.5t-54 -39t-34.5 -56.5t-12 -68q0 -30 10 -55.5t28 -44t41.5 -28.5t50.5 -10zM328 583q-24 0 -45 8t-37 22.5t-25 34t-9 43.5q0 6 0.5 11t1.5 11h84q-1 -4 -1 -10q0 -17 10 -29t31 -12q23 0 38 14t20 37h82q-11 -66 -50.5 -98
t-99.5 -32z" />
    <glyph glyph-name="Ohungarumlaut" unicode="&#x150;" horiz-adv-x="816" 
d="M360 -16q-70 0 -130 24t-104.5 67t-69.5 103.5t-25 133.5q0 83 31.5 159t87.5 134t134.5 92.5t171.5 34.5q72 0 132 -24.5t104 -68t68.5 -103.5t24.5 -132q0 -83 -31.5 -159t-88 -134t-134.5 -92.5t-171 -34.5zM375 92q61 0 114.5 26t93.5 69.5t63.5 99.5t23.5 116
q0 50 -17.5 90.5t-48.5 69.5t-73 45t-90 16q-62 0 -116 -26.5t-93.5 -70t-62.5 -99.5t-23 -115q0 -50 17.5 -90.5t48.5 -69.5t73 -45t90 -16zM491 772l71 132h127l-104 -132h-94zM309 772l71 132h127l-104 -132h-94z" />
    <glyph glyph-name="ohungarumlaut" unicode="&#x151;" horiz-adv-x="568" 
d="M185 588l71 132h127l-104 -132h-94zM366 588l71 132h127l-104 -132h-94zM300 506q52 0 95 -18.5t73.5 -50t47 -73.5t16.5 -89q0 -62 -22 -115t-61.5 -92t-93.5 -61.5t-118 -22.5q-53 0 -95.5 18.5t-73 50t-47 73.5t-16.5 89q0 62 22 115t61.5 92t93.5 61.5t118 22.5z
M248 87q39 0 70.5 14.5t54 39t34.5 56.5t12 68q0 30 -10 55.5t-28 44t-41.5 28.5t-50.5 10q-39 0 -70.5 -14.5t-54 -39t-34.5 -56.5t-12 -68q0 -30 10 -55.5t28 -44t41.5 -28.5t50.5 -10z" />
    <glyph glyph-name="OE" unicode="&#x152;" horiz-adv-x="1147" 
d="M818 608l-34 -197h290l-19 -106h-290l-35 -197h323l-20 -108h-436l15 80h-4q-48 -45 -112 -70.5t-141 -25.5q-69 0 -128.5 24t-103 67t-68 103.5t-24.5 133.5q0 83 31.5 159t87.5 134t134 92.5t170 34.5q82 0 145.5 -31t102.5 -86h4l18 101h436l-19 -108h-323zM373 92
q60 0 113.5 25t93.5 68t63.5 100.5t23.5 122.5q0 46 -17 86t-47 68.5t-71.5 45t-89.5 16.5q-63 0 -117 -26.5t-93.5 -70t-62.5 -99t-23 -114.5q0 -50 17.5 -91t48.5 -70t72.5 -45t88.5 -16z" />
    <glyph glyph-name="oe" unicode="&#x153;" horiz-adv-x="950" 
d="M886 118q-42 -64 -101 -99t-140 -35q-64 0 -109.5 26t-71.5 69q-38 -45 -93 -70t-124 -25q-52 0 -94.5 18.5t-73 50t-47 73.5t-16.5 89q0 62 22 115t61.5 92t93.5 61.5t118 22.5q63 0 110 -27.5t76 -73.5q36 46 90 73.5t123 27.5q52 0 91 -16t65.5 -43.5t40 -65
t13.5 -79.5q0 -22 -3 -41.5t-8 -39.5h-377q-1 -3 -1 -8v-11q0 -30 10.5 -52.5t28 -37t39 -21.5t44.5 -7q51 0 86.5 21t60.5 58zM258 87q39 0 70.5 14.5t54 39t35 56.5t12.5 68q0 30 -10 55.5t-28 44t-41.5 28.5t-50.5 10q-39 0 -70.5 -14.5t-54 -39t-35 -56.5t-12.5 -68
q0 -30 10.5 -55.5t28 -44t41 -28.5t50.5 -10zM813 306v7q0 16 -5.5 33.5t-19 31.5t-35.5 23.5t-55 9.5q-52 0 -92 -29.5t-56 -75.5h263z" />
    <glyph glyph-name="Racute" unicode="&#x154;" horiz-adv-x="599" 
d="M303 772l71 132h127l-104 -132h-94zM135 716h236q47 0 86 -14.5t67 -40.5t43.5 -62t15.5 -79q0 -45 -15 -83t-41.5 -67.5t-62.5 -50t-79 -29.5l-3 -5l144 -279l-1 -6h-125l-141 279h-88l-50 -279h-113zM326 385q30 0 55.5 8t45 24t30.5 40t11 56q0 42 -28 69.5t-79 27.5
h-132l-39 -225h136z" />
    <glyph glyph-name="racute" unicode="&#x155;" horiz-adv-x="385" 
d="M203 588l71 132h127l-104 -132h-94zM-7 0l86 490h105l-13 -74h6q24 39 65 63.5t91 24.5q24 0 38.5 -4t27.5 -11l-44 -103q-12 4 -25 7t-32 3q-27 0 -52 -11t-45 -30.5t-33.5 -46.5t-19.5 -59l-44 -249h-111z" />
    <glyph glyph-name="uni0156" unicode="&#x156;" horiz-adv-x="599" 
d="M168 -232l54 60q-20 5 -31.5 22t-11.5 38q0 25 18 44.5t47 19.5t47 -19.5t18 -46.5q0 -14 -4 -28t-14 -25l-82 -100zM135 716h236q47 0 86 -14.5t67 -40.5t43.5 -62t15.5 -79q0 -45 -15 -83t-41.5 -67.5t-62.5 -50t-79 -29.5l-3 -5l144 -279l-1 -6h-125l-141 279h-88
l-50 -279h-113zM326 385q30 0 55.5 8t45 24t30.5 40t11 56q0 42 -28 69.5t-79 27.5h-132l-39 -225h136z" />
    <glyph glyph-name="uni0157" unicode="&#x157;" horiz-adv-x="385" 
d="M-43 -232l54 60q-20 5 -31.5 22t-11.5 38q0 25 18 44.5t47 19.5t47 -19.5t18 -46.5q0 -14 -4 -28t-14 -25l-82 -100zM-7 0l86 490h105l-13 -74h6q24 39 65 63.5t91 24.5q24 0 38.5 -4t27.5 -11l-44 -103q-12 4 -25 7t-32 3q-27 0 -52 -11t-45 -30.5t-33.5 -46.5
t-19.5 -59l-44 -249h-111z" />
    <glyph glyph-name="Rcaron" unicode="&#x158;" horiz-adv-x="599" 
d="M522 893l-128 -121h-99l-87 121l2 7h101l37 -59h10l53 59h113zM135 716h236q47 0 86 -14.5t67 -40.5t43.5 -62t15.5 -79q0 -45 -15 -83t-41.5 -67.5t-62.5 -50t-79 -29.5l-3 -5l144 -279l-1 -6h-125l-141 279h-88l-50 -279h-113zM326 385q30 0 55.5 8t45 24t30.5 40
t11 56q0 42 -28 69.5t-79 27.5h-132l-39 -225h136z" />
    <glyph glyph-name="rcaron" unicode="&#x159;" horiz-adv-x="385" 
d="M424 709l-128 -121h-99l-87 121l2 7h101l37 -59h10l53 59h113zM-7 0l86 490h105l-13 -74h6q24 39 65 63.5t91 24.5q24 0 38.5 -4t27.5 -11l-44 -103q-12 4 -25 7t-32 3q-27 0 -52 -11t-45 -30.5t-33.5 -46.5t-19.5 -59l-44 -249h-111z" />
    <glyph glyph-name="Sacute" unicode="&#x15a;" horiz-adv-x="564" 
d="M291 772l71 132h127l-104 -132h-94zM230 -16q-44 0 -83.5 13t-70 38t-51.5 62t-29 85l112 45q3 -27 13 -51.5t27 -43t41 -29.5t54 -11q27 0 52.5 8t45 23t31 36t11.5 48q0 41 -27.5 68t-93.5 51l-39 14q-28 10 -54 26t-46.5 38.5t-32.5 52t-12 67.5q0 45 19.5 83.5t53 66
t79 43t96.5 15.5q54 0 92.5 -15t64 -37.5t39 -49t17.5 -49.5l-106 -40q-3 15 -10.5 30.5t-21.5 27.5t-35 19.5t-50 7.5q-24 0 -46.5 -6.5t-39 -18.5t-26.5 -30t-10 -40q0 -37 26 -60t78 -43l42 -16q34 -13 63.5 -30.5t50.5 -40.5t33 -53t12 -67q0 -53 -20 -97t-56 -75
t-85.5 -48t-107.5 -17z" />
    <glyph glyph-name="sacute" unicode="&#x15b;" horiz-adv-x="469" 
d="M223 588l71 132h127l-104 -132h-94zM193 -16q-44 0 -78.5 11t-60 30t-42.5 44.5t-25 54.5l104 42q10 -42 40.5 -62.5t71.5 -20.5q40 0 66 16t26 42q0 24 -17 38t-55 25l-55 15q-26 7 -48.5 18t-39.5 27t-27 38t-10 51q0 34 16 62.5t44 48.5t66 31t81 11q72 0 121 -31.5
t69 -85.5l-104 -39q-10 27 -34.5 44.5t-59.5 17.5q-40 0 -63 -14t-23 -38q0 -38 61 -54l67 -17q61 -16 93 -52t32 -85q0 -39 -16 -70t-45 -52.5t-68.5 -33.5t-86.5 -12z" />
    <glyph glyph-name="Scircumflex" unicode="&#x15c;" horiz-adv-x="564" 
d="M174 780l128 121h99l87 -121l-2 -7h-101l-37 59h-10l-53 -59h-113zM230 -16q-44 0 -83.5 13t-70 38t-51.5 62t-29 85l112 45q3 -27 13 -51.5t27 -43t41 -29.5t54 -11q27 0 52.5 8t45 23t31 36t11.5 48q0 41 -27.5 68t-93.5 51l-39 14q-28 10 -54 26t-46.5 38.5t-32.5 52
t-12 67.5q0 45 19.5 83.5t53 66t79 43t96.5 15.5q54 0 92.5 -15t64 -37.5t39 -49t17.5 -49.5l-106 -40q-3 15 -10.5 30.5t-21.5 27.5t-35 19.5t-50 7.5q-24 0 -46.5 -6.5t-39 -18.5t-26.5 -30t-10 -40q0 -37 26 -60t78 -43l42 -16q34 -13 63.5 -30.5t50.5 -40.5t33 -53
t12 -67q0 -53 -20 -97t-56 -75t-85.5 -48t-107.5 -17z" />
    <glyph glyph-name="scircumflex" unicode="&#x15d;" horiz-adv-x="469" 
d="M122 595l128 121h99l87 -121l-2 -7h-101l-37 59h-10l-53 -59h-113zM193 -16q-44 0 -78.5 11t-60 30t-42.5 44.5t-25 54.5l104 42q10 -42 40.5 -62.5t71.5 -20.5q40 0 66 16t26 42q0 24 -17 38t-55 25l-55 15q-26 7 -48.5 18t-39.5 27t-27 38t-10 51q0 34 16 62.5t44 48.5
t66 31t81 11q72 0 121 -31.5t69 -85.5l-104 -39q-10 27 -34.5 44.5t-59.5 17.5q-40 0 -63 -14t-23 -38q0 -38 61 -54l67 -17q61 -16 93 -52t32 -85q0 -39 -16 -70t-45 -52.5t-68.5 -33.5t-86.5 -12z" />
    <glyph glyph-name="uni015E" unicode="&#x15e;" horiz-adv-x="564" 
d="M193 -237q-35 0 -61.5 19.5t-32.5 46.5l62 25q2 -12 12 -21.5t24 -9.5q17 0 29 11t12 31q0 14 -9 23t-24 9q-18 0 -31 -15l-49 25l46 84q-67 13 -114.5 61.5t-60.5 129.5l112 45q3 -27 13 -51.5t27 -43t41 -29.5t54 -11q27 0 52.5 8t45 23t31 36t11.5 48q0 41 -27.5 68
t-93.5 51l-39 14q-28 10 -54 26t-46.5 38.5t-32.5 52t-12 67.5q0 45 19.5 83.5t53 66t79 43t96.5 15.5q54 0 92.5 -15t64 -37.5t39 -49t17.5 -49.5l-106 -40q-3 15 -10.5 30.5t-21.5 27.5t-35 19.5t-50 7.5q-24 0 -46.5 -6.5t-39 -18.5t-26.5 -30t-10 -40q0 -37 26 -60
t78 -43l42 -16q34 -13 63.5 -30.5t50.5 -40.5t33 -53t12 -67q0 -53 -20 -97t-56 -75t-86 -48t-109 -17l-19 -32q5 1 9 1.5t10 0.5q35 0 56.5 -24.5t21.5 -62.5q0 -47 -31.5 -75.5t-81.5 -28.5z" />
    <glyph glyph-name="uni015F" unicode="&#x15f;" horiz-adv-x="469" 
d="M162 -237q-34 0 -61 19.5t-33 46.5l62 25q2 -12 12 -21.5t24 -9.5q17 0 29 11t12 31q0 14 -8.5 23t-24.5 9q-18 0 -30 -15l-50 25l45 82q-63 12 -100.5 48.5t-51.5 86.5l104 42q10 -42 40.5 -62.5t71.5 -20.5q40 0 66 16t26 42q0 24 -17 38t-55 25l-55 15q-26 7 -48.5 18
t-39.5 27t-27 38t-10 51q0 34 16 62.5t44 48.5t66 31t81 11q72 0 121 -31.5t69 -85.5l-104 -39q-10 27 -34.5 44.5t-59.5 17.5q-40 0 -63 -14t-23 -38q0 -38 61 -54l67 -17q61 -16 93 -52t32 -85q0 -38 -15.5 -69t-43.5 -52.5t-67 -33.5t-85 -13l-19 -32q5 1 8.5 1.5
t10.5 0.5q35 0 56 -24.5t21 -62.5q0 -47 -31 -75.5t-82 -28.5z" />
    <glyph glyph-name="Scaron" unicode="&#x160;" horiz-adv-x="564" 
d="M517 893l-128 -121h-99l-87 121l2 7h101l37 -59h10l53 59h113zM230 -16q-44 0 -83.5 13t-70 38t-51.5 62t-29 85l112 45q3 -27 13 -51.5t27 -43t41 -29.5t54 -11q27 0 52.5 8t45 23t31 36t11.5 48q0 41 -27.5 68t-93.5 51l-39 14q-28 10 -54 26t-46.5 38.5t-32.5 52
t-12 67.5q0 45 19.5 83.5t53 66t79 43t96.5 15.5q54 0 92.5 -15t64 -37.5t39 -49t17.5 -49.5l-106 -40q-3 15 -10.5 30.5t-21.5 27.5t-35 19.5t-50 7.5q-24 0 -46.5 -6.5t-39 -18.5t-26.5 -30t-10 -40q0 -37 26 -60t78 -43l42 -16q34 -13 63.5 -30.5t50.5 -40.5t33 -53
t12 -67q0 -53 -20 -97t-56 -75t-85.5 -48t-107.5 -17z" />
    <glyph glyph-name="scaron" unicode="&#x161;" horiz-adv-x="469" 
d="M453 709l-128 -121h-99l-87 121l2 7h101l37 -59h10l53 59h113zM193 -16q-44 0 -78.5 11t-60 30t-42.5 44.5t-25 54.5l104 42q10 -42 40.5 -62.5t71.5 -20.5q40 0 66 16t26 42q0 24 -17 38t-55 25l-55 15q-26 7 -48.5 18t-39.5 27t-27 38t-10 51q0 34 16 62.5t44 48.5
t66 31t81 11q72 0 121 -31.5t69 -85.5l-104 -39q-10 27 -34.5 44.5t-59.5 17.5q-40 0 -63 -14t-23 -38q0 -38 61 -54l67 -17q61 -16 93 -52t32 -85q0 -39 -16 -70t-45 -52.5t-68.5 -33.5t-86.5 -12z" />
    <glyph glyph-name="uni0162" unicode="&#x162;" horiz-adv-x="561" 
d="M189 -237q-34 0 -61 19.5t-33 46.5l62 25q2 -12 12 -21.5t24 -9.5q17 0 29 11t12 31q0 14 -8.5 23t-24.5 9q-18 0 -30 -15l-50 25l52 93h-13l108 608h-200l19 108h513l-19 -108h-200l-108 -608h-38l-29 -48q5 1 8.5 1.5t10.5 0.5q35 0 56 -24.5t21 -62.5q0 -47 -31 -75.5
t-82 -28.5z" />
    <glyph glyph-name="uni0163" unicode="&#x163;" horiz-adv-x="378" 
d="M204 -8h-10q-6 0 -11 1l-25 -41q5 1 9 1.5t10 0.5q35 0 56.5 -24.5t21.5 -62.5q0 -47 -31.5 -75.5t-81.5 -28.5q-35 0 -61.5 19.5t-32.5 46.5l62 25q2 -12 12 -21.5t24 -9.5q17 0 29 11t12 31q0 14 -9 23t-24 9q-18 0 -31 -15l-49 25l55 102q-26 15 -41.5 42t-15.5 67
q0 9 0.5 19.5t4.5 31.5l39 223h-86l17 98h86l27 150h111l-27 -150h121l-18 -98h-120l-38 -214q-2 -9 -2 -15v-14q0 -21 11 -36.5t36 -15.5q17 0 26 2.5t20 7.5l17 -99q-38 -16 -93 -16z" />
    <glyph glyph-name="Tcaron" unicode="&#x164;" horiz-adv-x="561" 
d="M529 899l-128 -121h-99l-87 121l2 7h101l37 -59h10l53 59h113zM160 0l108 608h-200l19 108h513l-19 -108h-200l-108 -608h-113z" />
    <glyph glyph-name="tcaron" unicode="&#x165;" horiz-adv-x="378" 
d="M315 549l29 167h105l-59 -167h-75zM204 -8q-57 0 -94.5 31.5t-37.5 94.5q0 9 0.5 20t4.5 31l39 223h-86l17 98h86l27 150h111l-27 -150h121l-18 -98h-120l-38 -214q-2 -9 -2 -15v-14q0 -21 11 -36.5t36 -15.5q17 0 26 2.5t20 7.5l17 -99q-38 -16 -93 -16z" />
    <glyph glyph-name="Tbar" unicode="&#x166;" horiz-adv-x="561" 
d="M160 0l58 329h-127l16 90h127l34 189h-200l19 108h513l-19 -108h-200l-34 -189h128l-16 -90h-128l-58 -329h-113z" />
    <glyph glyph-name="tbar" unicode="&#x167;" horiz-adv-x="378" 
d="M204 -8q-57 0 -94.5 31.5t-37.5 94.5q0 9 0.5 20t4.5 31l9 49h-86l16 92h86l14 82h-86l17 98h86l27 150h111l-27 -150h121l-18 -98h-120l-14 -82h114l-16 -92h-115l-7 -40q-2 -10 -2 -15v-14q0 -21 11 -36.5t36 -15.5q17 0 26 2.5t20 7.5l17 -99q-38 -16 -93 -16z" />
    <glyph glyph-name="Utilde" unicode="&#x168;" horiz-adv-x="655" 
d="M268 -16q-48 0 -90 16t-73 45t-49 71t-18 93q0 15 1.5 36t7.5 55l73 416h113l-77 -439q-3 -18 -4 -30t-1 -23q0 -59 32 -95.5t101 -36.5q39 0 70.5 13t55 36.5t39 56t22.5 71.5l79 447h113l-80 -456q-24 -137 -105 -206.5t-210 -69.5zM464 775q-20 0 -36 7t-30 15
q-15 8 -29.5 15t-29.5 7q-28 0 -35 -32h-84q8 62 40.5 92t79.5 30q19 0 35.5 -7t31.5 -15t29 -15t29 -7q28 0 35 32h84q-8 -62 -40.5 -92t-79.5 -30z" />
    <glyph glyph-name="utilde" unicode="&#x169;" 
d="M346 66h-6q-25 -37 -67 -59.5t-96 -22.5q-37 0 -66 11.5t-49.5 32t-31.5 48.5t-11 61q0 15 1.5 30.5t5.5 37.5l50 285h112l-51 -288q-2 -13 -3 -20t-1 -15q0 -38 23.5 -59t65.5 -21q30 0 54.5 11.5t43.5 31.5t31.5 46.5t17.5 57.5l46 256h111l-86 -490h-105zM396 591
q-20 0 -36 7t-30 15q-15 8 -29.5 15t-29.5 7q-28 0 -35 -32h-84q8 62 40.5 92t79.5 30q19 0 35.5 -7t31.5 -15t29 -15t29 -7q28 0 35 32h84q-8 -62 -40.5 -92t-79.5 -30z" />
    <glyph glyph-name="Umacron" unicode="&#x16a;" horiz-adv-x="655" 
d="M268 -16q-48 0 -90 16t-73 45t-49 71t-18 93q0 15 1.5 36t7.5 55l73 416h113l-77 -439q-3 -18 -4 -30t-1 -23q0 -59 32 -95.5t101 -36.5q39 0 70.5 13t55 36.5t39 56t22.5 71.5l79 447h113l-80 -456q-24 -137 -105 -206.5t-210 -69.5zM257 800l15 86h288l-15 -86h-288z
" />
    <glyph glyph-name="umacron" unicode="&#x16b;" 
d="M346 66h-6q-25 -37 -67 -59.5t-96 -22.5q-37 0 -66 11.5t-49.5 32t-31.5 48.5t-11 61q0 15 1.5 30.5t5.5 37.5l50 285h112l-51 -288q-2 -13 -3 -20t-1 -15q0 -38 23.5 -59t65.5 -21q30 0 54.5 11.5t43.5 31.5t31.5 46.5t17.5 57.5l46 256h111l-86 -490h-105zM180 616
l15 86h288l-15 -86h-288z" />
    <glyph glyph-name="Ubreve" unicode="&#x16c;" horiz-adv-x="655" 
d="M268 -16q-48 0 -90 16t-73 45t-49 71t-18 93q0 15 1.5 36t7.5 55l73 416h113l-77 -439q-3 -18 -4 -30t-1 -23q0 -59 32 -95.5t101 -36.5q39 0 70.5 13t55 36.5t39 56t22.5 71.5l79 447h113l-80 -456q-24 -137 -105 -206.5t-210 -69.5zM397 767q-24 0 -45 8t-37 22.5
t-25 34t-9 43.5q0 6 0.5 11t1.5 11h84q-1 -4 -1 -10q0 -17 10 -29t31 -12q23 0 38 14t20 37h82q-11 -66 -50.5 -98t-99.5 -32z" />
    <glyph glyph-name="ubreve" unicode="&#x16d;" 
d="M346 66h-6q-25 -37 -67 -59.5t-96 -22.5q-37 0 -66 11.5t-49.5 32t-31.5 48.5t-11 61q0 15 1.5 30.5t5.5 37.5l50 285h112l-51 -288q-2 -13 -3 -20t-1 -15q0 -38 23.5 -59t65.5 -21q30 0 54.5 11.5t43.5 31.5t31.5 46.5t17.5 57.5l46 256h111l-86 -490h-105zM324 568
q-24 0 -45 8t-37 22.5t-25 34t-9 43.5q0 6 0.5 11t1.5 11h84q-1 -4 -1 -10q0 -17 10 -29t31 -12q23 0 38 14t20 37h82q-11 -66 -50.5 -98t-99.5 -32z" />
    <glyph glyph-name="Uring" unicode="&#x16e;" horiz-adv-x="655" 
d="M405 750q-22 0 -41.5 8.5t-33.5 23t-22.5 33.5t-8.5 41q0 45 30.5 75.5t75.5 30.5q22 0 41 -8.5t33.5 -22.5t23 -33.5t8.5 -41.5t-8.5 -41t-23 -33.5t-33.5 -23t-41 -8.5zM405 816q16 0 27.5 12t11.5 28t-11.5 27.5t-27.5 11.5q-17 0 -28.5 -11.5t-11.5 -27.5t11.5 -28
t28.5 -12zM268 -16q-48 0 -90 16t-73 45t-49 71t-18 93q0 15 1.5 36t7.5 55l73 416h113l-77 -439q-3 -18 -4 -30t-1 -23q0 -59 32 -95.5t101 -36.5q39 0 70.5 13t55 36.5t39 56t22.5 71.5l79 447h113l-80 -456q-24 -137 -105 -206.5t-210 -69.5z" />
    <glyph glyph-name="uring" unicode="&#x16f;" 
d="M329 566q-22 0 -41.5 8.5t-33.5 23t-22.5 33.5t-8.5 41q0 45 30.5 75.5t75.5 30.5q22 0 41 -8.5t33.5 -22.5t23 -33.5t8.5 -41.5t-8.5 -41t-23 -33.5t-33.5 -23t-41 -8.5zM329 632q16 0 27.5 12t11.5 28t-11.5 27.5t-27.5 11.5q-17 0 -28.5 -11.5t-11.5 -27.5t11.5 -28
t28.5 -12zM346 66h-6q-25 -37 -67 -59.5t-96 -22.5q-37 0 -66 11.5t-49.5 32t-31.5 48.5t-11 61q0 15 1.5 30.5t5.5 37.5l50 285h112l-51 -288q-2 -13 -3 -20t-1 -15q0 -38 23.5 -59t65.5 -21q30 0 54.5 11.5t43.5 31.5t31.5 46.5t17.5 57.5l46 256h111l-86 -490h-105z" />
    <glyph glyph-name="Uhungarumlaut" unicode="&#x170;" horiz-adv-x="655" 
d="M268 -16q-48 0 -90 16t-73 45t-49 71t-18 93q0 15 1.5 36t7.5 55l73 416h113l-77 -439q-3 -18 -4 -30t-1 -23q0 -59 32 -95.5t101 -36.5q39 0 70.5 13t55 36.5t39 56t22.5 71.5l79 447h113l-80 -456q-24 -137 -105 -206.5t-210 -69.5zM432 772l71 132h127l-104 -132h-94z
M250 772l71 132h127l-104 -132h-94z" />
    <glyph glyph-name="uhungarumlaut" unicode="&#x171;" 
d="M175 588l71 132h127l-104 -132h-94zM356 588l71 132h127l-104 -132h-94zM346 66h-6q-25 -37 -67 -59.5t-96 -22.5q-37 0 -66 11.5t-49.5 32t-31.5 48.5t-11 61q0 15 1.5 30.5t5.5 37.5l50 285h112l-51 -288q-2 -13 -3 -20t-1 -15q0 -38 23.5 -59t65.5 -21q30 0 54.5 11.5
t43.5 31.5t31.5 46.5t17.5 57.5l46 256h111l-86 -490h-105z" />
    <glyph glyph-name="Uogonek" unicode="&#x172;" horiz-adv-x="655" 
d="M299 -224q-51 0 -80.5 27t-29.5 68q0 35 16 63.5t45 50.5q-45 3 -83.5 20t-67 46t-45 69t-16.5 89q0 15 1.5 36t7.5 55l73 416h113l-77 -439q-3 -18 -4 -30t-1 -23q0 -59 32 -95.5t101 -36.5q39 0 70.5 13t55 36.5t39 56t22.5 71.5l79 447h113l-80 -456
q-19 -106 -67 -167t-129 -90q-42 -16 -70 -46.5t-28 -61.5q0 -17 10 -25t25 -8q13 0 27 5l20 -76q-15 -8 -34 -11.5t-38 -3.5z" />
    <glyph glyph-name="uogonek" unicode="&#x173;" 
d="M362 -224q-51 0 -80.5 27t-29.5 68q0 40 22.5 71.5t61.5 54.5l-1 3l11 66h-6q-25 -37 -67 -59.5t-96 -22.5q-37 0 -66 11.5t-49.5 32t-31.5 48.5t-11 61q0 15 1.5 30.5t5.5 37.5l50 285h112l-51 -288q-2 -13 -3 -20t-1 -15q0 -38 23.5 -59t65.5 -21q30 0 54.5 11.5
t43.5 31.5t31.5 46.5t17.5 57.5l46 256h111l-86 -490q-14 -8 -29.5 -19.5t-28.5 -25.5t-21.5 -29.5t-8.5 -30.5q0 -17 10 -25t25 -8q13 0 27 5l20 -76q-15 -8 -34 -11.5t-38 -3.5z" />
    <glyph glyph-name="Wcircumflex" unicode="&#x174;" horiz-adv-x="938" 
d="M374 779l128 121h99l87 -121l-2 -7h-101l-37 59h-10l-53 -59h-113zM669 0h-112l-57 377l-8 71h-6l-34 -71l-188 -377h-114l-71 716h118l41 -460l4 -69h6l32 69l182 364h108l55 -364l7 -68h6l28 68l199 460h120z" />
    <glyph glyph-name="wcircumflex" unicode="&#x175;" horiz-adv-x="779" 
d="M266 595l128 121h99l87 -121l-2 -7h-101l-37 59h-10l-53 -59h-113zM438 0l-49 343h-4l-170 -343h-116l-72 490h118l37 -339h4l169 339h115l50 -339h4l154 339h120l-242 -490h-118z" />
    <glyph glyph-name="Ycircumflex" unicode="&#x176;" horiz-adv-x="615" 
d="M189 0l59 333l-173 383h130l114 -264h6l202 264h139l-305 -383l-59 -333h-113zM207 779l128 121h99l87 -121l-2 -7h-101l-37 59h-10l-53 -59h-113z" />
    <glyph glyph-name="ycircumflex" unicode="&#x177;" horiz-adv-x="526" 
d="M6 -216l155 246l-122 460h122l79 -325h4l190 325h124l-432 -706h-120zM147 595l128 121h99l87 -121l-2 -7h-101l-37 59h-10l-53 -59h-113z" />
    <glyph glyph-name="Ydieresis" unicode="&#x178;" horiz-adv-x="615" 
d="M189 0l59 333l-173 383h130l114 -264h6l202 264h139l-305 -383l-59 -333h-113zM468 779q-26 0 -45.5 19t-19.5 45q0 28 19.5 46t45.5 18q27 0 45.5 -18t18.5 -46q0 -26 -18.5 -45t-45.5 -19zM288 779q-26 0 -45 19t-19 45q0 28 19 46t45 18q28 0 46.5 -18t18.5 -46
q0 -26 -18.5 -45t-46.5 -19z" />
    <glyph glyph-name="Zacute" unicode="&#x179;" horiz-adv-x="580" 
d="M296 772l71 132h127l-104 -132h-94zM-10 116l454 492h-352l19 108h488l-21 -116l-453 -492h370l-19 -108h-507z" />
    <glyph glyph-name="zacute" unicode="&#x17a;" horiz-adv-x="469" 
d="M218 588l71 132h127l-104 -132h-94zM-15 93l314 300h-253l17 97h393l-16 -93l-314 -300h265l-18 -97h-404z" />
    <glyph glyph-name="Zdotaccent" unicode="&#x17b;" horiz-adv-x="580" 
d="M377 795q-25 0 -43.5 18t-18.5 43q0 26 18.5 43.5t43.5 17.5q26 0 43.5 -17.5t17.5 -43.5q0 -25 -17.5 -43t-43.5 -18zM-10 116l454 492h-352l19 108h488l-21 -116l-453 -492h370l-19 -108h-507z" />
    <glyph glyph-name="zdotaccent" unicode="&#x17c;" horiz-adv-x="469" 
d="M-15 93l314 300h-253l17 97h393l-16 -93l-314 -300h265l-18 -97h-404zM291 589q-27 0 -46.5 19.5t-19.5 46.5q0 29 19.5 47.5t46.5 18.5q29 0 47.5 -18.5t18.5 -47.5q0 -27 -18.5 -46.5t-47.5 -19.5z" />
    <glyph glyph-name="Zcaron" unicode="&#x17d;" horiz-adv-x="580" 
d="M535 893l-128 -121h-99l-87 121l2 7h101l37 -59h10l53 59h113zM-10 116l454 492h-352l19 108h488l-21 -116l-453 -492h370l-19 -108h-507z" />
    <glyph glyph-name="zcaron" unicode="&#x17e;" horiz-adv-x="469" 
d="M453 709l-128 -121h-99l-87 121l2 7h101l37 -59h10l53 59h113zM-15 93l314 300h-253l17 97h393l-16 -93l-314 -300h265l-18 -97h-404z" />
    <glyph glyph-name="uni0192" unicode="&#x192;" horiz-adv-x="589" 
d="M120 -220q-21 0 -42.5 4t-38.5 11l29 99q9 -5 20 -8t25 -3q28 0 47.5 18t26.5 52l71 362h-98v98h117l30 146q15 75 64 118t124 43q47 0 82 -15l-38 -98q-17 10 -43 10q-30 0 -52.5 -17t-29.5 -50l-27 -137h120v-98h-139l-77 -387q-13 -63 -56 -105.5t-115 -42.5z" />
    <glyph glyph-name="Aringacute" unicode="&#x1fa;" horiz-adv-x="692" 
d="M323 681q-28 31 -28 75q0 23 8 43.5t22.5 36t34 25t42.5 11.5l42 71h104l-67 -93q22 -16 35 -40.5t13 -53.5q0 -28 -12.5 -52t-33.5 -40l133 -664h-121l-33 184h-287l-97 -184h-129zM442 287l-39 211l-13 84h-6l-42 -84l-112 -211h212zM412 716q17 0 28.5 11.5t11.5 28.5
t-11.5 28.5t-28.5 11.5t-28.5 -11.5t-11.5 -28.5t11.5 -28.5t28.5 -11.5z" />
    <glyph glyph-name="aringacute" unicode="&#x1fb;" horiz-adv-x="523" 
d="M282 800l54 111h120l-84 -111h-90zM313 566q-22 0 -41.5 8.5t-33.5 23t-22.5 33.5t-8.5 41q0 45 30.5 75.5t75.5 30.5q22 0 41 -8.5t33.5 -22.5t23 -33.5t8.5 -41.5t-8.5 -41t-23 -33.5t-33.5 -23t-41 -8.5zM313 632q16 0 27.5 12t11.5 28t-11.5 27.5t-27.5 11.5
q-17 0 -28.5 -11.5t-11.5 -27.5t11.5 -28t28.5 -12zM288 506q99 0 149.5 -45.5t50.5 -122.5q0 -12 -1.5 -25.5t-3.5 -27.5l-51 -285h-109l11 60h-6q-23 -32 -61 -54t-89 -22q-37 0 -67.5 11t-53 31t-35 48t-12.5 62q0 42 17.5 75.5t49 57.5t74.5 36.5t94 12.5q38 0 69.5 -8
t60.5 -19l3 16q1 5 1.5 10.5t0.5 10.5q0 38 -28.5 61t-75.5 23q-38 0 -68 -14.5t-56 -45.5l-80 57q38 48 94 72.5t122 24.5zM209 76q28 0 53 10.5t45 28t33.5 40.5t18.5 49q-12 6 -38.5 17.5t-76.5 11.5q-23 0 -44.5 -5.5t-38 -16t-26.5 -27.5t-10 -39q0 -34 25.5 -51.5
t58.5 -17.5z" />
    <glyph glyph-name="AEacute" unicode="&#x1fc;" horiz-adv-x="982" 
d="M687 772l71 132h127l-104 -132h-94zM-61 0l547 716h507l-19 -108h-323l-34 -197h290l-19 -106h-290l-35 -197h323l-20 -108h-436l33 184h-246l-138 -184h-140zM296 290h185l57 318h-7l-41 -60z" />
    <glyph glyph-name="aeacute" unicode="&#x1fd;" horiz-adv-x="904" 
d="M430 588l71 132h127l-104 -132h-94zM829 118q-42 -64 -101.5 -99t-137.5 -35q-72 0 -119 29.5t-73 77.5q-41 -51 -95 -79t-123 -28q-38 0 -69 11t-53.5 31t-35 48t-12.5 62q0 42 17.5 75.5t49 57.5t74.5 36.5t94 12.5q38 0 69.5 -8t60.5 -19l3 16q1 5 1.5 10.5t0.5 10.5
q0 38 -28.5 61t-73.5 23q-38 0 -71 -16.5t-50 -45.5l-86 44q33 54 87.5 83t133.5 29q60 0 101 -25t63 -63q38 41 85 64.5t109 23.5q52 0 92 -16.5t67 -44t40.5 -64.5t13.5 -79q0 -45 -11 -81h-378q-1 -6 -1 -10v-9q0 -30 11 -52.5t28.5 -37t39.5 -21.5t46 -7q49 0 85 21.5
t61 58.5zM209 76q28 0 53 10.5t45 28t33.5 40.5t18.5 49q-3 1 -12 6t-23 10t-34 9t-46 4q-23 0 -44.5 -5t-38 -16t-26.5 -27.5t-10 -39.5q0 -34 25.5 -51.5t58.5 -17.5zM756 306v7q0 19 -7.5 37t-21.5 31.5t-36 21.5t-50 8q-53 0 -92.5 -29.5t-55.5 -75.5h263z" />
    <glyph glyph-name="Oslashacute" unicode="&#x1fe;" horiz-adv-x="816" 
d="M74 11l51 64q-45 43 -69.5 103t-24.5 134q0 83 31.5 159t87.5 134t134.5 92.5t171.5 34.5q92 0 164 -40l56 70l73 -58l-54 -68q42 -44 66 -102.5t24 -129.5q0 -83 -31.5 -159t-88 -134t-134.5 -92.5t-171 -34.5q-44 0 -83.5 9.5t-74.5 26.5l-53 -67zM146 313
q0 -45 13.5 -81.5t38.5 -65.5l349 435q-48 23 -106 23q-62 0 -116 -26.5t-93.5 -70t-62.5 -99.5t-23 -115zM375 92q61 0 114.5 26t93.5 69.5t63.5 99.5t23.5 116q0 42 -13 77.5t-36 63.5l-346 -433q47 -19 100 -19zM433 772l71 132h127l-104 -132h-94z" />
    <glyph glyph-name="oslashacute" unicode="&#x1ff;" horiz-adv-x="568" 
d="M27 8l38 47q-60 65 -60 160q0 62 22 115t61.5 92t93.5 61.5t118 22.5q30 0 57 -6.5t50 -17.5l43 53l65 -53l-41 -51q28 -31 43 -71t15 -85q0 -62 -22 -115t-61.5 -92t-93.5 -61.5t-118 -22.5q-56 0 -103 22l-39 -49zM118 225q0 -45 21 -78l198 247q-23 9 -48 9
q-39 0 -70.5 -14.5t-54 -39t-34.5 -56.5t-12 -68zM248 87q39 0 70.5 14.5t54 39t34.5 56.5t12 68q0 40 -19 73l-196 -244q20 -7 44 -7zM274 588l71 132h127l-104 -132h-94z" />
    <glyph glyph-name="uni0218" unicode="&#x218;" horiz-adv-x="564" 
d="M131 -232l54 60q-20 5 -31.5 22t-11.5 38q0 25 18 44.5t47 19.5t47 -19.5t18 -46.5q0 -14 -4 -28t-14 -25l-82 -100zM230 -16q-44 0 -83.5 13t-70 38t-51.5 62t-29 85l112 45q3 -27 13 -51.5t27 -43t41 -29.5t54 -11q27 0 52.5 8t45 23t31 36t11.5 48q0 41 -27.5 68
t-93.5 51l-39 14q-28 10 -54 26t-46.5 38.5t-32.5 52t-12 67.5q0 45 19.5 83.5t53 66t79 43t96.5 15.5q54 0 92.5 -15t64 -37.5t39 -49t17.5 -49.5l-106 -40q-3 15 -10.5 30.5t-21.5 27.5t-35 19.5t-50 7.5q-24 0 -46.5 -6.5t-39 -18.5t-26.5 -30t-10 -40q0 -37 26 -60
t78 -43l42 -16q34 -13 63.5 -30.5t50.5 -40.5t33 -53t12 -67q0 -53 -20 -97t-56 -75t-85.5 -48t-107.5 -17z" />
    <glyph glyph-name="uni0219" unicode="&#x219;" horiz-adv-x="469" 
d="M95 -232l54 60q-20 5 -31.5 22t-11.5 38q0 25 18 44.5t47 19.5t47 -19.5t18 -46.5q0 -14 -4 -28t-14 -25l-82 -100zM193 -16q-44 0 -78.5 11t-60 30t-42.5 44.5t-25 54.5l104 42q10 -42 40.5 -62.5t71.5 -20.5q40 0 66 16t26 42q0 24 -17 38t-55 25l-55 15
q-26 7 -48.5 18t-39.5 27t-27 38t-10 51q0 34 16 62.5t44 48.5t66 31t81 11q72 0 121 -31.5t69 -85.5l-104 -39q-10 27 -34.5 44.5t-59.5 17.5q-40 0 -63 -14t-23 -38q0 -38 61 -54l67 -17q61 -16 93 -52t32 -85q0 -39 -16 -70t-45 -52.5t-68.5 -33.5t-86.5 -12z" />
    <glyph glyph-name="uni021A" unicode="&#x21a;" horiz-adv-x="561" 
d="M117 -232l54 60q-20 5 -31.5 22t-11.5 38q0 25 18 44.5t47 19.5t47 -19.5t18 -46.5q0 -14 -4 -28t-14 -25l-82 -100zM160 0l108 608h-200l19 108h513l-19 -108h-200l-108 -608h-113z" />
    <glyph glyph-name="uni021B" unicode="&#x21b;" horiz-adv-x="378" 
d="M84 -232l54 60q-20 5 -31.5 22t-11.5 38q0 25 18 44.5t47 19.5t47 -19.5t18 -46.5q0 -14 -4 -28t-14 -25l-82 -100zM204 -8q-57 0 -94.5 31.5t-37.5 94.5q0 9 0.5 19.5t4.5 31.5l39 223h-86l17 98h86l27 150h111l-27 -150h121l-18 -98h-120l-38 -214q-2 -9 -2 -15v-14
q0 -21 11 -36.5t36 -15.5q17 0 26 2.5t20 7.5l17 -99q-38 -16 -93 -16z" />
    <glyph glyph-name="uni0237" unicode="&#x237;" horiz-adv-x="239" 
d="M-74 -226q-18 0 -36.5 3.5t-32.5 8.5l41 97q13 -7 32 -7q47 0 58 60l98 554h111l-97 -556q-8 -45 -23.5 -75.5t-37.5 -49.5t-50.5 -27t-62.5 -8z" />
    <glyph glyph-name="circumflex" unicode="&#x2c6;" horiz-adv-x="428" 
d="M98 595l128 121h99l87 -121l-2 -7h-101l-37 59h-10l-53 -59h-113z" />
    <glyph glyph-name="caron" unicode="&#x2c7;" horiz-adv-x="428" 
d="M432 709l-128 -121h-99l-87 121l2 7h101l37 -59h10l53 59h113z" />
    <glyph glyph-name="breve" unicode="&#x2d8;" horiz-adv-x="408" 
d="M248 583q-24 0 -45 8t-37 22.5t-25 34t-9 43.5q0 6 0.5 11t1.5 11h84q-1 -4 -1 -10q0 -17 10 -29t31 -12q23 0 38 14t20 37h82q-11 -66 -50.5 -98t-99.5 -32z" />
    <glyph glyph-name="dotaccent" unicode="&#x2d9;" horiz-adv-x="251" 
d="M177 589q-27 0 -46.5 19.5t-19.5 46.5q0 29 19.5 47.5t46.5 18.5q29 0 47.5 -18.5t18.5 -47.5q0 -27 -18.5 -46.5t-47.5 -19.5z" />
    <glyph glyph-name="ring" unicode="&#x2da;" horiz-adv-x="404" 
d="M252 566q-22 0 -41.5 8.5t-33.5 23t-22.5 33.5t-8.5 41q0 45 30.5 75.5t75.5 30.5q22 0 41 -8.5t33.5 -22.5t23 -33.5t8.5 -41.5t-8.5 -41t-23 -33.5t-33.5 -23t-41 -8.5zM252 632q16 0 27.5 12t11.5 28t-11.5 27.5t-27.5 11.5q-17 0 -28.5 -11.5t-11.5 -27.5t11.5 -28
t28.5 -12z" />
    <glyph glyph-name="tilde" unicode="&#x2dc;" horiz-adv-x="409" 
d="M318 591q-20 0 -36 7t-30 15q-15 8 -29.5 15t-29.5 7q-28 0 -35 -32h-84q8 62 40.5 92t79.5 30q19 0 35.5 -7t31.5 -15t29 -15t29 -7q28 0 35 32h84q-8 -62 -40.5 -92t-79.5 -30z" />
    <glyph glyph-name="uni0374" unicode="&#x374;" horiz-adv-x="296" 
d="M180 716h139l-162 -215h-93z" />
    <glyph glyph-name="uni0375" unicode="&#x375;" horiz-adv-x="296" 
d="M152 -93h-136l134 215h95z" />
    <glyph glyph-name="uni037E" unicode="&#x37e;" horiz-adv-x="252" 
d="M135 345q-32 0 -54.5 22.5t-22.5 54.5t22.5 54.5t54.5 22.5t54.5 -22.5t22.5 -54.5t-22.5 -54.5t-54.5 -22.5zM-27 -72l72 87q-14 7 -27.5 23.5t-13.5 45.5q0 33 22.5 55t53.5 22q32 0 55 -22t23 -55q0 -17 -10 -35t-27 -38l-101 -121z" />
    <glyph glyph-name="tonos" unicode="&#x384;" horiz-adv-x="421" 
d="M168 584l70 132h127l-103 -132h-94z" />
    <glyph glyph-name="dieresistonos" unicode="&#x385;" horiz-adv-x="432" 
d="M392 600q-23 0 -41 18t-18 41q0 25 18 42t41 17q25 0 42 -17t17 -42q0 -23 -17 -41t-42 -18zM142 600q-23 0 -41 18t-18 41q0 25 18 42t41 17q25 0 42 -17t17 -42q0 -23 -17 -41t-42 -18zM220 588l25 144h70l-25 -144h-70z" />
    <glyph glyph-name="Alphatonos" unicode="&#x386;" horiz-adv-x="692" 
d="M342 716h131l143 -716h-121l-33 184h-287l-97 -184h-129zM442 287l-39 211l-13 84h-6l-42 -84l-112 -211h212zM77 588l71 132h127l-104 -132h-94z" />
    <glyph glyph-name="anoteleia" unicode="&#x387;" horiz-adv-x="195" 
d="M95 247q-32 0 -54.5 22.5t-22.5 54.5t22.5 54.5t54.5 22.5t55 -22.5t23 -54.5t-23 -54.5t-55 -22.5z" />
    <glyph glyph-name="Epsilontonos" unicode="&#x388;" horiz-adv-x="620" 
d="M-42 588l71 132h127l-104 -132h-94zM289 608l-35 -197h291l-19 -106h-291l-34 -197h322l-19 -108h-436l127 716h436l-19 -108h-323z" />
    <glyph glyph-name="Etatonos" unicode="&#x389;" horiz-adv-x="760" 
d="M195 716h113l-53 -297h330l53 297h114l-127 -716h-114l56 313h-330l-56 -313h-113zM-42 588l71 132h127l-104 -132h-94z" />
    <glyph glyph-name="Iotatonos" unicode="&#x38a;" horiz-adv-x="317" 
d="M195 716h113l-127 -716h-113zM-42 588l71 132h127l-104 -132h-94z" />
    <glyph glyph-name="Omicrontonos" unicode="&#x38c;" horiz-adv-x="786" 
d="M-47 588l71 132h127l-104 -132h-94zM331 -16q-70 0 -130 24t-104.5 67t-69.5 103.5t-25 133.5q0 83 31.5 159t87.5 134t134.5 92.5t171.5 34.5q72 0 132 -24.5t104 -68t68.5 -103.5t24.5 -132q0 -83 -31.5 -159t-88 -134t-134.5 -92.5t-171 -34.5zM346 92q61 0 114.5 26
t93.5 69.5t63.5 99.5t23.5 116q0 50 -17.5 90.5t-48.5 69.5t-73 45t-90 16q-62 0 -116 -26.5t-93.5 -70t-62.5 -99.5t-23 -115q0 -50 17.5 -90.5t48.5 -69.5t73 -45t90 -16z" />
    <glyph glyph-name="Upsilontonos" unicode="&#x38e;" horiz-adv-x="717" 
d="M285 0l59 333l-173 383h130l114 -264h6l202 264h139l-305 -383l-59 -333h-113zM-42 588l71 132h127l-104 -132h-94z" />
    <glyph glyph-name="Omegatonos" unicode="&#x38f;" horiz-adv-x="767" 
d="M358 0l26 146q48 12 90.5 38t74 62t50 80t18.5 92q0 47 -15.5 85t-43.5 65t-67 41.5t-86 14.5q-60 0 -110.5 -21t-87 -57.5t-57.5 -84.5t-21 -102q0 -43 12 -78t32.5 -61.5t47.5 -45t57 -28.5l-26 -146h-287l17 103h151l2 6q-21 17 -43 40t-39 53.5t-28 68t-11 82.5
q0 76 29.5 144.5t83 120.5t128 83t164.5 31q74 0 132 -23.5t98.5 -64t62 -95t21.5 -115.5q0 -109 -58 -190t-155 -135l-2 -6h145l-17 -103h-288zM-47 588l71 132h127l-104 -132h-94z" />
    <glyph glyph-name="iotadieresistonos" unicode="&#x390;" horiz-adv-x="239" 
d="M297 600q-23 0 -41 18t-18 41q0 25 18 42t41 17q25 0 42 -17t17 -42q0 -23 -17 -41t-42 -18zM47 600q-23 0 -41 18t-18 41q0 25 18 42t41 17q25 0 42 -17t17 -42q0 -23 -17 -41t-42 -18zM125 588l25 144h70l-25 -144h-70zM0 0l86 490h111l-86 -490h-111z" />
    <glyph glyph-name="Alpha" unicode="&#x391;" horiz-adv-x="692" 
d="M342 716h131l143 -716h-121l-33 184h-287l-97 -184h-129zM442 287l-39 211l-13 84h-6l-42 -84l-112 -211h212z" />
    <glyph glyph-name="Beta" unicode="&#x392;" horiz-adv-x="611" 
d="M135 716h250q48 0 85.5 -14.5t63 -38.5t39 -55.5t13.5 -66.5t-10.5 -62t-28 -48t-40.5 -35t-47 -22l-1 -6q42 -21 68.5 -56.5t26.5 -91.5q0 -49 -20.5 -89.5t-56 -69.5t-83.5 -45t-104 -16h-282zM346 417q54 0 90 26.5t36 77.5q0 38 -24.5 64t-69.5 26h-149l-34 -194h151
zM308 105q24 0 47.5 7t42 21.5t30 36t11.5 50.5q0 43 -27.5 69t-78.5 26h-156l-37 -210h168z" />
    <glyph glyph-name="Gamma" unicode="&#x393;" horiz-adv-x="516" 
d="M135 716h420l-19 -108h-307l-108 -608h-113z" />
    <glyph glyph-name="uni0394" unicode="&#x394;" horiz-adv-x="684" 
d="M340 716h130l138 -716h-659zM134 106h334l-82 470h-6z" />
    <glyph glyph-name="Epsilon" unicode="&#x395;" horiz-adv-x="560" 
d="M229 608l-35 -197h291l-19 -106h-291l-34 -197h322l-19 -108h-436l127 716h436l-19 -108h-323z" />
    <glyph glyph-name="Zeta" unicode="&#x396;" horiz-adv-x="580" 
d="M-10 116l454 492h-352l19 108h488l-21 -116l-453 -492h370l-19 -108h-507z" />
    <glyph glyph-name="Eta" unicode="&#x397;" horiz-adv-x="701" 
d="M135 716h113l-53 -297h330l53 297h114l-127 -716h-114l56 313h-330l-56 -313h-113z" />
    <glyph glyph-name="Theta" unicode="&#x398;" horiz-adv-x="830" 
d="M246 306l18 104h315l-17 -104h-316zM360 -16q-70 0 -130 24t-104.5 67t-69.5 103.5t-25 133.5q0 83 31.5 159t88 134t134.5 92.5t171 34.5q72 0 132 -24.5t104 -68t68.5 -103.5t24.5 -132q0 -83 -31.5 -159t-88 -134t-134.5 -92.5t-171 -34.5zM372 92q64 0 118.5 24.5
t94.5 66.5t62.5 97t22.5 115q0 53 -17.5 95.5t-48 72t-72 45.5t-88.5 16q-64 0 -118.5 -24.5t-94.5 -66.5t-62.5 -97t-22.5 -115q0 -53 17.5 -95.5t48 -72t72 -45.5t88.5 -16z" />
    <glyph glyph-name="Iota" unicode="&#x399;" horiz-adv-x="257" 
d="M135 716h113l-127 -716h-113z" />
    <glyph glyph-name="Kappa" unicode="&#x39a;" horiz-adv-x="633" 
d="M677 710l-361 -363l249 -341l-1 -6h-141l-237 327h-6l-59 -327h-113l127 716h113l-61 -346h6l338 346h148z" />
    <glyph glyph-name="Lambda" unicode="&#x39b;" horiz-adv-x="676" 
d="M336 716h130l134 -716h-122l-83 503l-11 79h-6l-39 -79l-260 -503h-130z" />
    <glyph glyph-name="Mu" unicode="&#x39c;" horiz-adv-x="843" 
d="M135 716h109l161 -407h6l304 407h119l-127 -716h-112l68 389l27 120h-6l-265 -357h-67l-142 357h-6l-15 -120l-68 -389h-113z" />
    <glyph glyph-name="Nu" unicode="&#x39d;" horiz-adv-x="709" 
d="M135 716h127l234 -519h6l18 138l68 381h112l-127 -716h-110l-246 545h-6l-18 -138l-72 -407h-113z" />
    <glyph glyph-name="Xi" unicode="&#x39e;" horiz-adv-x="517" 
d="M-16 108h460l-19 -108h-460zM69 412h396l-18 -108h-397zM91 716h461l-20 -108h-460z" />
    <glyph glyph-name="Omicron" unicode="&#x39f;" horiz-adv-x="816" 
d="M360 -16q-70 0 -130 24t-104.5 67t-69.5 103.5t-25 133.5q0 83 31.5 159t87.5 134t134.5 92.5t171.5 34.5q72 0 132 -24.5t104 -68t68.5 -103.5t24.5 -132q0 -83 -31.5 -159t-88 -134t-134.5 -92.5t-171 -34.5zM375 92q61 0 114.5 26t93.5 69.5t63.5 99.5t23.5 116
q0 50 -17.5 90.5t-48.5 69.5t-73 45t-90 16q-62 0 -116 -26.5t-93.5 -70t-62.5 -99.5t-23 -115q0 -50 17.5 -90.5t48.5 -69.5t73 -45t90 -16z" />
    <glyph glyph-name="Pi" unicode="&#x3a0;" horiz-adv-x="678" 
d="M135 716h534l-127 -716h-113l107 608h-307l-108 -608h-113z" />
    <glyph glyph-name="Rho" unicode="&#x3a1;" horiz-adv-x="578" 
d="M8 0l127 716h239q45 0 83 -14.5t65.5 -40t43 -62t15.5 -79.5q0 -58 -20.5 -103.5t-56.5 -76.5t-85.5 -47t-108.5 -16h-139l-50 -277h-113zM327 385q29 0 54.5 7.5t44 22.5t29.5 38.5t11 55.5q0 45 -27 72t-72 27h-138l-39 -223h137z" />
    <glyph glyph-name="Sigma" unicode="&#x3a3;" horiz-adv-x="514" 
d="M214 610l164 -244l-247 -260h310l-19 -106h-445l20 115l245 254l-159 232l20 115h446l-19 -106h-316z" />
    <glyph glyph-name="Tau" unicode="&#x3a4;" horiz-adv-x="561" 
d="M160 0l108 608h-200l19 108h513l-19 -108h-200l-108 -608h-113z" />
    <glyph glyph-name="Upsilon" unicode="&#x3a5;" horiz-adv-x="615" 
d="M189 0l59 333l-173 383h130l114 -264h6l202 264h139l-305 -383l-59 -333h-113z" />
    <glyph glyph-name="Phi" unicode="&#x3a6;" horiz-adv-x="799" 
d="M276 -16l13 75q-58 7 -105.5 29.5t-81 57.5t-52 80.5t-18.5 99.5q0 70 28 128.5t77 101.5t115 69t143 32l13 75h114l-14 -76q59 -8 107 -31t81.5 -58.5t51.5 -81t18 -99.5q0 -70 -28 -128t-76.5 -100.5t-115 -68t-144.5 -31.5l-13 -74h-113zM651 378q0 74 -42 118.5
t-119 54.5l-69 -387q47 6 89 22t73.5 43t49.5 64.5t18 84.5zM147 337q0 -74 42 -118t118 -55l69 387q-47 -6 -88.5 -22.5t-72.5 -43.5t-49.5 -64t-18.5 -84z" />
    <glyph glyph-name="Chi" unicode="&#x3a7;" horiz-adv-x="660" 
d="M259 376l-169 340h139l115 -251h6l202 251h143l-290 -349l183 -367h-137l-132 272h-6l-222 -272h-141z" />
    <glyph glyph-name="Psi" unicode="&#x3a8;" horiz-adv-x="754" 
d="M284 156q-45 0 -84.5 15.5t-69 45.5t-46.5 73.5t-17 99.5q0 30 6 68l46 258h113l-48 -270q-2 -14 -3.5 -27t-1.5 -25q0 -61 31.5 -95.5t92.5 -34.5l80 452h114l-81 -452q38 0 68.5 13t53.5 37t38.5 56.5t22.5 71.5l49 274h113l-52 -289q-12 -65 -41 -115.5t-71 -85
t-93.5 -52.5t-106.5 -18l-27 -156h-114z" />
    <glyph glyph-name="uni03A9" unicode="&#x3a9;" horiz-adv-x="796" 
d="M386 0l26 146q48 12 90.5 38t74 62t50 80t18.5 92q0 47 -15.5 85t-43.5 65t-67 41.5t-86 14.5q-60 0 -110.5 -21t-87 -57.5t-57.5 -84.5t-21 -102q0 -43 12 -78t32.5 -61.5t47.5 -45t57 -28.5l-26 -146h-287l17 103h151l2 6q-21 17 -43 40t-39 53.5t-28 68t-11 82.5
q0 76 29.5 144.5t83 120.5t128 83t164.5 31q74 0 132 -23.5t98.5 -64t62 -95t21.5 -115.5q0 -109 -58 -190t-155 -135l-2 -6h145l-17 -103h-288z" />
    <glyph glyph-name="Iotadieresis" unicode="&#x3aa;" horiz-adv-x="257" 
d="M293 796q-24 0 -42 18t-18 42q0 26 18 43t42 17q26 0 43 -17t17 -43q0 -24 -17 -42t-43 -18zM128 796q-24 0 -42 18t-18 42q0 26 18 43t42 17q25 0 42 -17t17 -43q0 -24 -17 -42t-42 -18zM135 716h113l-127 -716h-113z" />
    <glyph glyph-name="Upsilondieresis" unicode="&#x3ab;" horiz-adv-x="615" 
d="M189 0l59 333l-173 383h130l114 -264h6l202 264h139l-305 -383l-59 -333h-113zM466 779q-26 0 -45.5 19t-19.5 45q0 28 19.5 46t45.5 18q27 0 45.5 -18t18.5 -46q0 -26 -18.5 -45t-45.5 -19zM286 779q-26 0 -45 19t-19 45q0 28 19 46t45 18q28 0 46.5 -18t18.5 -46
q0 -26 -18.5 -45t-46.5 -19z" />
    <glyph glyph-name="alphatonos" unicode="&#x3ac;" horiz-adv-x="584" 
d="M266 588l71 132h127l-104 -132h-94zM208 -16q-41 0 -78 15.5t-65 45t-44 72t-16 95.5q0 58 21 111.5t58.5 94t89.5 64.5t113 24q54 0 91 -23t57 -56h6l11 63h105l-86 -490h-106l11 63h-6q-23 -32 -61 -55.5t-101 -23.5zM286 403q-36 0 -66.5 -14t-53 -38.5t-35.5 -57.5
t-13 -71q0 -63 33 -99t92 -36q35 0 66 15t54 40.5t36 59t13 70.5q0 31 -9.5 55.5t-26.5 41.5t-40 25.5t-50 8.5z" />
    <glyph glyph-name="epsilontonos" unicode="&#x3ad;" horiz-adv-x="509" 
d="M255 412q-19 0 -36.5 -4t-31.5 -12t-22.5 -20.5t-8.5 -29.5q0 -26 18.5 -40.5t53.5 -14.5h71l-14 -85h-84q-18 0 -35.5 -4t-30.5 -12t-21 -20.5t-8 -29.5q0 -28 22.5 -43t64.5 -15q45 0 76.5 15t66.5 48l68 -66q-25 -24 -49.5 -42t-51 -30t-56.5 -17.5t-66 -5.5
q-44 0 -79 10.5t-59 29t-37 43.5t-13 55q0 48 28 81t78 49l1 6q-18 12 -33.5 33.5t-15.5 57.5t16.5 65t45.5 49.5t68 31.5t84 11q59 0 99.5 -21t72.5 -65l-78 -61q-18 24 -43 38.5t-61 14.5zM241 588l71 132h127l-104 -132h-94z" />
    <glyph glyph-name="etatonos" unicode="&#x3ae;" 
d="M277 588l71 132h127l-104 -132h-94zM173 424h6q25 37 67 59.5t96 22.5q37 0 66 -11.5t49.5 -32t31.5 -48.5t11 -61q0 -15 -1.5 -32t-5.5 -36l-89 -501h-111l89 504l3 21q1 6 1 14q0 38 -23.5 59t-65.5 21q-30 0 -54.5 -11.5t-43.5 -31.5t-31.5 -46.5t-17.5 -57.5
l-46 -256h-111l86 490h105z" />
    <glyph glyph-name="iotatonos" unicode="&#x3af;" horiz-adv-x="239" 
d="M107 588l71 132h127l-104 -132h-94zM0 0l86 490h111l-86 -490h-111z" />
    <glyph glyph-name="upsilondieresistonos" unicode="&#x3b0;" horiz-adv-x="553" 
d="M436 600q-23 0 -41 18t-18 41q0 25 18 42t41 17q25 0 42 -17t17 -42q0 -23 -17 -41t-42 -18zM186 600q-23 0 -41 18t-18 41q0 25 18 42t41 17q25 0 42 -17t17 -42q0 -23 -17 -41t-42 -18zM264 588l25 144h70l-25 -144h-70zM223 -16q-43 0 -79 13.5t-62.5 38.5t-41 61
t-14.5 80q0 23 6 59l44 254h111l-45 -255q-2 -14 -3 -21.5t-1 -18.5q0 -54 27.5 -81t72.5 -27q39 0 69 15.5t50.5 42.5t30.5 64t10 80q0 54 -11 102t-31 99h119q14 -36 25 -85t11 -108q0 -64 -18 -121t-54 -99.5t-90 -67.5t-126 -25z" />
    <glyph glyph-name="alpha" unicode="&#x3b1;" horiz-adv-x="584" 
d="M208 -16q-41 0 -78 15.5t-65 45t-44 72t-16 95.5q0 58 21 111.5t58.5 94t89.5 64.5t113 24q54 0 91 -23t57 -56h6l11 63h105l-86 -490h-106l11 63h-6q-23 -32 -61 -55.5t-101 -23.5zM286 403q-36 0 -66.5 -14t-53 -38.5t-35.5 -57.5t-13 -71q0 -63 33 -99t92 -36
q35 0 66 15t54 40.5t36 59t13 70.5q0 31 -9.5 55.5t-26.5 41.5t-40 25.5t-50 8.5z" />
    <glyph glyph-name="beta" unicode="&#x3b2;" horiz-adv-x="574" 
d="M428 384q38 -21 63.5 -60t25.5 -99q0 -50 -19.5 -93.5t-53 -76.5t-79.5 -52t-99 -19q-42 0 -78.5 16.5t-59.5 46.5h-6l-7 -72l-33 -191h-112l127 727q8 48 27 88.5t49.5 70t72.5 46t97 16.5q43 0 80 -13.5t63 -36.5t41 -54.5t15 -67.5q0 -34 -9 -61t-24.5 -48t-36 -36.5
t-43.5 -24.5zM268 87q25 0 49 9.5t43.5 27t31.5 42.5t12 57q0 51 -34.5 79.5t-87.5 28.5h-26l18 102h25q25 0 48.5 7t41.5 20.5t29 33t11 43.5q0 43 -27 66.5t-71 23.5q-50 0 -81 -32.5t-40 -82.5l-51 -288q-3 -18 -3 -35q0 -47 30 -74.5t82 -27.5z" />
    <glyph glyph-name="gamma" unicode="&#x3b3;" horiz-adv-x="554" 
d="M124 -216l39 222l-131 484h121l85 -351h5l208 351h127l-303 -483l-40 -223h-111z" />
    <glyph glyph-name="delta" unicode="&#x3b4;" horiz-adv-x="568" 
d="M227 -16q-48 0 -88.5 17t-70.5 47.5t-46.5 72t-16.5 91.5q0 51 16 98t47.5 85.5t79 65t110.5 36.5l-139 133l15 86h413l-17 -97h-250l157 -147q46 -43 67 -89t21 -106q0 -62 -21 -115t-60 -93t-94 -62.5t-123 -22.5zM243 87q35 0 66 12.5t54 35.5t36.5 57t13.5 76
q0 30 -9.5 55t-26.5 42.5t-40.5 27.5t-51.5 10q-36 0 -67 -13.5t-53.5 -38t-35 -58t-12.5 -72.5q0 -32 10 -56.5t27 -42t40 -26.5t49 -9z" />
    <glyph glyph-name="epsilon" unicode="&#x3b5;" horiz-adv-x="491" 
d="M263 412q-19 0 -36.5 -4t-31.5 -12t-22.5 -20.5t-8.5 -29.5q0 -26 18.5 -40.5t53.5 -14.5h71l-14 -85h-84q-18 0 -35.5 -4t-30.5 -12t-21 -20.5t-8 -29.5q0 -28 22.5 -43t64.5 -15q45 0 76.5 15t66.5 48l68 -66q-25 -24 -49.5 -42t-51 -30t-56.5 -17.5t-66 -5.5
q-44 0 -79 10.5t-59 29t-37 43.5t-13 55q0 48 28 81t78 49l1 6q-18 12 -33.5 33.5t-15.5 57.5t16.5 65t45.5 49.5t68 31.5t84 11q59 0 99.5 -21t72.5 -65l-78 -61q-18 24 -43 38.5t-61 14.5z" />
    <glyph glyph-name="zeta" unicode="&#x3b6;" horiz-adv-x="484" 
d="M253 -74q21 0 36 10t15 30q0 34 -43 34h-117q-67 0 -104.5 36.5t-37.5 90.5q0 46 22.5 79t67.5 60q17 11 49.5 31.5t65.5 40.5t58 36t28 18h-229l17 98h393l-17 -94q-81 -52 -145 -93q-27 -18 -54 -35t-49 -30q-22 -14 -36 -23q-14 -10 -17 -11q-20 -12 -30 -26t-10 -32
q0 -23 17 -35.5t41 -12.5h99q66 0 102 -32.5t36 -87.5q0 -69 -47 -107.5t-128 -38.5z" />
    <glyph glyph-name="eta" unicode="&#x3b7;" 
d="M173 424h6q25 37 67 59.5t96 22.5q37 0 66 -11.5t49.5 -32t31.5 -48.5t11 -61q0 -15 -1.5 -32t-5.5 -36l-89 -501h-111l89 504l3 21q1 6 1 14q0 38 -23.5 59t-65.5 21q-30 0 -54.5 -11.5t-43.5 -31.5t-31.5 -46.5t-17.5 -57.5l-46 -256h-111l86 490h105z" />
    <glyph glyph-name="theta" unicode="&#x3b8;" horiz-adv-x="667" 
d="M272 -16q-54 0 -97.5 20.5t-74.5 59t-48 92.5t-17 122q0 82 25 158.5t70.5 135t108 93.5t137.5 35q54 0 97.5 -20.5t74.5 -59t48 -93t17 -121.5q0 -83 -25 -159t-70 -134.5t-108 -93.5t-138 -35zM285 89q37 0 70.5 17.5t60.5 47.5t46.5 71t28.5 89h-342v-19
q0 -96 36 -151t100 -55zM363 595q-33 0 -63.5 -14t-56.5 -39.5t-46 -60t-32 -75.5h333q-3 88 -38 138.5t-97 50.5z" />
    <glyph glyph-name="iota" unicode="&#x3b9;" horiz-adv-x="239" 
d="M0 0l86 490h111l-86 -490h-111z" />
    <glyph glyph-name="kappa" unicode="&#x3ba;" horiz-adv-x="495" 
d="M190 490l-38 -215h6l214 215h139l-2 -6l-237 -231l162 -247l-1 -6h-129l-152 240h-6l-43 -240h-110l86 490h111z" />
    <glyph glyph-name="lambda" unicode="&#x3bb;" horiz-adv-x="526" 
d="M284 706l179 -706h-120l-75 322h-5l-189 -322h-128l284 464l-66 242h120z" />
    <glyph glyph-name="nu" unicode="&#x3bd;" horiz-adv-x="527" 
d="M28 490h123l70 -346h4l196 346h125l-291 -490h-112z" />
    <glyph glyph-name="xi" unicode="&#x3be;" horiz-adv-x="526" 
d="M333 732q72 0 121 -30.5t77 -78.5l-95 -63q-20 36 -47 52.5t-67 16.5q-27 0 -51 -7t-42 -21.5t-28.5 -35t-10.5 -47.5q0 -45 32 -69.5t77 -24.5h94l-17 -98h-111q-67 0 -110.5 -32.5t-43.5 -88.5q0 -49 35.5 -74t87.5 -25h54q72 0 110.5 -31t38.5 -91q0 -72 -49 -111.5
t-127 -40.5l17 94q19 0 35 11t16 30q0 33 -39 33h-79q-50 0 -90 14t-68 38.5t-42.5 57t-14.5 70.5q0 139 148 202l1 6q-11 8 -23 20t-22 28t-16.5 37t-6.5 48q0 42 18.5 80.5t52 67.5t80.5 46t105 17z" />
    <glyph glyph-name="omicron" unicode="&#x3bf;" horiz-adv-x="568" 
d="M300 506q52 0 95 -18.5t73.5 -50t47 -73.5t16.5 -89q0 -62 -22 -115t-61.5 -92t-93.5 -61.5t-118 -22.5q-53 0 -95.5 18.5t-73 50t-47 73.5t-16.5 89q0 62 22 115t61.5 92t93.5 61.5t118 22.5zM248 87q39 0 70.5 14.5t54 39t34.5 56.5t12 68q0 30 -10 55.5t-28 44
t-41.5 28.5t-50.5 10q-39 0 -70.5 -14.5t-54 -39t-34.5 -56.5t-12 -68q0 -30 10 -55.5t28 -44t41.5 -28.5t50.5 -10z" />
    <glyph glyph-name="pi" unicode="&#x3c0;" horiz-adv-x="716" 
d="M536 -8q-58 0 -94 33.5t-36 92.5q0 10 1 21t4 30l39 223h-191l-68 -392h-112l69 392h-118l18 98h651l-17 -98h-120l-38 -213q-2 -10 -2 -16v-14q0 -22 11 -38.5t35 -16.5q17 0 26 3.5t20 8.5l21 -95q-23 -10 -45.5 -14.5t-53.5 -4.5z" />
    <glyph glyph-name="rho" unicode="&#x3c1;" horiz-adv-x="588" 
d="M272 -16q-55 0 -94.5 24t-56.5 55h-6l-5 -68l-38 -211h-110l79 453q10 58 34 107.5t61 85.5t87.5 56t113.5 20q48 0 88 -16.5t68 -46.5t43.5 -72t15.5 -94q0 -54 -20.5 -107t-57.5 -94t-88.5 -66.5t-113.5 -25.5zM271 87q34 0 64.5 14t53.5 38.5t36 58t13 71.5
q0 63 -33.5 98.5t-87.5 35.5q-36 0 -67.5 -15t-55 -41t-36.5 -60t-13 -72q0 -62 36 -95t90 -33z" />
    <glyph glyph-name="uni03C2" unicode="&#x3c2;" horiz-adv-x="529" 
d="M253 -16q-56 0 -102 16.5t-78.5 46.5t-50 73t-17.5 96q0 60 22 113t61 92t93.5 62t120.5 23q44 0 79 -11.5t60.5 -31t42.5 -45.5t25 -54l-106 -41q-12 38 -41 59t-74 21q-38 0 -69 -14t-53.5 -38t-35 -56.5t-12.5 -69.5q0 -29 9 -54.5t27 -44t46 -29t66 -10.5h23
q66 0 105.5 -32.5t39.5 -88.5q0 -72 -47.5 -110.5t-127.5 -39.5l17 94q22 0 36.5 10.5t14.5 30.5q0 14 -10.5 23.5t-33.5 9.5h-30z" />
    <glyph glyph-name="sigma" unicode="&#x3c3;" horiz-adv-x="600" 
d="M229 -16q-49 0 -90 16t-71 45t-46.5 69.5t-16.5 89.5q0 55 19.5 107t57 91.5t91.5 63.5t123 24h317l-17 -97h-57l-70 6l-2 -6q18 -20 31 -52.5t13 -77.5q0 -62 -22.5 -113.5t-60.5 -88t-89.5 -57t-109.5 -20.5zM239 87q33 0 62.5 12.5t51 34.5t34 53t12.5 69q0 31 -9 55
t-25 41t-36.5 26t-44.5 9q-36 0 -66.5 -13.5t-52.5 -37t-34.5 -55t-12.5 -68.5q0 -61 35 -93.5t86 -32.5z" />
    <glyph glyph-name="tau" unicode="&#x3c4;" horiz-adv-x="467" 
d="M47 490h419l-19 -103h-153l-69 -387h-111l68 387h-153z" />
    <glyph glyph-name="upsilon" unicode="&#x3c5;" horiz-adv-x="553" 
d="M223 -16q-43 0 -79 13.5t-62.5 38.5t-41 61t-14.5 80q0 23 6 59l44 254h111l-45 -255q-2 -14 -3 -21.5t-1 -18.5q0 -54 27.5 -81t72.5 -27q39 0 69 15.5t50.5 42.5t30.5 64t10 80q0 54 -11 102t-31 99h119q14 -36 25 -85t11 -108q0 -64 -18 -121t-54 -99.5t-90 -67.5
t-126 -25z" />
    <glyph glyph-name="phi" unicode="&#x3c6;" horiz-adv-x="728" 
d="M210 -216l36 205q-50 6 -91 25.5t-69.5 49.5t-44 69t-15.5 84q0 52 16 96t45.5 80t70 64.5t88.5 48.5l34 -96q-62 -26 -101 -70.5t-39 -111.5q0 -58 35.5 -92.5t88.5 -45.5l46 262q6 33 20.5 61t37.5 48.5t53 32.5t68 12q43 0 77.5 -16t58.5 -44.5t37 -68.5t13 -88
q0 -65 -23.5 -118.5t-65.5 -92.5t-100.5 -63t-127.5 -28l-36 -203h-112zM376 89q42 6 76 21t59 39.5t38.5 59t13.5 78.5q0 51 -21 83.5t-59 32.5q-20 0 -38 -12.5t-23 -39.5z" />
    <glyph glyph-name="chi" unicode="&#x3c7;" horiz-adv-x="493" 
d="M292 0l-78 163h-4l-131 -163h-135l215 254l-125 236h129l75 -154h4l125 154h137l-212 -242l128 -248h-128z" />
    <glyph glyph-name="psi" unicode="&#x3c8;" horiz-adv-x="702" 
d="M235 -16q-44 0 -82.5 14t-67 40t-45 64t-16.5 85q0 13 0.5 23t3.5 29l44 251h112l-46 -258q-2 -8 -3 -18t-1 -18q0 -29 10 -50t27 -34t38 -19t44 -6l72 403h112l-72 -403q49 0 84 19t56.5 49.5t31.5 69.5t10 79q0 59 -7.5 101t-22.5 85h113q12 -33 20.5 -78.5t8.5 -102.5
q0 -71 -22 -130.5t-62.5 -102.5t-98 -67.5t-129.5 -24.5l-35 -200h-112z" />
    <glyph glyph-name="omega" unicode="&#x3c9;" horiz-adv-x="787" 
d="M508 -16q-55 0 -90.5 25t-52.5 65q-29 -44 -71.5 -67t-96.5 -23q-37 0 -69 13.5t-56 39.5t-37.5 63.5t-13.5 85.5q0 45 10 87t26.5 80.5t37.5 72.5t44 64h126q-23 -30 -46 -63.5t-41 -70.5t-29.5 -75.5t-11.5 -78.5q0 -54 21.5 -83t59.5 -29q40 0 74 36t47 110l24 134
h105l-24 -134q-3 -17 -4 -28.5t-1 -25.5q0 -44 21.5 -68t59.5 -24q34 0 58.5 18t40.5 46.5t23.5 64t7.5 71.5q0 57 -11.5 104t-31.5 96h122q15 -39 25 -87.5t10 -112.5q0 -53 -15.5 -107.5t-47 -98.5t-79.5 -72t-114 -28z" />
    <glyph glyph-name="iotadieresis" unicode="&#x3ca;" horiz-adv-x="239" 
d="M90 596q-26 0 -44.5 18.5t-18.5 44.5q0 27 18.5 45t44.5 18q27 0 45 -18t18 -45q0 -26 -18 -44.5t-45 -18.5zM242 596q-26 0 -44.5 18.5t-18.5 44.5q0 27 18.5 45t44.5 18q27 0 45 -18t18 -45q0 -26 -18 -44.5t-45 -18.5zM0 0l86 490h111l-86 -490h-111z" />
    <glyph glyph-name="upsilondieresis" unicode="&#x3cb;" horiz-adv-x="553" 
d="M396 595q-26 0 -45.5 19t-19.5 45q0 28 19.5 46t45.5 18q27 0 45.5 -18t18.5 -46q0 -26 -18.5 -45t-45.5 -19zM216 595q-26 0 -45 19t-19 45q0 28 19 46t45 18q28 0 46.5 -18t18.5 -46q0 -26 -18.5 -45t-46.5 -19zM223 -16q-43 0 -79 13.5t-62.5 38.5t-41 61t-14.5 80
q0 23 6 59l44 254h111l-45 -255q-2 -14 -3 -21.5t-1 -18.5q0 -54 27.5 -81t72.5 -27q39 0 69 15.5t50.5 42.5t30.5 64t10 80q0 54 -11 102t-31 99h119q14 -36 25 -85t11 -108q0 -64 -18 -121t-54 -99.5t-90 -67.5t-126 -25z" />
    <glyph glyph-name="omicrontonos" unicode="&#x3cc;" horiz-adv-x="568" 
d="M271 588l71 132h127l-104 -132h-94zM300 506q52 0 95 -18.5t73.5 -50t47 -73.5t16.5 -89q0 -62 -22 -115t-61.5 -92t-93.5 -61.5t-118 -22.5q-53 0 -95.5 18.5t-73 50t-47 73.5t-16.5 89q0 62 22 115t61.5 92t93.5 61.5t118 22.5zM248 87q39 0 70.5 14.5t54 39t34.5 56.5
t12 68q0 30 -10 55.5t-28 44t-41.5 28.5t-50.5 10q-39 0 -70.5 -14.5t-54 -39t-34.5 -56.5t-12 -68q0 -30 10 -55.5t28 -44t41.5 -28.5t50.5 -10z" />
    <glyph glyph-name="upsilontonos" unicode="&#x3cd;" horiz-adv-x="553" 
d="M223 -16q-43 0 -79 13.5t-62.5 38.5t-41 61t-14.5 80q0 23 6 59l44 254h111l-45 -255q-2 -14 -3 -21.5t-1 -18.5q0 -54 27.5 -81t72.5 -27q39 0 69 15.5t50.5 42.5t30.5 64t10 80q0 54 -11 102t-31 99h119q14 -36 25 -85t11 -108q0 -64 -18 -121t-54 -99.5t-90 -67.5
t-126 -25zM247 588l71 132h127l-104 -132h-94z" />
    <glyph glyph-name="omegatonos" unicode="&#x3ce;" horiz-adv-x="787" 
d="M390 588l71 132h127l-104 -132h-94zM508 -16q-55 0 -90.5 25t-52.5 65q-29 -44 -71.5 -67t-96.5 -23q-37 0 -69 13.5t-56 39.5t-37.5 63.5t-13.5 85.5q0 45 10 87t26.5 80.5t37.5 72.5t44 64h126q-23 -30 -46 -63.5t-41 -70.5t-29.5 -75.5t-11.5 -78.5q0 -54 21.5 -83
t59.5 -29q40 0 74 36t47 110l24 134h105l-24 -134q-3 -17 -4 -28.5t-1 -25.5q0 -44 21.5 -68t59.5 -24q34 0 58.5 18t40.5 46.5t23.5 64t7.5 71.5q0 57 -11.5 104t-31.5 96h122q15 -39 25 -87.5t10 -112.5q0 -53 -15.5 -107.5t-47 -98.5t-79.5 -72t-114 -28z" />
    <glyph glyph-name="uni03D1" unicode="&#x3d1;" horiz-adv-x="637" 
d="M223 -16q-43 0 -79 13.5t-62.5 38.5t-41.5 61t-15 82q0 14 1.5 28t3.5 28l45 255h108l-45 -253q-4 -23 -4 -43q0 -56 29.5 -82.5t76.5 -26.5q63 0 101.5 38t51.5 110l7 44q-37 9 -68 30.5t-53.5 52.5t-35 70.5t-12.5 85.5q0 44 12.5 83.5t37 69t60 46.5t81.5 17
q71 0 105 -39.5t34 -99.5q0 -9 -1 -20t-4 -28l-31 -176h89l-17 -96h-89l-9 -54q-10 -54 -33.5 -97.5t-59 -74t-82 -47t-101.5 -16.5zM452 568q1 5 1.5 10t0.5 10q0 20 -11.5 33.5t-34.5 13.5q-18 0 -31.5 -10t-22.5 -25.5t-13.5 -35.5t-4.5 -41q0 -48 21 -88.5t62 -57.5z
" />
    <glyph glyph-name="uni03D2" unicode="&#x3d2;" horiz-adv-x="627" 
d="M604 724q48 0 81 -24l-49 -90q-7 4 -14.5 6.5t-17.5 2.5q-19 0 -36 -12t-38 -44l-169 -248l-56 -315h-113l55 315l-81 248q-11 32 -23 44t-31 12q-8 0 -17 -2.5t-14 -5.5l-31 91q15 8 40 15t52 7q39 0 70.5 -22.5t48.5 -76.5l59 -193h6l124 190q21 32 40 52t37.5 31
t37.5 15t39 4z" />
    <glyph glyph-name="uni03D3" unicode="&#x3d3;" horiz-adv-x="728" 
d="M705 724q48 0 81 -24l-49 -90q-7 4 -14.5 6.5t-17.5 2.5q-19 0 -36 -12t-38 -44l-169 -248l-56 -315h-113l55 315l-81 248q-11 32 -23 44t-31 12q-8 0 -17 -2.5t-14 -5.5l-31 91q15 8 40 15t52 7q39 0 70.5 -22.5t48.5 -76.5l59 -193h6l124 190q21 32 40 52t37.5 31
t37.5 15t39 4zM-55 588l71 132h127l-104 -132h-94z" />
    <glyph glyph-name="uni03D4" unicode="&#x3d4;" horiz-adv-x="627" 
d="M604 724q48 0 81 -24l-49 -90q-7 4 -14.5 6.5t-17.5 2.5q-19 0 -36 -12t-38 -44l-169 -248l-56 -315h-113l55 315l-81 248q-11 32 -23 44t-31 12q-8 0 -17 -2.5t-14 -5.5l-31 91q15 8 40 15t52 7q39 0 70.5 -22.5t48.5 -76.5l59 -193h6l124 190q21 32 40 52t37.5 31
t37.5 15t39 4zM469 779q-26 0 -45.5 19t-19.5 45q0 28 19.5 46t45.5 18q27 0 45.5 -18t18.5 -46q0 -26 -18.5 -45t-45.5 -19zM289 779q-26 0 -45 19t-19 45q0 28 19 46t45 18q28 0 46.5 -18t18.5 -46q0 -26 -18.5 -45t-46.5 -19z" />
    <glyph glyph-name="uni03D6" unicode="&#x3d6;" horiz-adv-x="901" 
d="M238 -16q-37 0 -69.5 13t-57 38.5t-39 62.5t-14.5 85q0 63 17.5 115t43.5 100h-72l16 92h822l-17 -92h-77q5 -23 8 -51t3 -63q0 -54 -16.5 -108t-49 -96.5t-80 -69t-110.5 -26.5q-54 0 -89.5 25t-52.5 67q-30 -45 -71.5 -68.5t-94.5 -23.5zM393 322h105l-16 -87
q-2 -13 -3 -25.5t-1 -23.5q0 -48 20 -72t54 -24q35 0 60.5 17.5t42 45.5t24.5 62.5t8 68.5q0 30 -4 58t-12 56h-427q-29 -45 -49.5 -96t-20.5 -108q0 -50 21.5 -77t59.5 -27q41 0 74.5 35.5t47.5 109.5z" />
    <glyph glyph-name="uni0400" unicode="&#x400;" horiz-adv-x="560" 
d="M229 608l-35 -197h291l-19 -106h-291l-34 -197h322l-19 -108h-436l127 716h436l-19 -108h-323zM312 772l-56 132h123l23 -132h-90z" />
    <glyph glyph-name="uni0401" unicode="&#x401;" horiz-adv-x="560" 
d="M445 779q-26 0 -45.5 19t-19.5 45q0 28 19.5 46t45.5 18q27 0 45.5 -18t18.5 -46q0 -26 -18.5 -45t-45.5 -19zM265 779q-26 0 -45 19t-19 45q0 28 19 46t45 18q28 0 46.5 -18t18.5 -46q0 -26 -18.5 -45t-46.5 -19zM229 608l-35 -197h291l-19 -106h-291l-34 -197h322
l-19 -108h-436l127 716h436l-19 -108h-323z" />
    <glyph glyph-name="uni0402" unicode="&#x402;" horiz-adv-x="770" 
d="M716 239q0 -51 -19.5 -94.5t-54 -75.5t-82.5 -50.5t-105 -18.5h-34l19 103h22q28 0 53 8.5t44 25t29.5 40t10.5 53.5q0 48 -31.5 75.5t-87.5 27.5q-49 0 -95 -21.5t-75 -55.5l-46 -256h-113l108 608h-191l19 108h499l-19 -108h-195l-30 -169l-18 -71h6q33 31 77 50.5
t107 19.5q41 0 77.5 -13t64.5 -38.5t44 -62.5t16 -85z" />
    <glyph glyph-name="uni0403" unicode="&#x403;" horiz-adv-x="529" 
d="M135 716h428l-19 -108h-315l-108 -608h-113zM295 772l71 132h127l-104 -132h-94z" />
    <glyph glyph-name="uni0404" unicode="&#x404;" horiz-adv-x="729" 
d="M346 -16q-68 0 -125.5 24t-99.5 68t-66 106t-24 139q0 79 31 153t88 131.5t136.5 92t177.5 34.5q85 0 145.5 -29t109.5 -91l-92 -76q-32 42 -77 65t-105 23q-51 0 -98 -15.5t-85.5 -43.5t-67 -67.5t-41.5 -88.5h330l-18 -102h-323q3 -50 20.5 -89.5t46.5 -67.5t67.5 -43
t83.5 -15q71 0 122 25.5t100 74.5l70 -78q-65 -65 -138 -97.5t-168 -32.5z" />
    <glyph glyph-name="uni0405" unicode="&#x405;" horiz-adv-x="564" 
d="M230 -16q-44 0 -83.5 13t-70 38t-51.5 62t-29 85l112 45q3 -27 13 -51.5t27 -43t41 -29.5t54 -11q27 0 52.5 8t45 23t31 36t11.5 48q0 41 -27.5 68t-93.5 51l-39 14q-28 10 -54 26t-46.5 38.5t-32.5 52t-12 67.5q0 45 19.5 83.5t53 66t79 43t96.5 15.5q54 0 92.5 -15
t64 -37.5t39 -49t17.5 -49.5l-106 -40q-3 15 -10.5 30.5t-21.5 27.5t-35 19.5t-50 7.5q-24 0 -46.5 -6.5t-39 -18.5t-26.5 -30t-10 -40q0 -37 26 -60t78 -43l42 -16q34 -13 63.5 -30.5t50.5 -40.5t33 -53t12 -67q0 -53 -20 -97t-56 -75t-85.5 -48t-107.5 -17z" />
    <glyph glyph-name="uni0406" unicode="&#x406;" horiz-adv-x="257" 
d="M135 716h113l-127 -716h-113z" />
    <glyph glyph-name="uni0407" unicode="&#x407;" horiz-adv-x="257" 
d="M294 792q-24 0 -42 18t-18 42q0 25 18 42t42 17q25 0 42 -17t17 -42q0 -24 -17 -42t-42 -18zM128 792q-23 0 -41 18t-18 42q0 25 18 42t41 17q26 0 43 -17t17 -42q0 -24 -17 -42t-43 -18zM135 716h113l-127 -716h-113z" />
    <glyph glyph-name="uni0408" unicode="&#x408;" horiz-adv-x="540" 
d="M196 -16q-40 0 -75.5 12t-63 34.5t-45.5 54t-22 69.5l109 42q6 -55 37 -79.5t74 -24.5q52 0 87.5 35.5t45.5 92.5l87 496h114l-87 -491q-11 -63 -35.5 -109t-58.5 -75t-76.5 -43t-90.5 -14z" />
    <glyph glyph-name="uni0409" unicode="&#x409;" horiz-adv-x="1080" 
d="M12 98q23 0 38.5 7.5t28.5 18.5q25 21 38.5 66t25.5 114l73 412h492l-51 -293h159q45 0 83 -12.5t66 -37t44 -60.5t16 -82q0 -52 -19.5 -94.5t-55.5 -73t-85.5 -47t-109.5 -16.5h-286l107 608h-266l-58 -332q-17 -95 -43 -151t-64 -88q-29 -25 -62.5 -35t-78.5 -10
q-11 0 -23 1t-20 3l19 109q16 -7 32 -7zM775 106q57 0 94 32.5t37 83.5q0 44 -27 69.5t-74 25.5h-167l-37 -211h174z" />
    <glyph glyph-name="uni040A" unicode="&#x40a;" horiz-adv-x="1037" 
d="M8 0l127 716h113l-52 -293h303l53 293h113l-52 -293h159q45 0 83 -12.5t66 -37t44 -60.5t16 -82q0 -52 -19.5 -94.5t-55.5 -73t-85.5 -47t-109.5 -16.5h-286l56 317h-303l-57 -317h-113zM732 106q57 0 94 32.5t37 83.5q0 44 -27.5 69.5t-74.5 25.5h-167l-37 -211h175z
" />
    <glyph glyph-name="uni040B" unicode="&#x40b;" horiz-adv-x="764" 
d="M264 0h-113l108 608h-191l19 108h499l-19 -108h-195l-30 -169l-18 -71h6q34 30 77.5 50t103.5 20q40 0 73.5 -12.5t57 -35t36.5 -55.5t13 -73q0 -25 -4 -48l-39 -214h-111l36 203q3 18 3 36q0 40 -28 67t-82 27q-49 0 -88 -21.5t-68 -55.5z" />
    <glyph glyph-name="uni040C" unicode="&#x40c;" horiz-adv-x="633" 
d="M677 710l-361 -363l249 -341l-1 -6h-141l-237 327h-6l-59 -327h-113l127 716h113l-61 -346h6l338 346h148zM336 772l71 132h127l-104 -132h-94z" />
    <glyph glyph-name="uni040D" unicode="&#x40d;" horiz-adv-x="701" 
d="M565 0h-112l70 399l30 138h-6l-411 -537h-128l127 716h113l-69 -389l-31 -138h6l405 527h133zM367 772l-56 132h123l23 -132h-90z" />
    <glyph glyph-name="uni040E" unicode="&#x40e;" horiz-adv-x="616" 
d="M278 96q-38 -60 -80.5 -86t-95.5 -26q-29 0 -49.5 5t-36.5 13l47 100q19 -13 46 -13q25 0 41.5 12t33.5 37l37 56l-145 522h121l98 -393h6l237 393h130zM372 767q-24 0 -45 8t-37 22.5t-25 34t-9 43.5q0 6 0.5 11t1.5 11h84q-1 -4 -1 -10q0 -17 10 -29t31 -12q23 0 38 14
t20 37h82q-11 -66 -50.5 -98t-99.5 -32z" />
    <glyph glyph-name="uni040F" unicode="&#x40f;" horiz-adv-x="678" 
d="M207 -157l27 157h-212l126 716h114l-108 -608h308l107 608h113l-126 -716h-213l-27 -157h-109z" />
    <glyph glyph-name="uni0410" unicode="&#x410;" horiz-adv-x="692" 
d="M342 716h131l143 -716h-121l-33 184h-287l-97 -184h-129zM442 287l-39 211l-13 84h-6l-42 -84l-112 -211h212z" />
    <glyph glyph-name="uni0411" unicode="&#x411;" horiz-adv-x="611" 
d="M354 424q43 0 80 -13t64 -37.5t42 -59.5t15 -80q0 -54 -20 -97.5t-55 -73.5t-84 -46.5t-106 -16.5h-282l127 716h434l-19 -106h-321l-33 -186h158zM308 106q28 0 52.5 8.5t42 24.5t27.5 37.5t10 47.5q0 44 -27 70t-74 26h-161l-37 -214h167z" />
    <glyph glyph-name="uni0412" unicode="&#x412;" horiz-adv-x="611" 
d="M135 716h250q48 0 85.5 -14.5t63 -38.5t39 -55.5t13.5 -66.5t-10.5 -62t-28 -48t-40.5 -35t-47 -22l-1 -6q42 -21 68.5 -56.5t26.5 -91.5q0 -49 -20.5 -89.5t-56 -69.5t-83.5 -45t-104 -16h-282zM346 417q54 0 90 26.5t36 77.5q0 38 -24.5 64t-69.5 26h-149l-34 -194h151
zM308 105q24 0 47.5 7t42 21.5t30 36t11.5 50.5q0 43 -27.5 69t-78.5 26h-156l-37 -210h168z" />
    <glyph glyph-name="uni0413" unicode="&#x413;" horiz-adv-x="516" 
d="M135 716h420l-19 -108h-307l-108 -608h-113z" />
    <glyph glyph-name="uni0414" unicode="&#x414;" horiz-adv-x="787" 
d="M-36 -152l45 260h76q27 28 50 71t42 94t33.5 108t24.5 113l39 222h470l-108 -608h80l-46 -260h-109l27 152h-490l-26 -152h-108zM341 461q-21 -118 -51.5 -203t-77.5 -150h311l89 500h-245z" />
    <glyph glyph-name="uni0415" unicode="&#x415;" horiz-adv-x="560" 
d="M229 608l-35 -197h291l-19 -106h-291l-34 -197h322l-19 -108h-436l127 716h436l-19 -108h-323z" />
    <glyph glyph-name="uni0416" unicode="&#x416;" horiz-adv-x="930" 
d="M458 0h-114l57 320h-6l-305 -320h-149l1 6l341 354l-202 350l2 6h133l189 -338h6l60 338h114l-60 -338h6l303 338h143l-1 -6l-332 -363l218 -341l-1 -6h-139l-202 320h-6z" />
    <glyph glyph-name="uni0417" unicode="&#x417;" horiz-adv-x="559" 
d="M228 -16q-37 0 -74.5 11t-69 33.5t-54 57t-29.5 80.5l108 42q7 -54 39.5 -86.5t87.5 -32.5q29 0 55.5 9t46 26.5t31 41.5t11.5 54q0 45 -33 74.5t-86 29.5h-60l17 99h51q27 0 53 8t47 23t33.5 37t12.5 51q0 39 -28.5 63t-71.5 24q-26 0 -47.5 -7.5t-37.5 -20.5t-27.5 -29
t-17.5 -32l-93 42q12 28 32 55t49 48t67.5 34t86.5 13q45 0 82 -13t63.5 -36t41.5 -54.5t15 -67.5q0 -65 -32.5 -108.5t-86.5 -70.5l-1 -6q33 -18 59 -56.5t26 -95.5q0 -54 -21 -98t-57 -75.5t-84.5 -49t-103.5 -17.5z" />
    <glyph glyph-name="uni0418" unicode="&#x418;" horiz-adv-x="701" 
d="M565 0h-112l70 399l30 138h-6l-411 -537h-128l127 716h113l-69 -389l-31 -138h6l405 527h133z" />
    <glyph glyph-name="uni0419" unicode="&#x419;" horiz-adv-x="701" 
d="M565 0h-112l70 399l30 138h-6l-411 -537h-128l127 716h113l-69 -389l-31 -138h6l405 527h133zM415 767q-24 0 -45 8t-37 22.5t-25 34t-9 43.5q0 6 0.5 11t1.5 11h84q-1 -4 -1 -10q0 -17 10 -29t31 -12q23 0 38 14t20 37h82q-11 -66 -50.5 -98t-99.5 -32z" />
    <glyph glyph-name="uni041A" unicode="&#x41a;" horiz-adv-x="633" 
d="M677 710l-361 -363l249 -341l-1 -6h-141l-237 327h-6l-59 -327h-113l127 716h113l-61 -346h6l338 346h148z" />
    <glyph glyph-name="uni041B" unicode="&#x41b;" horiz-adv-x="717" 
d="M12 98q22 0 38 7.5t29 18.5q25 21 38.5 66t25.5 114l73 412h492l-126 -716h-113l107 608h-266l-58 -332q-17 -95 -43 -151t-64 -88q-29 -25 -62.5 -35t-78.5 -10q-11 0 -23 1t-20 3l19 109q16 -7 32 -7z" />
    <glyph glyph-name="uni041C" unicode="&#x41c;" horiz-adv-x="867" 
d="M135 716h109l161 -407h6l304 407h119l-127 -716h-112l68 389l27 120h-6l-265 -357h-67l-142 357h-6l-15 -120l-68 -389h-113z" />
    <glyph glyph-name="uni041D" unicode="&#x41d;" horiz-adv-x="701" 
d="M135 716h113l-53 -297h330l53 297h114l-127 -716h-114l56 313h-330l-56 -313h-113z" />
    <glyph glyph-name="uni041E" unicode="&#x41e;" horiz-adv-x="823" 
d="M360 -16q-70 0 -130 24t-104.5 67t-69.5 103.5t-25 133.5q0 83 31.5 159t87.5 134t134.5 92.5t171.5 34.5q72 0 132 -24.5t104 -68t68.5 -103.5t24.5 -132q0 -83 -31.5 -159t-88 -134t-134.5 -92.5t-171 -34.5zM375 92q61 0 114.5 26t93.5 69.5t63.5 99.5t23.5 116
q0 50 -17.5 90.5t-48.5 69.5t-73 45t-90 16q-62 0 -116 -26.5t-93.5 -70t-62.5 -99.5t-23 -115q0 -50 17.5 -90.5t48.5 -69.5t73 -45t90 -16z" />
    <glyph glyph-name="uni041F" unicode="&#x41f;" horiz-adv-x="678" 
d="M135 716h534l-127 -716h-113l107 608h-307l-108 -608h-113z" />
    <glyph glyph-name="uni0420" unicode="&#x420;" horiz-adv-x="578" 
d="M8 0l127 716h239q45 0 83 -14.5t65.5 -40t43 -62t15.5 -79.5q0 -58 -20.5 -103.5t-56.5 -76.5t-85.5 -47t-108.5 -16h-139l-50 -277h-113zM327 385q29 0 54.5 7.5t44 22.5t29.5 38.5t11 55.5q0 45 -27 72t-72 27h-138l-39 -223h137z" />
    <glyph glyph-name="uni0421" unicode="&#x421;" horiz-adv-x="732" 
d="M657 111q-34 -33 -68 -57t-71 -39.5t-78 -23t-89 -7.5q-68 0 -126.5 23t-101.5 65.5t-67.5 103t-24.5 135.5q0 84 32 160t89.5 134t136.5 92.5t174 34.5q87 0 152 -34t100 -87l-90 -75q-32 44 -73 66t-103 22q-63 0 -118.5 -25t-96.5 -67t-65 -98t-24 -118
q0 -51 16.5 -92.5t45.5 -71t69.5 -45t87.5 -15.5q38 0 68.5 8t56.5 21.5t49 32.5t47 40z" />
    <glyph glyph-name="uni0422" unicode="&#x422;" horiz-adv-x="567" 
d="M160 0l108 608h-200l19 108h513l-19 -108h-200l-108 -608h-113z" />
    <glyph glyph-name="uni0423" unicode="&#x423;" horiz-adv-x="616" 
d="M278 96q-38 -60 -80.5 -86t-95.5 -26q-29 0 -49.5 5t-36.5 13l47 100q19 -13 46 -13q25 0 41.5 12t33.5 37l37 56l-145 522h121l98 -393h6l237 393h130z" />
    <glyph glyph-name="uni0424" unicode="&#x424;" horiz-adv-x="815" 
d="M279 -48l19 107q-62 8 -111 31t-83.5 58t-53 81.5t-18.5 100.5q0 74 29.5 132t80.5 99.5t118.5 65.5t142.5 30l19 107h113l-19 -108q62 -8 111.5 -31t83.5 -58t52 -81t18 -100q0 -75 -29.5 -133t-80 -99.5t-118 -65.5t-143.5 -30l-18 -106h-113zM148 339q0 -72 43.5 -118
t124.5 -58l68 391q-48 -6 -91 -22.5t-75.5 -43.5t-51 -64.5t-18.5 -84.5zM666 375q0 73 -43.5 119t-124.5 60l-69 -391q49 6 92 22.5t75.5 43t51 63t18.5 83.5z" />
    <glyph glyph-name="uni0425" unicode="&#x425;" horiz-adv-x="660" 
d="M259 376l-169 340h139l115 -251h6l202 251h143l-290 -349l183 -367h-137l-132 272h-6l-222 -272h-141z" />
    <glyph glyph-name="uni0426" unicode="&#x426;" horiz-adv-x="722" 
d="M493 -168l29 168h-499l126 716h113l-106 -608h296l107 608h113l-107 -608h87l-48 -276h-111z" />
    <glyph glyph-name="uni0427" unicode="&#x427;" horiz-adv-x="598" 
d="M496 716h113l-127 -716h-113l56 315q-32 -25 -71 -40t-98 -15q-40 0 -75.5 12t-62.5 36t-42.5 59t-15.5 81q0 14 1.5 26.5t4.5 29.5l37 212h115l-39 -215q-2 -10 -2 -17v-15q0 -49 31.5 -76t85.5 -27q45 0 82.5 18t68.5 49z" />
    <glyph glyph-name="uni0428" unicode="&#x428;" horiz-adv-x="915" 
d="M8 0l127 716h113l-107 -608h214l109 608h113l-108 -608h216l107 608h114l-127 -716h-771z" />
    <glyph glyph-name="uni0429" unicode="&#x429;" horiz-adv-x="965" 
d="M721 -168l29 168h-742l127 716h113l-107 -608h214l109 608h113l-108 -608h216l107 608h114l-109 -608h83l-48 -276h-111z" />
    <glyph glyph-name="uni042A" unicode="&#x42a;" horiz-adv-x="760" 
d="M150 0l108 611h-190l19 105h303l-45 -253h132q50 0 92.5 -14t73 -40.5t48 -65t17.5 -87.5q0 -57 -21 -104.5t-59.5 -81t-92 -52t-118.5 -18.5h-267zM327 358l-45 -252h156q33 0 61 9.5t49 27.5t32.5 43.5t11.5 57.5q0 52 -32.5 83t-87.5 31h-145z" />
    <glyph glyph-name="uni042B" unicode="&#x42b;" horiz-adv-x="838" 
d="M8 0l127 716h113l-45 -253h132q50 0 92.5 -14t73 -40.5t48 -65t17.5 -87.5q0 -57 -21 -104.5t-59.5 -81t-92 -52t-118.5 -18.5h-267zM185 358l-45 -252h156q33 0 61 9.5t49 27.5t32.5 43.5t11.5 57.5q0 52 -32.5 83t-87.5 31h-145zM716 716h113l-127 -716h-113z" />
    <glyph glyph-name="uni042C" unicode="&#x42c;" horiz-adv-x="618" 
d="M8 0l127 716h113l-45 -253h132q50 0 92.5 -14t73 -40.5t48 -65t17.5 -87.5q0 -57 -21 -104.5t-59.5 -81t-92 -52t-118.5 -18.5h-267zM185 358l-45 -252h156q33 0 61 9.5t49 27.5t32.5 43.5t11.5 57.5q0 52 -32.5 83t-87.5 31h-145z" />
    <glyph glyph-name="uni042D" unicode="&#x42d;" horiz-adv-x="729" 
d="M277 -16q-50 0 -93 11t-78 29.5t-62.5 43.5t-46.5 53l89 74q32 -45 80 -74t120 -29q54 0 100.5 16.5t83.5 45.5t63.5 68.5t39.5 84.5h-328l18 102h321q-2 52 -19 92t-45.5 67.5t-67 41.5t-83.5 14q-60 0 -109 -23t-87 -63l-76 77q57 56 125.5 86.5t157.5 30.5
q71 0 129.5 -24t100.5 -67.5t65 -105t23 -136.5q0 -83 -30.5 -158.5t-86 -132.5t-133 -90.5t-171.5 -33.5z" />
    <glyph glyph-name="uni042E" unicode="&#x42e;" horiz-adv-x="1081" 
d="M626 -16q-69 0 -128.5 23t-103.5 65t-70 100.5t-27 130.5v10h-120l-56 -313h-113l127 716h113l-53 -297h116q17 65 54.5 122t90.5 99.5t120.5 67t145.5 24.5q72 0 132 -24.5t104 -68t68.5 -103.5t24.5 -132q0 -83 -31.5 -159t-88 -134t-134.5 -92.5t-171 -34.5zM641 92
q61 0 114.5 26t93.5 69.5t63.5 99.5t23.5 116q0 50 -17.5 90.5t-48.5 69.5t-73 45t-90 16q-62 0 -116 -26.5t-93.5 -70t-62.5 -99.5t-23 -115q0 -50 17.5 -90.5t48.5 -69.5t73 -45t90 -16z" />
    <glyph glyph-name="uni042F" unicode="&#x42f;" horiz-adv-x="622" 
d="M486 0h-113l50 279h-78l-237 -279h-138l1 6l245 283v5q-25 9 -48 25.5t-41 40t-29 54t-11 67.5q0 49 20.5 92t56.5 75t85 50t107 18h257zM441 385l39 225h-138q-32 0 -58 -10.5t-44 -27.5t-28 -38.5t-10 -44.5q0 -50 31 -77t79 -27h129z" />
    <glyph glyph-name="uni0430" unicode="&#x430;" horiz-adv-x="523" 
d="M288 506q99 0 149.5 -45.5t50.5 -122.5q0 -12 -1.5 -25.5t-3.5 -27.5l-51 -285h-109l11 60h-6q-23 -32 -61 -54t-89 -22q-37 0 -67.5 11t-53 31t-35 48t-12.5 62q0 42 17.5 75.5t49 57.5t74.5 36.5t94 12.5q38 0 69.5 -8t60.5 -19l3 16q1 5 1.5 10.5t0.5 10.5
q0 38 -28.5 61t-75.5 23q-38 0 -68 -14.5t-56 -45.5l-80 57q38 48 94 72.5t122 24.5zM209 76q28 0 53 10.5t45 28t33.5 40.5t18.5 49q-12 6 -38.5 17.5t-76.5 11.5q-23 0 -44.5 -5.5t-38 -16t-26.5 -27.5t-10 -39q0 -34 25.5 -51.5t58.5 -17.5z" />
    <glyph glyph-name="uni0431" unicode="&#x431;" horiz-adv-x="597" 
d="M400 606q-52 0 -82 -13t-52 -30q-27 -21 -50 -55t-36 -79h6q26 32 66.5 54.5t97.5 22.5q43 0 80 -16.5t64.5 -46t43 -71t15.5 -92.5q0 -59 -20.5 -112.5t-58.5 -94.5t-92 -65t-121 -24q-50 0 -91.5 19t-70.5 54.5t-45 85t-16 110.5q0 49 9.5 100.5t28.5 100.5t48 93
t68 77q43 35 97 56t119 21q28 0 46 2t28.5 6t16.5 10t11 14h102q-11 -38 -28 -63t-42.5 -39t-60.5 -19.5t-81 -5.5zM321 403q-37 0 -68.5 -14t-55 -38.5t-36.5 -58t-13 -71.5q0 -61 36 -97.5t90 -36.5q37 0 68 15.5t53 40.5t34 56.5t12 64.5q0 68 -35 103.5t-85 35.5z" />
    <glyph glyph-name="uni0432" unicode="&#x432;" horiz-adv-x="503" 
d="M378 248q27 -13 46 -34.5t19 -60.5q0 -33 -14.5 -61.5t-39.5 -48.5t-59 -31.5t-74 -11.5h-263l87 490h230q71 0 111 -33t40 -87q0 -47 -25.5 -75t-55.5 -41zM138 209l-21 -116h147q29 0 51 16.5t22 49.5q0 22 -16 36t-42 14h-141zM171 399l-18 -107h134q29 0 48 15t19 43
q0 23 -15.5 36t-41.5 13h-126z" />
    <glyph glyph-name="uni0433" unicode="&#x433;" horiz-adv-x="425" 
d="M79 490h345l-17 -98h-234l-69 -392h-111z" />
    <glyph glyph-name="uni0434" unicode="&#x434;" horiz-adv-x="648" 
d="M-42 -152l44 250h58q13 14 26 37.5t25 53.5t22 65t16 72l28 164h408l-69 -392h78l-45 -250h-103l27 152h-386l-27 -152h-102zM251 303q-12 -67 -29 -114.5t-44 -90.5h230l50 294h-191z" />
    <glyph glyph-name="uni0435" unicode="&#x435;" horiz-adv-x="546" 
d="M471 118q-42 -64 -101.5 -99t-137.5 -35q-54 0 -96 18t-71 49t-44.5 72.5t-15.5 88.5q0 57 20.5 110t58 94t90.5 65.5t118 24.5q52 0 92 -16.5t67 -44t40.5 -64.5t13.5 -79q0 -45 -11 -81h-378q-1 -6 -1 -10v-9q0 -30 11 -52.5t28.5 -37t39.5 -21.5t46 -7q49 0 85 21.5
t61 58.5zM398 306v7q0 19 -7.5 37t-21.5 31.5t-36 21.5t-50 8q-55 0 -94.5 -29.5t-55.5 -75.5h265z" />
    <glyph glyph-name="uni0436" unicode="&#x436;" horiz-adv-x="742" 
d="M251 0l42 235h-6l-219 -235h-134l1 6l247 260l-147 218l1 6h126l133 -209h6l37 209h112l-37 -209h6l205 209h135l-2 -6l-230 -230l152 -248l-1 -6h-127l-140 235h-7l-41 -235h-112z" />
    <glyph glyph-name="uni0437" unicode="&#x437;" horiz-adv-x="491" 
d="M268 506q37 0 69 -10.5t55.5 -28.5t36.5 -42.5t13 -52.5q0 -45 -25 -75.5t-60 -42.5l-1 -6q30 -17 47.5 -41.5t17.5 -64.5q0 -38 -18.5 -67t-50 -49.5t-73 -31t-88.5 -10.5q-73 0 -121 26.5t-79 66.5l86 66q20 -28 51.5 -44.5t72.5 -16.5q21 0 41 4t35.5 12.5t25 22
t9.5 31.5q0 23 -23 38.5t-68 15.5h-64l15 85h65q45 0 71 17t26 44q0 26 -22.5 43t-57.5 17t-63 -11.5t-52 -37.5l-71 61q43 43 91.5 62.5t108.5 19.5z" />
    <glyph glyph-name="uni0438" unicode="&#x438;" 
d="M439 0h-111l40 227l23 96h-6l-276 -323h-115l86 490h112l-40 -227l-23 -96h6l275 323h116z" />
    <glyph glyph-name="uni0439" unicode="&#x439;" 
d="M439 0h-111l40 227l23 96h-6l-276 -323h-115l86 490h112l-40 -227l-23 -96h6l275 323h116zM325 568q-24 0 -45 8t-37 22.5t-25 34t-9 43.5q0 6 0.5 11t1.5 11h84q-1 -4 -1 -10q0 -17 10 -29t31 -12q23 0 38 14t20 37h82q-11 -66 -50.5 -98t-99.5 -32z" />
    <glyph glyph-name="uni043A" unicode="&#x43a;" horiz-adv-x="495" 
d="M190 490l-38 -215h6l214 215h139l-2 -6l-237 -231l162 -247l-1 -6h-129l-152 240h-6l-43 -240h-110l86 490h111z" />
    <glyph glyph-name="uni043B" unicode="&#x43b;" horiz-adv-x="613" 
d="M34 -8q-35 0 -54 8l18 100q9 -3 16 -4t15 -1q32 0 49.5 30.5t30.5 103.5l45 261h426l-86 -490h-109l69 388h-210l-30 -170q-12 -65 -30 -108.5t-41.5 -69.5t-51 -37t-57.5 -11z" />
    <glyph glyph-name="uni043C" unicode="&#x43c;" horiz-adv-x="672" 
d="M448 0l41 227l23 96h-6l-181 -259h-79l-91 259h-6l-11 -96l-40 -227h-108l86 490h132l96 -285h5l197 285h138l-87 -490h-109z" />
    <glyph glyph-name="uni043D" unicode="&#x43d;" horiz-adv-x="562" 
d="M331 0l34 196h-227l-34 -196h-111l86 490h112l-34 -191h227l34 191h111l-87 -490h-111z" />
    <glyph glyph-name="uni043E" unicode="&#x43e;" horiz-adv-x="568" 
d="M300 506q52 0 95 -18.5t73.5 -50t47 -73.5t16.5 -89q0 -62 -22 -115t-61.5 -92t-93.5 -61.5t-118 -22.5q-53 0 -95.5 18.5t-73 50t-47 73.5t-16.5 89q0 62 22 115t61.5 92t93.5 61.5t118 22.5zM248 87q39 0 70.5 14.5t54 39t34.5 56.5t12 68q0 30 -10 55.5t-28 44
t-41.5 28.5t-50.5 10q-39 0 -70.5 -14.5t-54 -39t-34.5 -56.5t-12 -68q0 -30 10 -55.5t28 -44t41.5 -28.5t50.5 -10z" />
    <glyph glyph-name="uni043F" unicode="&#x43f;" horiz-adv-x="545" 
d="M79 490h433l-87 -490h-111l69 387h-211l-69 -387h-110z" />
    <glyph glyph-name="uni0440" unicode="&#x440;" horiz-adv-x="584" 
d="M351 506q43 0 80.5 -16.5t64.5 -46.5t42.5 -72.5t15.5 -94.5q0 -57 -21 -110t-58 -93.5t-88.5 -64.5t-112.5 -24q-50 0 -90 23t-60 56h-6l-5 -68l-38 -211h-111l124 706h106l-11 -63h6q23 31 62 55t100 24zM275 87q36 0 66 14t52.5 39t35 57.5t12.5 70.5q0 63 -33.5 99
t-93.5 36q-35 0 -65 -14.5t-53 -39.5t-36 -58.5t-13 -71.5q0 -63 36.5 -97.5t91.5 -34.5z" />
    <glyph glyph-name="uni0441" unicode="&#x441;" horiz-adv-x="533" 
d="M231 -16q-50 0 -91.5 17t-71.5 48t-46.5 73t-16.5 92q0 61 21.5 114t61 92.5t94 62.5t120.5 23q44 0 78.5 -11.5t60.5 -31t43 -45.5t25 -54l-106 -41q-12 38 -40.5 59t-74.5 21q-37 0 -68.5 -14t-54 -38t-35 -57t-12.5 -70q0 -30 9 -55t25 -43t38.5 -28.5t49.5 -10.5
q48 0 82 21.5t58 60.5l93 -44q-46 -74 -102.5 -107.5t-139.5 -33.5z" />
    <glyph glyph-name="uni0442" unicode="&#x442;" horiz-adv-x="443" 
d="M47 490h419l-19 -103h-153l-69 -387h-111l68 387h-153z" />
    <glyph glyph-name="uni0443" unicode="&#x443;" horiz-adv-x="526" 
d="M6 -216l155 246l-122 460h122l79 -325h4l190 325h124l-432 -706h-120z" />
    <glyph glyph-name="uni0444" unicode="&#x444;" horiz-adv-x="751" 
d="M717 272q0 -65 -25 -116t-69.5 -87t-105.5 -57t-133 -26l-36 -202h-111l36 204q-56 7 -100.5 27t-76 50t-48 68.5t-16.5 83.5q0 67 25.5 118t70.5 87t105.5 56.5t130.5 25.5l38 212h111l-38 -214q55 -7 100 -26t76.5 -48.5t48.5 -68.5t17 -87zM609 256q0 63 -39.5 99.5
t-111.5 46.5l-56 -315q41 4 78.5 16.5t66 33t45.5 50t17 69.5zM140 229q0 -61 41 -96t110 -45l55 314q-41 -5 -78 -17t-65.5 -33.5t-45.5 -52t-17 -70.5z" />
    <glyph glyph-name="uni0445" unicode="&#x445;" horiz-adv-x="493" 
d="M292 0l-78 163h-4l-131 -163h-135l215 254l-125 236h129l75 -154h4l125 154h137l-212 -242l128 -248h-128z" />
    <glyph glyph-name="uni0446" unicode="&#x446;" horiz-adv-x="593" 
d="M373 -152l27 152h-407l86 490h111l-69 -388h211l69 388h111l-69 -388h76l-44 -254h-102z" />
    <glyph glyph-name="uni0447" unicode="&#x447;" horiz-adv-x="514" 
d="M242 260q30 0 57 6t47 19l37 205h111l-87 -490h-111l32 180q-21 -9 -49.5 -15.5t-70.5 -6.5q-38 0 -69 12t-53 33t-34 50t-12 64q0 9 1 19.5t5 32.5l22 121h113l-23 -130q-3 -12 -3 -25q0 -38 24.5 -56.5t62.5 -18.5z" />
    <glyph glyph-name="uni0448" unicode="&#x448;" horiz-adv-x="779" 
d="M-7 0l87 490h110l-69 -388h158l69 388h110l-69 -388h159l69 388h110l-87 -490h-647z" />
    <glyph glyph-name="uni0449" unicode="&#x449;" horiz-adv-x="827" 
d="M587 -152l27 152h-621l87 490h110l-69 -388h158l69 388h110l-69 -388h159l69 388h110l-69 -388h76l-44 -254h-103z" />
    <glyph glyph-name="uni044A" unicode="&#x44a;" horiz-adv-x="593" 
d="M52 490h225l-29 -161h123q38 0 69.5 -11t54.5 -31t35.5 -48t12.5 -62q0 -80 -56.5 -128.5t-156.5 -48.5h-248l70 397h-116zM344 93q38 0 64 20.5t26 56.5q0 30 -21 47.5t-55 17.5h-126l-25 -142h137z" />
    <glyph glyph-name="uni044B" unicode="&#x44b;" horiz-adv-x="711" 
d="M484 0l87 490h108l-87 -490h-108zM-7 0l87 490h108l-29 -161h123q38 0 69.5 -11t54.5 -31t35.5 -48t12.5 -62q0 -80 -56.5 -128.5t-156.5 -48.5h-248zM255 93q38 0 64 20.5t26 56.5q0 30 -21 47.5t-55 17.5h-126l-25 -142h137z" />
    <glyph glyph-name="uni044C" unicode="&#x44c;" horiz-adv-x="509" 
d="M-7 0l87 490h108l-29 -161h123q38 0 69.5 -11t54.5 -31t35.5 -48t12.5 -62q0 -80 -56.5 -128.5t-156.5 -48.5h-248zM255 93q38 0 64 20.5t26 56.5q0 30 -21 47.5t-55 17.5h-126l-25 -142h137z" />
    <glyph glyph-name="uni044D" unicode="&#x44d;" horiz-adv-x="527" 
d="M199 -16q-41 0 -76.5 11.5t-63.5 31t-47 45t-28 54.5l96 37q15 -38 44.5 -60.5t84.5 -22.5q63 0 104 35t58 87h-212l14 85h207q-5 61 -40 92t-83 31q-51 0 -85.5 -24t-56.5 -61l-87 43q34 62 91.5 100t142.5 38q49 0 90 -16t70.5 -46t45.5 -72.5t16 -94.5
q0 -60 -20 -113.5t-57.5 -93t-90 -63t-117.5 -23.5z" />
    <glyph glyph-name="uni044E" unicode="&#x44e;" horiz-adv-x="790" 
d="M1 0l86 490h111l-34 -191h76q13 45 39 83t62.5 65.5t82.5 43t99 15.5q52 0 95 -18.5t73.5 -50t47 -73.5t16.5 -89q0 -62 -22 -115t-61.5 -92t-94 -61.5t-118.5 -22.5q-50 0 -90.5 16.5t-70.5 45.5t-48 67.5t-22 82.5h-82l-34 -196h-111zM470 87q39 0 70.5 14.5t54 39
t35 56.5t12.5 68q0 30 -10 55.5t-28 44t-41.5 28.5t-50.5 10q-39 0 -70.5 -14.5t-54 -39t-35 -56.5t-12.5 -68q0 -30 10.5 -55.5t28 -44t41 -28.5t50.5 -10z" />
    <glyph glyph-name="uni044F" unicode="&#x44f;" horiz-adv-x="492" 
d="M-61 0l1 7l160 167l-1 5q-16 6 -32 18t-28.5 29t-20.5 39t-8 49q0 35 14.5 67t42 56t66 38.5t86.5 14.5h242l-87 -490h-108l30 167h-76l-154 -167h-127zM212 397q-39 0 -65 -21.5t-26 -55.5q0 -31 21.5 -46.5t50.5 -15.5h119l24 139h-124z" />
    <glyph glyph-name="uni0450" unicode="&#x450;" horiz-adv-x="542" 
d="M471 118q-42 -64 -101.5 -99t-137.5 -35q-54 0 -96 18t-71 49t-44.5 72.5t-15.5 88.5q0 57 20.5 110t58 94t90.5 65.5t118 24.5q52 0 92 -16.5t67 -44t40.5 -64.5t13.5 -79q0 -45 -11 -81h-378q-1 -6 -1 -10v-9q0 -30 11 -52.5t28.5 -37t39.5 -21.5t46 -7q49 0 85 21.5
t61 58.5zM398 306v7q0 19 -7.5 37t-21.5 31.5t-36 21.5t-50 8q-55 0 -94.5 -29.5t-55.5 -75.5h265zM270 588l-56 132h123l23 -132h-90z" />
    <glyph glyph-name="uni0451" unicode="&#x451;" horiz-adv-x="542" 
d="M412 595q-26 0 -45.5 19t-19.5 45q0 28 19.5 46t45.5 18q27 0 45.5 -18t18.5 -46q0 -26 -18.5 -45t-45.5 -19zM232 595q-26 0 -45 19t-19 45q0 28 19 46t45 18q28 0 46.5 -18t18.5 -46q0 -26 -18.5 -45t-46.5 -19zM471 118q-42 -64 -101.5 -99t-137.5 -35q-54 0 -96 18
t-71 49t-44.5 72.5t-15.5 88.5q0 57 20.5 110t58 94t90.5 65.5t118 24.5q52 0 92 -16.5t67 -44t40.5 -64.5t13.5 -79q0 -45 -11 -81h-378q-1 -6 -1 -10v-9q0 -30 11 -52.5t28.5 -37t39.5 -21.5t46 -7q49 0 85 21.5t61 58.5zM398 306v7q0 19 -7.5 37t-21.5 31.5t-36 21.5
t-50 8q-55 0 -94.5 -29.5t-55.5 -75.5h265z" />
    <glyph glyph-name="uni0452" unicode="&#x452;" 
d="M203 567l-11 -64l-19 -79h6q26 37 70 59.5t96 22.5q40 0 69.5 -12t49 -33t28.5 -48t9 -57q0 -13 -1 -27t-5 -34l-64 -361q-8 -45 -23.5 -75.5t-37.5 -49.5t-50.5 -27t-62.5 -8q-18 0 -36.5 3.5t-32.5 8.5l41 97q13 -7 32 -7q48 0 59 60l62 352q2 11 2.5 18t0.5 15
q0 38 -22.5 60t-64.5 22q-30 0 -55 -12t-44.5 -32.5t-32 -47.5t-18.5 -58l-44 -253h-111l99 567h-61l15 82h61l12 67h111l-12 -67h139l-14 -82h-140z" />
    <glyph glyph-name="uni0453" unicode="&#x453;" horiz-adv-x="405" 
d="M202 588l71 132h127l-104 -132h-94zM79 490h345l-17 -98h-234l-69 -392h-111z" />
    <glyph glyph-name="uni0454" unicode="&#x454;" horiz-adv-x="527" 
d="M109 202q5 -56 40 -89t87 -33q51 0 83.5 22.5t57.5 63.5l86 -41q-40 -71 -97 -106t-143 -35q-48 0 -88 17t-69 47.5t-45 73.5t-16 96q0 54 20 106t57 92.5t90.5 65t121.5 24.5q45 0 79.5 -11t60 -30t42 -45t25.5 -55l-96 -37q-13 37 -42.5 59.5t-79.5 22.5
q-61 0 -104.5 -34t-60.5 -89h211l-14 -85h-206z" />
    <glyph glyph-name="uni0455" unicode="&#x455;" horiz-adv-x="469" 
d="M193 -16q-44 0 -78.5 11t-60 30t-42.5 44.5t-25 54.5l104 42q10 -42 40.5 -62.5t71.5 -20.5q40 0 66 16t26 42q0 24 -17 38t-55 25l-55 15q-26 7 -48.5 18t-39.5 27t-27 38t-10 51q0 34 16 62.5t44 48.5t66 31t81 11q72 0 121 -31.5t69 -85.5l-104 -39q-10 27 -34.5 44.5
t-59.5 17.5q-40 0 -63 -14t-23 -38q0 -38 61 -54l67 -17q61 -16 93 -52t32 -85q0 -39 -16 -70t-45 -52.5t-68.5 -33.5t-86.5 -12z" />
    <glyph glyph-name="uni0456" unicode="&#x456;" horiz-adv-x="239" 
d="M0 0l86 490h111l-86 -490h-111zM170 577q-31 0 -53 22t-22 53t22 53t53 22t53 -22t22 -53t-22 -53t-53 -22z" />
    <glyph glyph-name="uni0457" unicode="&#x457;" horiz-adv-x="239" 
d="M94 596q-26 0 -44.5 18.5t-18.5 44.5q0 27 18.5 45t44.5 18q27 0 45 -18t18 -45q0 -26 -18 -44.5t-45 -18.5zM246 596q-26 0 -44.5 18.5t-18.5 44.5q0 27 18.5 45t44.5 18q27 0 45 -18t18 -45q0 -26 -18 -44.5t-45 -18.5zM0 0l86 490h111l-86 -490h-111z" />
    <glyph glyph-name="uni0458" unicode="&#x458;" horiz-adv-x="239" 
d="M-74 -226q-18 0 -36.5 3.5t-32.5 8.5l41 97q13 -7 32 -7q47 0 58 60l98 554h111l-97 -556q-8 -45 -23.5 -75.5t-37.5 -49.5t-50.5 -27t-62.5 -8zM170 577q-31 0 -53 22t-22 53t22 53t53 22t53 -22t22 -53t-22 -53t-53 -22z" />
    <glyph glyph-name="uni0459" unicode="&#x459;" horiz-adv-x="894" 
d="M32 -8q-34 0 -54 8l18 99q9 -3 16.5 -4t14.5 -1q32 0 49.5 31t30.5 104l46 261h425l-30 -171h120q37 0 68.5 -10t54 -29t35 -45.5t12.5 -59.5q0 -81 -55.5 -128t-151.5 -47h-247l69 388h-210l-31 -170q-12 -65 -30 -108.5t-41 -69.5t-50.5 -37t-58.5 -11zM532 226
l-24 -133h136q35 0 60 17t25 55q0 29 -19.5 45t-48.5 16h-129z" />
    <glyph glyph-name="uni045A" unicode="&#x45a;" horiz-adv-x="846" 
d="M318 0l40 226h-214l-40 -226h-111l87 490h111l-30 -171h214l30 171h111l-30 -171h134q37 0 68.5 -10t54 -29t35 -45.5t12.5 -59.5q0 -81 -56 -128t-151 -47h-265zM470 226l-23 -133h149q35 0 60 17t25 55q0 29 -19.5 45t-48.5 16h-143z" />
    <glyph glyph-name="uni045B" unicode="&#x45b;" 
d="M218 649h139l-14 -82h-140l-11 -64l-19 -79h6q26 37 70 59.5t96 22.5q40 0 69.5 -12t49 -33t28.5 -48t9 -57q0 -13 -1 -27t-5 -34l-53 -295h-111l51 288q2 11 2.5 18t0.5 15q0 38 -22.5 60t-64.5 22q-30 0 -55 -12t-44.5 -32.5t-32 -47.5t-18.5 -58l-44 -253h-111l99 567
h-61l15 82h61l12 67h111z" />
    <glyph glyph-name="uni045C" unicode="&#x45c;" horiz-adv-x="495" 
d="M242 588l71 132h127l-104 -132h-94zM190 490l-38 -215h6l214 215h139l-2 -6l-237 -231l162 -247l-1 -6h-129l-152 240h-6l-43 -240h-110l86 490h111z" />
    <glyph glyph-name="uni045D" unicode="&#x45d;" 
d="M439 0h-111l40 227l23 96h-6l-276 -323h-115l86 490h112l-40 -227l-23 -96h6l275 323h116zM284 588l-56 132h123l23 -132h-90z" />
    <glyph glyph-name="uni045E" unicode="&#x45e;" horiz-adv-x="526" 
d="M6 -216l155 246l-122 460h122l79 -325h4l190 325h124l-432 -706h-120zM309 583q-24 0 -45 8t-37 22.5t-25 34t-9 43.5q0 6 0.5 11t1.5 11h84q-1 -4 -1 -10q0 -17 10 -29t31 -12q23 0 38 14t20 37h82q-11 -66 -50.5 -98t-99.5 -32z" />
    <glyph glyph-name="uni045F" unicode="&#x45f;" horiz-adv-x="559" 
d="M139 -152l26 152h-172l87 490h111l-69 -387h224l69 387h111l-86 -490h-172l-27 -152h-102z" />
    <glyph glyph-name="uni0490" unicode="&#x490;" horiz-adv-x="529" 
d="M128 716h323l20 118h111l-40 -226h-320l-107 -608h-112z" />
    <glyph glyph-name="uni0491" unicode="&#x491;" horiz-adv-x="425" 
d="M79 490h244l19 103h100l-35 -201h-234l-69 -392h-111z" />
    <glyph glyph-name="uni04B0" unicode="&#x4b0;" horiz-adv-x="615" 
d="M189 0l48 269h-174l15 86h160l-163 361h132l113 -264h6l202 264h138l-288 -361h161l-15 -86h-174l-48 -269h-113z" />
    <glyph glyph-name="uni04B1" unicode="&#x4b1;" horiz-adv-x="519" 
d="M40 490h118l72 -357l198 357h123l-220 -376l-22 -34h112l-15 -80h-143l-38 -216h-111l38 216h-144l15 80h112l-9 34z" />
    <glyph glyph-name="Wgrave" unicode="&#x1e80;" horiz-adv-x="938" 
d="M669 0h-112l-57 377l-8 71h-6l-34 -71l-188 -377h-114l-71 716h118l41 -460l4 -69h6l32 69l182 364h108l55 -364l7 -68h6l28 68l199 460h120zM480 772l-56 132h123l23 -132h-90z" />
    <glyph glyph-name="wgrave" unicode="&#x1e81;" horiz-adv-x="779" 
d="M438 0l-49 343h-4l-170 -343h-116l-72 490h118l37 -339h4l169 339h115l50 -339h4l154 339h120l-242 -490h-118zM378 588l-56 132h123l23 -132h-90z" />
    <glyph glyph-name="Wacute" unicode="&#x1e82;" horiz-adv-x="938" 
d="M491 772l71 132h127l-104 -132h-94zM669 0h-112l-57 377l-8 71h-6l-34 -71l-188 -377h-114l-71 716h118l41 -460l4 -69h6l32 69l182 364h108l55 -364l7 -68h6l28 68l199 460h120z" />
    <glyph glyph-name="wacute" unicode="&#x1e83;" horiz-adv-x="779" 
d="M385 588l71 132h127l-104 -132h-94zM438 0l-49 343h-4l-170 -343h-116l-72 490h118l37 -339h4l169 339h115l50 -339h4l154 339h120l-242 -490h-118z" />
    <glyph glyph-name="Wdieresis" unicode="&#x1e84;" horiz-adv-x="938" 
d="M632 779q-26 0 -45.5 19t-19.5 45q0 28 19.5 46t45.5 18q27 0 45.5 -18t18.5 -46q0 -26 -18.5 -45t-45.5 -19zM452 779q-26 0 -45 19t-19 45q0 28 19 46t45 18q28 0 46.5 -18t18.5 -46q0 -26 -18.5 -45t-46.5 -19zM669 0h-112l-57 377l-8 71h-6l-34 -71l-188 -377h-114
l-71 716h118l41 -460l4 -69h6l32 69l182 364h108l55 -364l7 -68h6l28 68l199 460h120z" />
    <glyph glyph-name="wdieresis" unicode="&#x1e85;" horiz-adv-x="779" 
d="M528 595q-26 0 -45.5 19t-19.5 45q0 28 19.5 46t45.5 18q27 0 45.5 -18t18.5 -46q0 -26 -18.5 -45t-45.5 -19zM348 595q-26 0 -45 19t-19 45q0 28 19 46t45 18q28 0 46.5 -18t18.5 -46q0 -26 -18.5 -45t-46.5 -19zM438 0l-49 343h-4l-170 -343h-116l-72 490h118l37 -339
h4l169 339h115l50 -339h4l154 339h120l-242 -490h-118z" />
    <glyph glyph-name="Ygrave" unicode="&#x1ef2;" horiz-adv-x="615" 
d="M189 0l59 333l-173 383h130l114 -264h6l202 264h139l-305 -383l-59 -333h-113zM332 772l-56 132h123l23 -132h-90z" />
    <glyph glyph-name="ygrave" unicode="&#x1ef3;" horiz-adv-x="526" 
d="M6 -216l155 246l-122 460h122l79 -325h4l190 325h124l-432 -706h-120zM257 588l-56 132h123l23 -132h-90z" />
    <glyph glyph-name="endash" unicode="&#x2013;" horiz-adv-x="601" 
d="M56 358h490l-17 -96h-489z" />
    <glyph glyph-name="emdash" unicode="&#x2014;" horiz-adv-x="905" 
d="M56 358h793l-17 -96h-792z" />
    <glyph glyph-name="quoteleft" unicode="&#x2018;" horiz-adv-x="251" 
d="M248 695l-63 -75q14 -6 29.5 -23.5t15.5 -46.5q0 -33 -23 -55.5t-54 -22.5q-32 0 -55 22.5t-23 55.5q0 17 10 35t27 38l91 109z" />
    <glyph glyph-name="quoteright" unicode="&#x2019;" horiz-adv-x="251" 
d="M86 509l63 75q-15 7 -30 24.5t-15 46.5q0 32 22.5 54.5t53.5 22.5q32 0 55 -22.5t23 -54.5q0 -18 -10 -36t-27 -38l-90 -109z" />
    <glyph glyph-name="quotesinglbase" unicode="&#x201a;" horiz-adv-x="251" 
d="M-15 -75l63 75q-15 7 -30 24.5t-15 46.5q0 32 22.5 54.5t53.5 22.5q32 0 55 -22.5t23 -54.5q0 -18 -10 -36t-27 -38l-90 -109z" />
    <glyph glyph-name="quotedblleft" unicode="&#x201c;" horiz-adv-x="448" 
d="M248 695l-63 -75q14 -6 29.5 -23.5t15.5 -46.5q0 -33 -23 -55.5t-54 -22.5q-32 0 -55 22.5t-23 55.5q0 17 10 35t27 38l91 109zM445 695l-63 -75q14 -6 29.5 -23.5t15.5 -46.5q0 -33 -23 -55.5t-54 -22.5q-32 0 -55 22.5t-23 55.5q0 17 10 35t27 38l91 109z" />
    <glyph glyph-name="quotedblright" unicode="&#x201d;" horiz-adv-x="448" 
d="M86 509l63 75q-15 7 -30 24.5t-15 46.5q0 32 22.5 54.5t53.5 22.5q32 0 55 -22.5t23 -54.5q0 -18 -10 -36t-27 -38l-90 -109zM283 509l63 75q-15 7 -30 24.5t-15 46.5q0 32 22.5 54.5t53.5 22.5q32 0 55 -22.5t23 -54.5q0 -18 -10 -36t-27 -38l-90 -109z" />
    <glyph glyph-name="quotedblbase" unicode="&#x201e;" horiz-adv-x="443" 
d="M-15 -74l63 75q-15 7 -30 24.5t-15 46.5q0 32 22.5 54.5t53.5 22.5q32 0 55 -22.5t23 -54.5q0 -18 -10 -36t-27 -38l-90 -109zM177 -74l63 75q-15 7 -30 24.5t-15 46.5q0 32 22.5 54.5t53.5 22.5q32 0 55 -22.5t23 -54.5q0 -18 -10 -36t-27 -38l-90 -109z" />
    <glyph glyph-name="bullet" unicode="&#x2022;" horiz-adv-x="411" 
d="M199 199q-26 0 -48.5 10t-39.5 27t-27 39.5t-10 48.5t10 48.5t27 39.5t39.5 27t48.5 10t49 -10t40 -27t27 -39.5t10 -48.5t-10 -48.5t-27 -39.5t-40 -27t-49 -10z" />
    <glyph glyph-name="ellipsis" unicode="&#x2026;" horiz-adv-x="728" 
d="M75 -6q-32 0 -54.5 22.5t-22.5 54.5t22.5 55t54.5 23t54.5 -23t22.5 -55t-22.5 -54.5t-54.5 -22.5zM314 -6q-32 0 -54.5 22.5t-22.5 54.5t22.5 55t54.5 23t54.5 -23t22.5 -55t-22.5 -54.5t-54.5 -22.5zM552 -6q-32 0 -54.5 22.5t-22.5 54.5t22.5 55t54.5 23t54.5 -23
t22.5 -55t-22.5 -54.5t-54.5 -22.5z" />
    <glyph glyph-name="guilsinglleft" unicode="&#x2039;" horiz-adv-x="371" 
d="M260 104l-71 -57l-168 224l247 224l56 -63l-183 -167z" />
    <glyph glyph-name="guilsinglright" unicode="&#x203a;" horiz-adv-x="371" 
d="M77 438l72 57l167 -224l-246 -224l-57 63l184 167z" />
    <glyph glyph-name="fraction" unicode="&#x2044;" horiz-adv-x="181" 
d="M-236 36l590 692l62 -49l-588 -692z" />
    <glyph glyph-name="uni2074" unicode="&#x2074;" horiz-adv-x="353" 
d="M198 350l12 69h-172l10 56l215 241h78l-41 -231h48l-12 -66h-48l-12 -69h-78zM222 485l20 115h-6l-101 -115h87z" />
    <glyph glyph-name="uni20A3" unicode="&#x20a3;" horiz-adv-x="560" 
d="M33 0l20 114h-72l14 76h71l88 494h427l-18 -102h-320l-35 -198h288l-17 -100h-288l-17 -94h131l-14 -76h-131l-20 -114h-107z" />
    <glyph glyph-name="uni20A4" unicode="&#x20a4;" horiz-adv-x="533" 
d="M475 122q-28 -59 -70 -90.5t-116 -31.5h-315l16 93q34 14 62 35.5t45 49.5h-96l12 76h106q-2 42 -10 72h-83l13 76h47q-5 17 -8 37t-3 44q0 43 17 82t47.5 69t74 48t97.5 18q45 0 78 -13t56 -33.5t37.5 -46.5t21.5 -52l-107 -41q-8 35 -30.5 59.5t-67.5 24.5
q-52 0 -83.5 -33.5t-31.5 -83.5q0 -22 3 -41t8 -38h160l-13 -76h-128q2 -14 4 -29t2 -32v-11h109l-13 -76h-117q-20 -39 -61 -71l3 -5h163q33 0 54 15t35 43z" />
    <glyph glyph-name="uni20A9" unicode="&#x20a9;" horiz-adv-x="988" 
d="M844 326l-142 -326h-115l-39 326h-115l-157 -326h-113l-29 326h-108l13 76h88l-25 282h119l19 -282h117l136 282h117l35 -282h116l118 282h122l-124 -282h83l-13 -76h-103zM288 257l33 69h-76l5 -69l3 -71h5zM700 257l29 69h-75l9 -69l4 -70h6zM469 402h70l-6 51l-4 70
h-6l-29 -70z" />
    <glyph glyph-name="uni20AB" unicode="&#x20ab;" horiz-adv-x="578" 
d="M205 -16q-41 0 -77 14.5t-63.5 42.5t-43.5 69t-16 93q0 57 19.5 108.5t54.5 91.5t85 63.5t110 23.5q30 0 54 -7t43 -18t32.5 -25t21.5 -29h6l5 68l10 60h-139l12 74h140l13 71h112l-13 -71h61l-12 -74h-62l-95 -539h-106l12 63h-6q-23 -32 -63.5 -55.5t-94.5 -23.5z
M240 87q37 0 67.5 15t51.5 40t32.5 56.5t11.5 64.5q0 61 -35 92.5t-85 31.5q-36 0 -66.5 -14t-52.5 -38t-34 -55.5t-12 -67.5q0 -32 10 -55t26.5 -39t38.5 -23.5t47 -7.5zM-10 -84h458l-15 -86h-458z" />
    <glyph glyph-name="Euro" unicode="&#x20ac;" horiz-adv-x="641" 
d="M43 465h88q22 50 57.5 93t82.5 74.5t104.5 49.5t123.5 18q49 0 86.5 -12.5t68.5 -33.5l-61 -91q-20 14 -47 22t-64 8q-76 0 -135 -35.5t-94 -92.5h221l-15 -86h-242q-5 -18 -6.5 -36.5t-1.5 -37.5h237l-15 -86h-211q21 -65 70.5 -96.5t108.5 -31.5q38 0 68 8.5t59 23.5
l42 -92q-42 -25 -85.5 -36t-95.5 -11q-54 0 -101 15.5t-84.5 45.5t-63.5 74t-36 100h-101l14 86h80q1 19 2.5 37.5t5.5 36.5h-75z" />
    <glyph glyph-name="uni20AE" unicode="&#x20ae;" horiz-adv-x="541" 
d="M173 116l-133 -75h-3l18 101l136 77l14 76l-137 -77l18 104l137 77l33 183h-193l18 102h493l-18 -102h-193l-21 -121l134 76h3l-18 -102l-137 -78l-14 -76l138 79l-18 -104l-138 -79l-32 -177h-107z" />
    <glyph glyph-name="uni20B1" unicode="&#x20b1;" horiz-adv-x="645" 
d="M36 0l77 437h-76l14 76h76l30 171h228q42 0 78.5 -12t64 -34t44.5 -54t20 -71h65l-14 -76h-57q-10 -42 -33.5 -73.5t-57 -53t-75.5 -32.5t-89 -11h-140l-48 -267h-107zM348 369q42 0 75.5 18t49.5 50h-252l-12 -68h139zM234 513h247q-8 31 -32 50t-66 19h-137z" />
    <glyph glyph-name="uni20B8" unicode="&#x20b8;" horiz-adv-x="541" 
d="M153 0l75 424h-193l17 94h493l-17 -94h-193l-75 -424h-107zM65 590l16 94h493l-16 -94h-493z" />
    <glyph glyph-name="uni20B9" unicode="&#x20b9;" horiz-adv-x="569" 
d="M449 6l-2 -6h-142l-213 264l18 105h153q101 0 129 72h-354l14 77h346q-7 31 -30 51.5t-64 20.5h-239l16 94h521l-13 -76h-119q33 -41 39 -90h64l-14 -77h-56q-10 -42 -33 -74t-55.5 -53.5t-72 -32.5t-81.5 -12h-18l-3 -5z" />
    <glyph glyph-name="uni20BA" unicode="&#x20ba;" horiz-adv-x="543" 
d="M30 392l135 76l38 216h108l-28 -154l140 79l-19 -104l-139 -78l-15 -87l139 80l-18 -104l-139 -79l-24 -137q73 5 125 48.5t64 112.5h104q-11 -59 -38.5 -107t-69 -82.5t-94.5 -53t-116 -18.5h-101l31 175l-134 -76l18 103l134 76l16 86l-136 -76z" />
    <glyph glyph-name="uni20BD" unicode="&#x20bd;" horiz-adv-x="594" 
d="M36 0l20 114h-75l14 76h74l14 77h-75l16 94h76l57 323h229q45 0 83 -13.5t65.5 -38.5t43 -60.5t15.5 -79.5q0 -52 -19.5 -93.5t-54 -71t-83 -45t-105.5 -15.5h-140l-14 -77h133l-14 -76h-133l-20 -114h-107zM348 369q28 0 53 7.5t44 22.5t29.5 36.5t10.5 49.5
q0 42 -27 69.5t-78 27.5h-134l-37 -213h139z" />
    <glyph glyph-name="uni2116" unicode="&#x2116;" horiz-adv-x="1086" 
d="M135 716h127l234 -519h6l18 138l68 381h112l-127 -716h-110l-246 545h-6l-18 -138l-72 -407h-113zM719 238l14 79h280l-14 -79h-280zM936 732q33 0 61 -11t48.5 -31t32 -47.5t11.5 -60.5q0 -45 -15.5 -80.5t-42.5 -60.5t-63 -38t-76 -13q-32 0 -60 11t-48 31.5
t-31.5 48.5t-11.5 63q0 39 14 73t39.5 59.5t61.5 40.5t80 15zM903 467q47 0 74 30.5t27 75.5q0 36 -20.5 59t-55.5 23q-24 0 -43 -9t-32.5 -24t-20.5 -34t-7 -39q0 -38 22.5 -60t55.5 -22z" />
    <glyph glyph-name="minus" unicode="&#x2212;" horiz-adv-x="559" 
d="M32 223l17 96h447l-17 -96h-447z" />
    <glyph glyph-name="uni2215" unicode="&#x2215;" horiz-adv-x="458" 
d="M-38 0l423 716h110l-424 -716h-109z" />
    <glyph glyph-name="uniF8FF" horiz-adv-x="1000" 
d="M891 451q4 -21 5.5 -42t1.5 -44q0 -89 -28.5 -163.5t-81 -128.5t-126 -84t-163.5 -30q-86 0 -162 32.5t-132.5 89t-89 132.5t-32.5 162t32.5 162t89 132.5t132.5 89t162 32.5q85 0 154.5 -28.5t123.5 -79.5l-119 -120q-65 62 -159 62q-51 0 -96 -20t-78 -54t-52.5 -79.5
t-19.5 -96.5t19.5 -96.5t52.5 -80t78 -54.5t96 -20q46 0 84 12.5t67 34.5t47.5 52.5t25.5 66.5h-224v161h392z" />
    <glyph glyph-name="one.numerator" horiz-adv-x="257" 
d="M116 350l48 272l-64 -26l-26 64l131 56h55l-65 -366h-79z" />
    <glyph glyph-name="two.denominator" horiz-adv-x="311" 
d="M-36 0l11 62q39 34 72 62q28 24 52.5 44.5t29.5 24.5q15 13 33 31.5t18 39.5q0 19 -12.5 29t-30.5 10q-41 0 -61 -53l-67 28q14 45 50.5 70.5t87.5 25.5q53 0 84.5 -28.5t31.5 -70.5q0 -40 -21 -66t-55 -55q-10 -8 -26 -21.5t-32 -27.5q-18 -16 -40 -34h143l-13 -71h-255
z" />
    <glyph glyph-name="two.numerator" horiz-adv-x="311" 
d="M24 350l11 62q39 34 72 62q28 24 52.5 44.5t29.5 24.5q15 13 33 31.5t18 39.5q0 19 -12 29t-31 10q-42 0 -60 -53l-68 28q14 45 51 70.5t87 25.5q54 0 85 -28.5t31 -70.5q0 -40 -21 -66t-55 -55q-10 -8 -26 -21.5t-32 -27.5q-18 -16 -39 -34h142l-13 -71h-255z" />
    <glyph glyph-name="three.numerator" horiz-adv-x="329" 
d="M165 342q-45 0 -82 24.5t-46 75.5l72 26q8 -30 24 -42.5t39 -12.5q24 0 42.5 14t18.5 37q0 21 -15 32t-42 11h-34l12 66h36q24 0 41.5 12t17.5 33q0 17 -12.5 26t-28.5 9q-25 0 -39 -12.5t-21 -26.5l-66 28q16 36 51 59t85 23t81 -26.5t31 -65.5q0 -32 -18.5 -55.5
t-44.5 -34.5q21 -11 34 -29.5t13 -44.5q0 -27 -11.5 -50.5t-31.5 -40t-47 -26t-59 -9.5z" />
    <glyph glyph-name="four.denominator" horiz-adv-x="353" 
d="M135 0l12 69h-171l9 56l216 241h77l-41 -231h48l-12 -66h-48l-12 -69h-78zM159 135l21 115h-6l-102 -115h87z" />
    <glyph glyph-name="four.numerator" horiz-adv-x="353" 
d="M198 350l12 69h-172l10 56l215 241h78l-41 -231h48l-12 -66h-48l-12 -69h-78zM222 485l20 115h-6l-101 -115h87z" />
    <glyph glyph-name="r.alt" horiz-adv-x="380" 
d="M171 416h6q23 42 67 65t99 23q14 0 23.5 -1t15.5 -3l-20 -112q-19 7 -48 7q-63 0 -108.5 -40t-57.5 -107l-44 -248h-111l86 490h105z" />
    <glyph glyph-name="uni03BC" 
d="M335 0l11 66h-6q-25 -37 -64 -59.5t-92 -22.5q-24 0 -45.5 9t-34.5 23h-6l-4 -60l-32 -172h-110l124 706h112l-51 -288q-2 -13 -3 -20t-1 -15q0 -38 23.5 -59t65.5 -21q30 0 54.5 11.5t43.5 31.5t31.5 46.5t17.5 57.5l46 256h111l-86 -490h-105z" />
    <glyph glyph-name="uni2103" horiz-adv-x="971" 
d="M601 -16q-70 0 -126.5 24t-96 66t-61 98t-21.5 120q0 81 30 155t84.5 130.5t130.5 89.5t168 33q77 0 137 -29.5t102 -84.5l-89 -75q-14 19 -29.5 34t-35.5 25.5t-45 16.5t-58 6q-60 0 -111 -22t-89 -61t-59.5 -93t-21.5 -117q0 -49 15 -88t42 -66t65 -41.5t84 -14.5
q68 0 114.5 24t90.5 68l65 -78q-60 -63 -127 -91.5t-158 -28.5zM181 442q-24 0 -45.5 8t-38 23t-26 36t-9.5 47q0 32 11 58.5t30.5 45.5t46 29.5t58.5 10.5q24 0 45.5 -8.5t38 -23.5t26 -36t9.5 -46q0 -32 -11 -58.5t-30.5 -45.5t-46.5 -29.5t-58 -10.5zM188 513q26 0 45 18
t19 46q0 23 -14 37.5t-37 14.5q-26 0 -45 -18.5t-19 -46.5q0 -23 14 -37t37 -14z" />
    <glyph glyph-name="uni2109" horiz-adv-x="823" 
d="M307 0l121 684h420l-19 -106h-308l-34 -192h278l-18 -104h-278l-50 -282h-112zM186 442q-24 0 -45.5 8t-38 23t-26 36t-9.5 47q0 32 11 58.5t30.5 45.5t46 29.5t58.5 10.5q24 0 45.5 -8.5t38 -23.5t26 -36t9.5 -46q0 -32 -11 -58.5t-30.5 -45.5t-46.5 -29.5t-58 -10.5z
M193 513q26 0 45 18t19 46q0 23 -14 37.5t-37 14.5q-26 0 -45 -18.5t-19 -46.5q0 -23 14 -37t37 -14z" />
    <glyph glyph-name="uni2190" horiz-adv-x="1102" 
d="M267 260v-169l-219 219l219 219v-169h779v-100h-779z" />
    <glyph glyph-name="uni2191" horiz-adv-x="517" 
d="M309 -133h-100v742h-169l219 218l218 -218h-168v-742z" />
    <glyph glyph-name="uni2192" horiz-adv-x="1102" 
d="M56 260v100h780v169l218 -219l-218 -219v169h-780z" />
    <glyph glyph-name="uni2193" horiz-adv-x="517" 
d="M309 61h168l-218 -219l-219 219h169v741h100v-741z" />
    <glyph glyph-name="uni2196" horiz-adv-x="782" 
d="M782 53l-71 -71l-552 551l-119 -120v310h309l-119 -120z" />
    <glyph glyph-name="uni2197" horiz-adv-x="782" 
d="M552 603l-119 120h309v-310l-119 120l-552 -551l-71 71z" />
    <glyph glyph-name="uni2198" horiz-adv-x="782" 
d="M230 113l119 -120h-309v310l119 -120l552 551l71 -71z" />
    <glyph glyph-name="uni2199" horiz-adv-x="782" 
d="M0 663l71 71l552 -551l119 120v-310h-309l119 120z" />
    <glyph glyph-name="uni2639" horiz-adv-x="836" 
d="M287 395q-23 0 -39.5 16.5t-16.5 40.5q0 23 16.5 39t39.5 16t39.5 -16t16.5 -39q0 -24 -16.5 -40.5t-39.5 -16.5zM549 395q-23 0 -39.5 16.5t-16.5 40.5q0 23 16.5 39t39.5 16t39.5 -16t16.5 -39q0 -24 -16.5 -40.5t-39.5 -16.5zM418 -16q-77 0 -145 29.5t-119 80.5
t-80.5 119t-29.5 145t29.5 145t80.5 119t119 80.5t145 29.5t145 -29.5t119 -80.5t80.5 -119t29.5 -145t-29.5 -145t-80.5 -119t-119 -80.5t-145 -29.5zM418 48q64 0 120.5 24.5t98.5 67t66.5 99t24.5 119.5q0 64 -24.5 120.5t-66.5 98.5t-98.5 66.5t-120.5 24.5
q-63 0 -119.5 -24.5t-99 -66.5t-67 -98.5t-24.5 -120.5q0 -63 24.5 -119.5t67 -99t99 -67t119.5 -24.5zM418 301q63 0 113 -32.5t74 -86.5l-67 -31q-17 35 -49.5 55t-70.5 20t-70.5 -20t-48.5 -55l-68 31q24 54 74 86.5t113 32.5z" />
    <glyph glyph-name="uni263A" horiz-adv-x="836" 
d="M549 395q-23 0 -39.5 16.5t-16.5 40.5q0 23 16.5 39t39.5 16t39.5 -16t16.5 -39q0 -24 -16.5 -40.5t-39.5 -16.5zM287 395q-23 0 -39.5 16.5t-16.5 40.5q0 23 16.5 39t39.5 16t39.5 -16t16.5 -39q0 -24 -16.5 -40.5t-39.5 -16.5zM418 152q-63 0 -113 32.5t-74 86.5l68 31
q16 -35 48.5 -55t70.5 -20t70.5 20t49.5 55l67 -31q-24 -54 -74 -86.5t-113 -32.5zM418 -16q-77 0 -145 29.5t-119 80.5t-80.5 119t-29.5 145t29.5 145t80.5 119t119 80.5t145 29.5t145 -29.5t119 -80.5t80.5 -119t29.5 -145t-29.5 -145t-80.5 -119t-119 -80.5t-145 -29.5z
M418 48q64 0 120.5 24.5t98.5 67t66.5 99t24.5 119.5q0 64 -24.5 120.5t-66.5 98.5t-98.5 66.5t-120.5 24.5q-63 0 -119.5 -24.5t-99 -66.5t-67 -98.5t-24.5 -120.5q0 -63 24.5 -119.5t67 -99t99 -67t119.5 -24.5z" />
    <glyph glyph-name="uni2780" horiz-adv-x="836" 
d="M391 177v274l-66 -27l-28 64l118 55h55v-366h-79zM418 -16q-77 0 -145 29.5t-119 80.5t-80.5 119t-29.5 145t29.5 145t80.5 119t119 80.5t145 29.5t145 -29.5t119 -80.5t80.5 -119t29.5 -145t-29.5 -145t-80.5 -119t-119 -80.5t-145 -29.5zM418 59q62 0 116.5 23.5
t95 64.5t64 95t23.5 116t-23.5 116.5t-64 95t-95 64t-116.5 23.5t-116 -23.5t-95 -64t-64.5 -95t-23.5 -116.5t23.5 -116t64.5 -95t95 -64.5t116 -23.5z" />
    <glyph glyph-name="uni2781" horiz-adv-x="836" 
d="M418 -16q-77 0 -145 29.5t-119 80.5t-80.5 119t-29.5 145t29.5 145t80.5 119t119 80.5t145 29.5t145 -29.5t119 -80.5t80.5 -119t29.5 -145t-29.5 -145t-80.5 -119t-119 -80.5t-145 -29.5zM418 59q62 0 116.5 23.5t95 64.5t64 95t23.5 116t-23.5 116.5t-64 95t-95 64
t-116.5 23.5t-116 -23.5t-95 -64t-64.5 -95t-23.5 -116.5t23.5 -116t64.5 -95t95 -64.5t116 -23.5zM290 177v62l131 131q15 16 28 32.5t13 36.5q0 17 -13 29t-33 12t-35.5 -13t-20.5 -42l-73 30q11 45 46.5 70.5t81.5 25.5q26 0 49.5 -7.5t41 -22t28 -34.5t10.5 -44
q0 -18 -7 -34.5t-16.5 -30.5t-20.5 -26t-20 -21l-83 -83h149v-71h-256z" />
    <glyph glyph-name="uni2782" horiz-adv-x="836" 
d="M418 -16q-77 0 -145 29.5t-119 80.5t-80.5 119t-29.5 145t29.5 145t80.5 119t119 80.5t145 29.5t145 -29.5t119 -80.5t80.5 -119t29.5 -145t-29.5 -145t-80.5 -119t-119 -80.5t-145 -29.5zM418 59q62 0 116.5 23.5t95 64.5t64 95t23.5 116t-23.5 116.5t-64 95t-95 64
t-116.5 23.5t-116 -23.5t-95 -64t-64.5 -95t-23.5 -116.5t23.5 -116t64.5 -95t95 -64.5t116 -23.5zM416 169q-48 0 -86 24t-52 76l74 27q8 -32 26 -44t38 -12q21 0 37.5 13t16.5 36q0 21 -16.5 33t-41.5 12h-40v66h36q23 0 37 11t14 31q0 18 -13.5 28t-30.5 10
q-25 0 -37.5 -13t-17.5 -27l-70 29q13 36 44 59t82 23q55 0 89 -30t34 -74q0 -47 -44 -77q24 -14 40 -35t16 -49t-11.5 -49.5t-30 -36.5t-43 -23t-50.5 -8z" />
    <glyph glyph-name="uni2783" horiz-adv-x="836" 
d="M422 177v69h-172v56l172 241h78v-231h47v-66h-47v-69h-78zM422 432h-6l-86 -120h92v120zM418 -16q-77 0 -145 29.5t-119 80.5t-80.5 119t-29.5 145t29.5 145t80.5 119t119 80.5t145 29.5t145 -29.5t119 -80.5t80.5 -119t29.5 -145t-29.5 -145t-80.5 -119t-119 -80.5
t-145 -29.5zM418 59q62 0 116.5 23.5t95 64.5t64 95t23.5 116t-23.5 116.5t-64 95t-95 64t-116.5 23.5t-116 -23.5t-95 -64t-64.5 -95t-23.5 -116.5t23.5 -116t64.5 -95t95 -64.5t116 -23.5z" />
    <glyph glyph-name="uni2784" horiz-adv-x="836" 
d="M418 -16q-77 0 -145 29.5t-119 80.5t-80.5 119t-29.5 145t29.5 145t80.5 119t119 80.5t145 29.5t145 -29.5t119 -80.5t80.5 -119t29.5 -145t-29.5 -145t-80.5 -119t-119 -80.5t-145 -29.5zM418 59q62 0 116.5 23.5t95 64.5t64 95t23.5 116t-23.5 116.5t-64 95t-95 64
t-116.5 23.5t-116 -23.5t-95 -64t-64.5 -95t-23.5 -116.5t23.5 -116t64.5 -95t95 -64.5t116 -23.5zM418 169q-21 0 -42 5t-39.5 16t-32.5 28t-21 42l72 28q5 -23 22 -35.5t40 -12.5q24 0 40 16.5t16 41.5t-16 41.5t-39 16.5q-36 0 -57 -32l-67 29l24 189h214v-66h-151
l-12 -74q12 10 28 14.5t33 4.5q25 0 47 -8.5t39 -25t27 -39.5t10 -52q0 -28 -11 -51.5t-30 -40t-43 -26t-51 -9.5z" />
    <glyph glyph-name="uni2785" horiz-adv-x="836" 
d="M418 -16q-77 0 -145 29.5t-119 80.5t-80.5 119t-29.5 145t29.5 145t80.5 119t119 80.5t145 29.5t145 -29.5t119 -80.5t80.5 -119t29.5 -145t-29.5 -145t-80.5 -119t-119 -80.5t-145 -29.5zM418 59q62 0 116.5 23.5t95 64.5t64 95t23.5 116t-23.5 116.5t-64 95t-95 64
t-116.5 23.5t-116 -23.5t-95 -64t-64.5 -95t-23.5 -116.5t23.5 -116t64.5 -95t95 -64.5t116 -23.5zM414 169q-29 0 -54 10t-43 27.5t-28.5 40.5t-10.5 49q0 32 12.5 59.5t31.5 53.5q10 14 28 39l36 50q21 29 44 61l61 -43l-81 -101q8 4 21 4q24 0 45 -10t37.5 -27t26 -39.5
t9.5 -47.5q0 -26 -10.5 -49t-29 -40t-43 -27t-52.5 -10zM413 239q25 0 40.5 17t15.5 40t-15.5 40t-40.5 17t-40.5 -17t-15.5 -40t15.5 -40t40.5 -17z" />
    <glyph glyph-name="uni2786" horiz-adv-x="836" 
d="M418 -16q-77 0 -145 29.5t-119 80.5t-80.5 119t-29.5 145t29.5 145t80.5 119t119 80.5t145 29.5t145 -29.5t119 -80.5t80.5 -119t29.5 -145t-29.5 -145t-80.5 -119t-119 -80.5t-145 -29.5zM418 59q62 0 116.5 23.5t95 64.5t64 95t23.5 116t-23.5 116.5t-64 95t-95 64
t-116.5 23.5t-116 -23.5t-95 -64t-64.5 -95t-23.5 -116.5t23.5 -116t64.5 -95t95 -64.5t116 -23.5zM310 198l156 273h-168v72h255v-68l-172 -313z" />
    <glyph glyph-name="uni2787" horiz-adv-x="836" 
d="M418 -16q-77 0 -145 29.5t-119 80.5t-80.5 119t-29.5 145t29.5 145t80.5 119t119 80.5t145 29.5t145 -29.5t119 -80.5t80.5 -119t29.5 -145t-29.5 -145t-80.5 -119t-119 -80.5t-145 -29.5zM418 59q62 0 116.5 23.5t95 64.5t64 95t23.5 116t-23.5 116.5t-64 95t-95 64
t-116.5 23.5t-116 -23.5t-95 -64t-64.5 -95t-23.5 -116.5t23.5 -116t64.5 -95t95 -64.5t116 -23.5zM418 169q-26 0 -50 7.5t-43.5 22.5t-31 36t-11.5 48t14 49.5t37 37.5q-18 11 -28.5 31t-10.5 41q0 25 10 45t27 34.5t39.5 22t47.5 7.5q24 0 46.5 -7.5t40 -22t27.5 -34.5
t10 -45q0 -20 -11 -40t-28 -32q23 -15 37 -37.5t14 -49.5t-11.5 -48.5t-31 -36t-44 -22t-49.5 -7.5zM418 400q17 0 31 11.5t14 29.5q0 17 -13 29t-32 12q-20 0 -32.5 -12t-12.5 -29q0 -19 14 -30t31 -11zM418 238q20 0 38 14t18 36q0 21 -18 34.5t-38 13.5q-21 0 -38.5 -13
t-17.5 -35q0 -23 17 -36.5t39 -13.5z" />
    <glyph glyph-name="uni2788" horiz-adv-x="836" 
d="M418 -16q-77 0 -145 29.5t-119 80.5t-80.5 119t-29.5 145t29.5 145t80.5 119t119 80.5t145 29.5t145 -29.5t119 -80.5t80.5 -119t29.5 -145t-29.5 -145t-80.5 -119t-119 -80.5t-145 -29.5zM418 59q62 0 116.5 23.5t95 64.5t64 95t23.5 116t-23.5 116.5t-64 95t-95 64
t-116.5 23.5t-116 -23.5t-95 -64t-64.5 -95t-23.5 -116.5t23.5 -116t64.5 -95t95 -64.5t116 -23.5zM415 551q29 0 54 -10t43 -27.5t28.5 -40.5t10.5 -49q0 -32 -12.5 -59.5t-31.5 -53.5q-10 -14 -28 -39l-36 -50q-21 -29 -44 -61l-61 43l80 101q-8 -4 -20 -4q-24 0 -45 10
t-37.5 27t-26 39.5t-9.5 47.5q0 26 10.5 49t29 40t43 27t52.5 10zM416 481q-25 0 -40.5 -17t-15.5 -40t15.5 -40t40.5 -17t40 17t15 40t-15 40t-40 17z" />
    <glyph glyph-name="uni278A" horiz-adv-x="836" 
d="M470 543h-55l-118 -55l29 -64l65 27v-274h79v366zM418 -16q-77 0 -145 29.5t-119 80.5t-80.5 119t-29.5 145t29.5 145t80.5 119t119 80.5t145 29.5t145 -29.5t119 -80.5t80.5 -119t29.5 -145t-29.5 -145t-80.5 -119t-119 -80.5t-145 -29.5z" />
    <glyph glyph-name="uni278B" horiz-adv-x="836" 
d="M418 -16q-77 0 -145 29.5t-119 80.5t-80.5 119t-29.5 145t29.5 145t80.5 119t119 80.5t145 29.5t145 -29.5t119 -80.5t80.5 -119t29.5 -145t-29.5 -145t-80.5 -119t-119 -80.5t-145 -29.5zM545 248h-148l83 83q9 9 19.5 21t20.5 26t16.5 30.5t6.5 34.5q0 24 -10.5 44
t-28 34.5t-40.5 22t-49 7.5q-46 0 -82 -25.5t-46 -70.5l72 -30q5 29 20.5 42t36.5 13q20 0 33 -12t13 -29q0 -20 -13 -36.5t-28 -32.5l-8.5 -8.5l-16 -16l-21 -21l-23.5 -23.5l-62 -62v-62h255v71z" />
    </font>
</defs>
</svg>
